osu file format v5

[General]
AudioFilename: brave_heart_moonlit_version.mp3
AudioLeadIn: 1996
PreviewTime: -1
Countdown: 1
SampleSet: Normal
StackLeniency: 0.7
Mode: 0
LetterboxInBreaks: 1
EditorDistanceSpacing: 0.899999976158142

[Metadata]
Title:Brave Heart
Artist:Megumi Hayashibara
Creator:tieff
Version:Normal
Source:Shaman King
Tags:Shaman King

[Difficulty]
HPDrainRate:5
CircleSize:4
OverallDifficulty:5
SliderMultiplier:1.4
SliderTickRate:2

[Events]
//Background and Video events
0,0,"1024-by-768-327047-20061104164123.jpg"
//Break Periods
//Storyboard Layer 0 (Background)
//Storyboard Layer 1 (Failing)
//Storyboard Layer 2 (Passing)
//Storyboard Layer 3 (Foreground)
//Storyboard Sound Samples
//Background Colour Transformations
3,100,163,162,255

[TimingPoints]
140,461.531977236022,4,2,0,61,1,0
16042,-100,4,1,0,59,0,1
31965,-100,4,1,0,61,0,0
46849,-100,4,2,0,100,0,0
48349,-100,4,1,0,61,0,0
61733,-100,4,2,0,100,0,0
66438,-100,4,1,0,71,0,0
69118,-100,4,2,0,100,0,0
72233,-100,4,1,0,62,0,0
75118,-100,4,1,0,69,0,0
77425,-100,4,1,1,70,0,0

[Colours]
Combo1 : 255,255,255
Combo2 : 255,0,0

[HitObjects]
128,312,140,1,2
128,256,370,1,0
128,200,601,2,0,B|272:200,1,140
320,200,1293,1,4
320,32,1986,5,0
320,88,2216,1,0
320,88,2447,2,0,B|152:88,1,140
120,88,3139,1,4
272,152,3832,6,0,B|360:152,1,70,0|2
344,208,4293,2,0,B|272:208,1,70,0|2
272,264,4755,1,0
328,264,4986,2,0,B|432:264,1,70,2|0
448,264,5447,1,2
448,208,5678,5,2
448,152,5909,1,2
448,96,6139,2,0,B|416:64|208:120,1,210,2|4
384,312,7524,5,0
384,256,7755,1,0
384,200,7986,2,0,B|240:200,1,140
192,200,8678,1,4
192,32,9370,5,0
192,88,9601,1,0
192,88,9832,2,0,B|360:88,1,140
392,88,10524,1,4
240,152,11216,6,0,B|152:152,1,70,0|2
168,208,11678,2,0,B|240:208,1,70,0|2
240,264,12139,1,0
184,264,12370,2,0,B|80:264,1,70,2|0
64,264,12832,1,2
64,208,13062,5,2
64,152,13293,1,2
64,96,13524,2,0,B|96:64|304:120,1,210,2|4
96,112,16293,5,4
208,112,16755,1,4
320,112,17216,2,0,B|320:208,3,70,2|0|0|2
320,352,18601,1,4
208,352,19062,6,0,B|128:352,3,70,2|0|2|0
136,296,19985,2,0,B|216:296,3,70,2|0|2|0
208,240,20908,1,2
176,192,21139,1,0
208,144,21370,2,2,B|208:64,1,70,0|2
328,48,22062,5,2
368,88,22293,1,0
328,128,22524,1,2
368,168,22755,2,0,B|368:248,1,70,2|0
368,238,23216,1,4
368,296,23447,2,2,B|368:344,4,35
369,238,24139,1,2
192,112,24601,6,0,B|192:208,3,70,2|0|0|2
192,352,25985,1,4
304,352,26447,6,0,B|384:352,3,70,2|0|2|0
376,296,27370,2,0,B|296:296,3,70,2|0|2|0
304,240,28293,1,2
336,192,28524,1,0
304,144,28754,2,2,B|304:64,1,70,0|2
184,48,29447,5,2
144,88,29678,1,0
184,128,29908,1,2
144,168,30139,2,0,B|144:248,1,70,2|0
192,272,30601,1,2
144,304,30831,2,2,B|144:352,4,35
144,304,31524,1,4
384,192,32216,5,0
424,160,32447,1,0
424,104,32678,2,0,B|360:104,1,35
304,104,33139,2,0,B|256:120|256:176,1,70
256,208,33601,1,0
200,208,33831,2,0,B|48:208,3,140,2|2|2|2
60,96,35677,1,2
60,39,35908,6,0,B|156:39,1,70
184,40,36370,2,0,B|248:40,1,35,0|0
304,40,36831,1,0
360,40,37062,2,0,B|400:88|336:112,1,70
360,152,37524,2,0,B|360:280,1,105
360,256,38216,2,0,B|360:352,1,70,0|0
272,256,38908,1,0
160,256,39370,1,0
112,152,39831,1,4
112,96,40062,6,0,B|64:96,2,35
168,96,40524,1,0
224,96,40754,2,0,B|320:96,1,70
336,64,41216,1,0
376,24,41447,1,2
416,64,41677,1,2
376,104,41908,1,0
376,160,42139,2,0,B|376:256,2,70,2|2|0
376,230,42831,1,2
376,288,43062,6,0,B|276:289,1,70
248,288,43524,2,0,B|208:288,4,35,0|0|0|0|0
176,200,44447,1,0
120,104,44908,6,2,B|208:64,1,70
232,40,45370,1,2
280,72,45600,2,2,B|280:112,1,35
328,40,45947,2,2,B|376:48,1,35
416,16,46293,2,2,B|432:56|424:96|360:96|360:96|384:112,1,140,2|4
376,176,46985,5,0
376,176,47216,1,2
320,192,47447,1,0
320,192,47677,1,2
264,200,47908,1,0
264,200,48139,1,2
232,248,48370,1,2
200,304,48600,5,2
200,304,49062,1,2
304,256,49523,2,2,B|400:256,1,70,0|2
432,256,49985,1,0
432,200,50216,2,2,B|432:152,2,35
376,200,50677,6,0,B|320:152,1,70
264,152,51139,2,0,B|208:152,1,35
168,96,51600,1,0
167,150,51831,2,0,B|167:238,1,70
112,280,52293,5,2
167,220,52523,1,2
224,280,52754,1,2
272,216,52985,2,2,B|272:176,2,35
328,280,53446,1,2
384,216,53677,2,2,B|384:64,1,140
216,56,54831,6,0,B|256:56,2,35
160,56,55293,1,0
192,104,55523,1,0
136,104,55754,1,0
160,152,55985,2,2,B|88:152,1,70,2|0
120,200,56446,2,0,B|216:200,1,70,2|0
160,248,56908,2,2,B|72:248,1,70
120,296,57369,2,0,B|216:296,1,70
190,296,57831,5,0
248,296,58062,2,0,B|288:256|248:224,1,70
258,234,58523,2,0,B|224:200|256:160,1,70
248,112,58985,1,0
248,56,59216,2,0,B|336:56|336:56,1,70
376,56,59677,5,2
432,56,59908,1,0
400,104,60139,1,0
432,144,60369,1,2
400,192,60600,1,0
440,232,60831,1,2
400,272,61062,2,0,B|400:352,1,70,0|2
344,344,61523,1,4
296,240,61985,5,0
272,296,62216,1,2
216,304,62446,1,0
160,288,62677,1,2
104,264,62908,5,0
64,224,63139,1,2
64,168,63369,1,0
80,112,63600,1,2
112,64,63831,5,0
160,40,64062,1,2
200,72,64292,1,0
248,104,64523,1,2
288,64,64754,5,0
336,40,64985,1,2
376,80,65216,1,0
336,120,65446,1,2
368,160,65677,5,0
416,136,65908,1,2
440,88,66139,1,0
416,40,66369,1,2
360,32,66600,1,0
304,32,66831,1,0
248,40,67062,6,0,B|192:96,1,70,0|2
80,40,67523,2,0,B|152:104,1,70,0|2
80,200,67985,2,0,B|144:136,1,70,0|2
248,192,68446,2,0,B|176:128,1,70,2|0
248,192,68908,1,2
360,192,69369,5,0
360,192,69600,1,2
384,144,69831,1,0
384,144,70062,1,2
400,88,70292,1,0
400,88,70523,1,2
360,48,70754,1,0
360,48,70985,1,2
304,40,71215,5,0
304,40,71446,1,2
248,48,71677,1,0
248,48,71908,1,2
200,80,72138,1,0
200,80,72369,1,0
168,120,72600,6,0,B|112:176|112:184|112:176,1,70,0|2
168,200,73062,2,0,B|216:144,1,70,0|2
256,176,73523,2,0,B|216:224,2,35,0|2|0
256,176,73985,2,0,B|312:112,1,70
336,80,74446,6,0,B|368:48,1,35,2|0
400,96,74792,2,0,B|400:144,1,35,2|2
400,184,75138,2,0,B|400:224,1,35,2|2
400,272,75485,2,0,B|400:320,6,35,2|2|2|2|2|2|2
368,272,76292,5,4
304,200,76638,1,4
240,272,76985,1,4
184,88,77677,5,0
144,144,77908,1,0
136,216,78138,1,0
128,288,78369,2,0,B|64:264,2,35
112,352,78831,2,0,B|160:352,1,35
376,160,79523,5,0
304,160,79754,1,0
248,104,79985,2,0,B|176:162,1,70,2|0
144,192,80446,2,0,B|80:248,1,70,2|0
128,128,80908,2,0,B|80:72,1,70,2|0
144,40,81369,6,0,B|192:96,1,70,2|0
232,40,81831,1,2
304,40,82061,1,0
376,40,82292,1,0
448,40,82523,2,2,B|448:96,1,35,2|0
448,176,82984,5,0
408,232,83215,1,0
352,272,83446,1,4
280,288,83677,1,0
208,280,83908,1,4
144,248,84138,1,0
96,200,84369,2,0,B|72:168,1,35
200,48,85061,6,0,B|280:48,1,70,0|2
272,120,85523,2,0,B|344:120,1,70,0|2
344,192,85984,1,0
416,192,86215,2,0,B|416:240,1,35,2|2
248,288,86908,6,0,B|192:264|184:232,1,70
144,192,87369,1,2
120,128,87600,1,0
144,64,87831,1,2
200,24,88061,1,0
264,32,88292,1,2
328,56,88523,1,0
376,104,88754,1,2
408,168,88984,1,0
408,240,89215,6,0,B|408:320,1,70
344,272,89677,1,0
272,272,89907,2,0,B|224:272,1,35
256,168,90369,5,0
208,112,90600,1,2
256,168,90831,1,2
304,216,91061,1,0
256,168,91292,1,2
312,120,91523,1,0
360,72,91754,2,0,B|392:40,1,35,2|2
456,208,92446,5,0
456,208,92677,1,2
416,264,92907,1,0
416,264,93138,1,2
344,280,93369,1,0
344,280,93600,1,2
272,272,93830,2,0,B|232:264|208:232,1,70,0|2
160,184,94292,2,0,B|136:160|128:112,1,70,0|2
184,72,94754,6,0,B|208:32|248:24,1,70,2|0
288,72,95215,1,2
344,112,95446,1,0
400,72,95677,2,0,B|432:104|400:152,1,70,2|0
408,136,96138,2,0,B|376:184|416:232,1,70,2|0
400,272,96600,5,2
344,232,96830,1,0
288,192,97061,1,0
232,152,97292,1,2
112,80,97754,5,2
176,48,97984,1,0
248,56,98215,1,2
320,48,98446,1,0
384,80,98677,1,2
320,48,98907,1,0
248,56,99138,2,0,B|248:120,1,35,0|2
104,200,99830,6,0,B|144:240|176:240,1,70,0|2
216,192,100292,2,0,B|248:176|296:192,1,70,0|2
328,240,100753,2,0,B|384:240|400:200,1,70,0|2
392,152,101215,2,0,B|408:112|368:88,1,70,0|2
304,96,101677,2,0,B|256:104|216:72,1,70,0|2
168,80,102138,5,2
168,80,102369,1,0
168,152,102600,1,2
168,152,102830,1,0
168,224,103061,1,2
168,224,103292,1,0
168,296,103523,1,2
168,296,103753,1,0
232,264,103984,6,0,B|280:272|312:248,1,70,2|0
344,208,104446,1,0
376,144,104676,1,2
264,64,105138,6,0,B|216:64,4,35
224,120,105830,1,0
184,176,106061,1,0
176,248,106292,1,0
176,320,106523,1,0
256,320,106753,5,4
256,192,107215,1,4
256,64,107676,1,4
