osu file format v9

[General]
AudioFilename: Megpoid - Your Love will Surely Skyrocket.mp3
AudioLeadIn: 1974
PreviewTime: -1
Countdown: 1
SampleSet: Soft
StackLeniency: 0.7
Mode: 0
LetterboxInBreaks: 1

[Editor]
DistanceSpacing: 1.1
BeatDivisor: 8
GridSize: 32

[Metadata]
Title:Your Love Will Surely Skyrocket
Artist:Megpoid Gumi
Creator:SpacemanSpiff
Version:Normal
Source:
Tags:

[Difficulty]
HPDrainRate:4
CircleSize:3
OverallDifficulty:2
ApproachRate:3
SliderMultiplier:1.4
SliderTickRate:1

[Events]
//Background and Video events
0,0,"gumi.jpg"
Video,0,"fi53auGWwJI.flv"
//Break Periods
2,74466,86882
2,141599,154068
//Storyboard Layer 0 (Background)
//Storyboard Layer 1 (Fail)
//Storyboard Layer 2 (Pass)
//Storyboard Layer 3 (Foreground)
//Storyboard Sound Samples
//Background Colour Transformations
3,100,163,162,255

[TimingPoints]
7658.43706293706,419.58041958042,4,2,0,100,1,0

[Colours]
Combo1 : 117,78,39
Combo2 : 245,165,0
Combo3 : 47,145,47

[HitObjects]
128,128,21242,1,0
192,96,21452,1,0
256,96,21661,1,0
256,96,21871,1,0
352,96,22238,2,0,B|384:128|352:160,1,70
236,339,22868,5,0
160,320,23078,2,0,B|96:320|160:288,1,70
160,320,23497,1,0
256,224,23917,1,0
256,224,24126,1,0
160,64,24651,6,0,B|224:64,1,52.5
292,68,25018,1,0
292,68,25228,1,0
448,96,25647,1,0
480,160,25857,1,0
352,288,26277,6,0,B|256:224|384:192,1,157.5
448,320,27326,1,0
448,320,27536,1,0
160,320,27955,5,0
160,320,28165,1,0
64,320,28585,1,0
96,224,29004,1,0
128,192,29214,1,0
192,64,29633,5,0
236,63,29843,1,0
288,64,30053,1,0
384,64,30473,2,0,B|416:64|416:64|416:96,1,70
352,192,31312,5,0
384,224,31522,1,0
352,256,31731,1,0
256,320,32361,1,0
224,256,32571,1,0
256,128,33043,6,0,B|320:96|384:160,1,140
448,160,34039,1,0
448,96,34249,1,0
256,64,34721,5,0
192,64,34931,1,0
128,64,35140,1,0
57,140,35717,1,0
96,192,35927,1,0
416,64,36399,5,0
384,128,36609,1,0
352,64,36819,1,0
480,160,37396,1,0
480,224,37605,1,0
288,320,38078,5,0
192,320,38287,1,0
128,288,38497,1,0
224,320,39074,2,0,B|256:288|256:256,1,70
416,224,39756,5,0
400,136,39966,1,0
384,64,40175,1,0
256,32,40752,1,0
192,64,40962,1,0
64,192,41382,5,0
81,256,41592,1,0
96,320,41801,1,0
160,192,42431,1,0
224,224,42640,1,0
288,288,43060,6,0,B|352:288|417:216,1,140
384,96,44109,1,0
320,64,44319,1,0
128,64,44791,6,0,B|128:96|32:192|128:160,1,140
96,288,45787,1,0
160,320,45997,1,0
352,288,46469,5,0
416,192,46889,1,0
256,96,47466,1,0
320,64,47675,1,0
192,256,48095,5,0
192,256,48305,1,0
256,288,48515,1,0
256,288,48724,1,0
320,288,48934,1,0
320,288,49144,1,0
384,256,49354,2,0,B|480:224|418:149,1,140
423,155,49983,1,0
374,103,50193,1,0
288,160,50770,2,0,B|192:128|160:192|160:192,1,140
146,226,51399,5,0
108,262,51609,1,0
64,256,51819,1,0
64,256,52029,1,0
71,113,52448,1,0
96,64,52658,1,0
233,135,53078,1,0
192,192,53287,1,0
237,245,53497,1,0
391,175,53917,1,0
352,128,54126,1,0
304,167,54336,1,0
128,192,54808,5,0
154,260,55018,1,0
265,327,55857,1,0
326,308,56067,1,0
320,96,56487,1,0
256,128,56696,2,0,B|320:96,1,70
96,192,57798,5,0
105,144,57955,1,0
243,74,58794,1,0
378,150,59633,1,0
342,274,60053,1,0
242,207,60473,1,0
161,296,60892,1,0
128,160,61312,5,0
128,160,61731,1,0
251,146,62151,1,0
320,128,62361,2,0,B|288:64|352:96,1,70
396,147,62780,1,0
384,224,62990,2,0,B|320:256,2,70
416,288,63619,1,0
352,320,63829,1,0
224,320,64459,5,0
224,320,64668,1,0
192,192,65298,1,0
96,160,65717,1,0
64,224,65927,1,0
96,288,66137,2,0,B|64:384|192:320,1,140
224,256,66766,1,0
276,310,66976,1,0
224,256,67186,1,0
288,160,67605,1,0
416,64,68025,5,0
448,128,68445,1,0
448,224,68864,2,0,B|448:320|352:288,1,140
320,288,69494,1,0
320,160,70333,1,0
320,160,70490,1,0
192,160,70962,5,0
140,204,71172,1,0
130,142,71382,1,0
32,96,71801,1,0
32,96,72011,1,0
128,32,72431,1,0
195,41,72640,1,0
160,96,72850,1,0
324,143,73689,5,0
352,192,73847,1,0
256,224,74266,1,0
352,96,88322,5,0
352,96,88532,1,0
419,177,88952,1,0
352,256,89371,1,0
416,288,89581,1,0
160,288,90105,5,0
80,218,90525,1,0
97,114,91050,1,0
139,69,91259,1,0
288,64,91784,5,0
256,160,92203,1,0
256,256,92571,2,0,B|224:288|192:320|128:288,1,140
224,352,93410,5,0
320,320,93829,1,0
416,256,94249,2,0,B|512:256|448:160,1,140
352,64,95088,5,0
248,110,95508,1,0
155,54,95927,1,0
89,141,96347,1,0
64,256,96766,5,0
167,200,97186,1,0
181,305,97605,1,0
234,274,97815,1,0
235,336,98025,1,0
120,336,98445,5,0
71,239,98864,1,0
129,90,99494,1,0
180,132,99703,1,0
192,256,100175,5,0
288,288,100595,1,0
416,224,101172,1,0
396,154,101382,1,0
256,64,101854,5,0
146,93,102273,1,0
64,192,102850,2,0,B|32:256|96:224,1,70
209,197,103480,5,0
320,224,103899,1,0
416,288,104319,1,0
352,320,104529,1,0
288,352,104738,1,0
157,317,105158,5,0
64,224,105578,1,0
128,96,105997,1,0
192,64,106207,1,0
352,96,106889,5,0
448,160,107308,1,0
384,288,107885,1,0
320,320,108095,1,0
288,192,108515,5,0
160,192,108934,1,0
75,106,109354,2,0,B|75:42|107:10|171:74,1,140
160,192,110193,5,0
160,320,110612,1,0
288,288,111032,2,0,B|384:320|416:256,1,140
480,160,111871,5,0
384,96,112291,1,0
288,224,112710,1,0
224,256,112920,1,0
256,320,113078,2,0,B|288:320,1,17.5
144,273,113550,5,0
62,182,113969,1,0
128,64,114389,1,0
96,128,114598,2,0,B|128:160|160:128,1,70
224,128,115228,5,0
288,96,115438,1,0
416,192,116277,1,0
320,320,116906,1,0
320,320,117116,1,0
320,320,117326,1,0
192,352,117903,1,0
86,302,118322,1,0
70,196,118742,5,0
122,64,119161,1,0
189,74,119371,1,0
257,86,119581,1,0
320,96,119791,2,0,B|416:64|416:160,1,140
401,216,120420,1,0
405,280,120630,1,0
270,268,121102,1,0
225,322,121312,1,0
204,254,121522,1,0
275,115,121994,5,0
385,99,122413,1,0
448,192,122990,1,0
412,251,123200,1,0
321,309,123619,1,0
249,282,123829,1,0
234,340,124039,1,0
71,242,124878,5,0
55,220,125088,1,0
159,63,125927,1,0
285,161,126766,1,0
389,76,127186,1,0
455,201,127605,1,0
329,264,128025,1,0
416,320,128445,5,0
352,352,128864,1,0
241,324,129284,1,0
108,304,129703,1,0
64,256,129913,2,0,B|64:192|128:128,1,140
256,96,130752,1,0
317,141,130962,1,0
192,320,131539,5,0
128,288,131749,1,0
128,128,132168,1,0
192,96,132378,1,0
320,128,132798,1,0
384,224,133217,1,0
320,320,133637,1,0
270,274,133847,1,0
241,333,134057,1,0
320,320,134266,1,0
192,192,135105,5,0
128,288,135525,1,0
192,192,135997,1,0
288,224,136417,1,0
288,224,136626,2,0,B|384:256|384:160,1,140
284,106,137466,1,0
225,63,137675,1,0
128,160,138095,1,0
258,182,138515,5,0
160,308,139196,1,0
337,300,139931,1,0
320,192,140350,1,0
256,224,140560,1,0
256,224,140770,1,0
320,192,140980,1,0
224,128,141399,1,0
128,128,155508,5,0
192,96,155717,1,0
320,96,156137,1,0
416,192,156557,1,0
352,320,156976,1,0
224,320,157396,1,0
288,224,157815,1,0
160,224,158235,1,0
288,224,158654,1,0
416,288,159074,5,0
384,160,159494,1,0
256,192,159913,1,0
192,224,160123,2,0,B|64:192|128:128,1,140
128,64,160752,1,0
192,96,160962,1,0
128,224,161382,1,0
181,268,161592,1,0
212,211,161801,1,0
384,160,162431,6,0,B|448:192|320:256|448:256,1,140
320,320,163270,2,0,B|224:352|256:256|192:320,1,140
64,256,164109,2,0,B|0:192|96:160|64:128,1,140
192,64,164948,1,0
220,119,165158,5,0
250,171,165368,1,0
96,128,166207,1,0
288,96,166994,2,0,B|384:96|416:160,1,140
353,285,167833,2,0,B|288:224|224:224,1,140
128,256,168672,1,0
131,152,169092,5,0
211,76,169511,1,0
256,128,169721,2,0,B|288:64,1,70
320,128,170140,1,0
369,295,170822,1,0
320,341,171032,1,0
271,294,171242,1,0
128,96,171871,6,0,B|64:128,1,70
96,256,172501,2,0,B|128:320,1,70
224,49,173287,1,0
288,96,173497,2,0,B|352:64|416:128,1,140
414,125,174126,1,0
437,189,174336,1,0
438,189,174546,2,0,B|448:256|320:192|383:287,1,140
291,254,175385,5,0
170,211,175805,1,0
120,109,176277,1,0
145,53,176487,1,0
204,79,176696,1,0
253,42,176906,1,0
352,64,177273,2,0,B|416:96,1,70
384,160,177693,2,0,B|320:128,1,70
352,128,178794,5,0
276,219,179214,1,0
229,255,179424,1,0
64,96,180368,2,0,B|320:256,1,297.5
316,253,181259,6,0,B|320:192,5,52.5
318,202,182098,5,0
288,96,182518,1,0
416,128,182938,1,0
480,160,183147,2,0,B|512:192|480:224,1,70
416,192,183567,1,0
320,320,184406,1,0
256,288,184616,1,0
288,160,185298,5,0
224,128,185508,1,0
128,256,186137,1,0
64,96,186924,2,0,B|96:32|192:64,1,140
256,64,187553,2,0,B|192:96|224:192,1,140
352,224,188392,1,0
470,196,188812,5,0
448,288,189231,2,0,B|352:256|320:320,1,140
256,352,189861,1,0
256,288,190071,1,0
192,320,190280,1,0
160,128,190910,1,0
160,128,191119,1,0
160,128,191329,1,0
192,224,192221,5,0
320,256,192640,1,0
320,192,192850,1,0
128,96,193689,2,0,B|192:160|192:32|256:96,1,140
247,88,194319,2,0,B|288:32|288:192|352:96,1,140
360,218,195158,5,0
256,192,195525,5,0
256,192,195997,5,0
