osu file format v9

[General]
AudioFilename: Megpoid - Your Love will Surely Skyrocket.mp3
AudioLeadIn: 1996
PreviewTime: 128392
Countdown: 0
SampleSet: Soft
StackLeniency: 0.7
Mode: 0
LetterboxInBreaks: 1

[Editor]
DistanceSpacing: 1.1
BeatDivisor: 8
GridSize: 32

[Metadata]
Title:Your Love Will Surely Skyrocket
Artist:Megpoid Gumi
Creator:SpacemanSpiff
Version:Hard
Source:
Tags:

[Difficulty]
HPDrainRate:6
CircleSize:4
OverallDifficulty:6
ApproachRate:7
SliderMultiplier:2.2
SliderTickRate:1

[Events]
//Background and Video events
0,0,"gumi.jpg"
Video,0,"fi53auGWwJI.flv"
//Break Periods
2,74519,87475
2,141652,154608
//Storyboard Layer 0 (Background)
//Storyboard Layer 1 (Fail)
//Storyboard Layer 2 (Pass)
//Storyboard Layer 3 (Foreground)
//Storyboard Sound Samples
//Background Colour Transformations
3,100,163,162,255

[TimingPoints]
7658.43706293706,419.58041958042,4,2,0,100,1,0

[Colours]
Combo1 : 117,78,39
Combo2 : 245,165,0
Combo3 : 47,145,47

[HitObjects]
256,192,7658,5,0
256,192,8025,1,0
256,96,8445,1,0
160,192,8654,1,0
256,288,8864,1,0
352,192,9074,1,0
416,288,9494,1,0
320,320,9703,1,0
192,320,9913,1,0
96,288,10123,1,0
96,192,10752,5,2
96,192,10962,1,2
416,192,11382,1,2
416,192,11592,1,2
256,96,12011,5,0
160,224,12221,1,0
352,224,12431,1,0
256,288,12850,1,0
160,192,13060,1,0
352,192,13270,1,0
257,215,13427,2,0,B|257:151,5,55
320,96,14319,5,0
160,288,14738,1,0
128,96,15158,1,0
224,160,15368,1,0
320,96,15578,1,0
416,160,15787,1,0
352,288,16207,1,0
192,160,16417,1,0
320,160,16626,1,0
160,288,16836,1,0
256,288,17256,5,0
256,96,17466,1,0
160,192,17675,1,0
160,192,18095,1,0
352,192,18305,1,0
160,192,18724,1,0
160,192,18934,1,0
256,96,19144,1,0
160,32,19564,1,0
352,32,19773,1,0
352,32,19983,1,0
160,32,20193,1,0
64,288,21242,5,0
128,352,21452,1,0
192,288,21661,1,0
256,352,21871,1,0
320,288,22081,1,0
384,352,22291,1,0
448,288,22501,1,0
128,64,22920,5,0
64,128,23130,2,0,B|32:160|32:160|64:224|64:224,1,110
96,288,23550,1,0
192,288,23759,1,0
256,224,23969,2,0,B|256:160|288:160|224:192|256:64|224:128|224:128,1,110
384,64,24598,6,0,B|416:64|416:64|480:128,1,110
480,192,25018,2,0,B|480:256|480:256|416:288,1,110
352,288,25438,2,0,B|320:352|320:352|256:320,1,110
192,288,25857,1,0
143,96,26277,5,0
164,30,26487,1,0
225,32,26696,1,0
143,97,26906,1,0
256,96,27116,2,0,B|128:96,1,110
145,93,27536,1,0
192,320,27955,5,0
192,320,28165,1,0
192,320,28375,2,0,B|160:288|160:288|96:256,1,110
192,224,28794,1,0
192,320,29004,2,0,B|224:288|224:288|288:256,1,110
192,192,29633,5,0
128,128,29843,1,0
151,34,30053,1,0
218,97,30263,1,0
267,32,30473,1,0
323,98,30682,1,0
382,36,30892,1,0
288,320,31312,5,0
288,320,31522,1,0
384,320,31731,1,0
384,320,31941,2,0,B|448:320|448:320|480:256,1,110
416,192,32361,1,0
416,192,32571,1,0
252,192,32990,5,0
365,275,33200,1,0
357,180,33410,1,0
290,108,33619,1,0
184,133,33829,1,0
152,234,34039,1,0
255,297,34249,1,0
256,320,34668,6,0,B|288:320|352:256,2,110
437,319,35298,2,0,B|405:319|341:255,2,110
352,352,35927,1,0
448,192,36347,5,0
320,64,36557,1,0
384,128,36766,2,0,B|352:160|352:160|288:192,1,110
384,128,37186,2,0,B|442:98|442:98|474:66,1,110
384,128,37605,1,0
85,209,38025,5,0
256,192,38235,1,0
154,125,38445,1,0
256,64,38654,1,0
352,127,38864,1,0
456,179,39074,1,0
446,292,39284,1,0
256,288,39703,6,0,B|256:160,1,110
320,128,40123,1,0
192,128,40333,1,0
256,96,40543,1,0
256,96,40752,2,0,B|256:224,1,110
160,320,41382,5,0
96,224,41592,1,0
224,224,41801,1,0
160,320,42011,2,0,B|32:320,1,110
160,320,42431,2,0,B|288:320,1,110
480,32,43060,5,0
403,114,43270,1,0
480,32,43480,2,0,B|352:32,1,110
481,143,43899,2,0,B|481:15,1,110
401,114,44319,1,0
160,96,44738,6,0,B|64:160,1,110
160,224,45158,1,0
224,160,45368,2,0,B|320:64,1,110
352,160,45787,1,0
288,256,45997,1,0
256,64,46417,5,0
352,192,46626,2,0,B|288:96,1,110
160,192,47046,2,0,B|224:96,1,110
256,256,47466,2,0,B|256:128,1,110
187,183,48095,5,0
88,266,48305,1,0
161,351,48515,1,0
257,259,48724,1,0
328,348,48934,1,0
383,260,49144,1,0
453,334,49354,1,0
256,256,49773,1,0
160,128,49983,1,0
352,128,50193,1,0
192,128,51452,5,0
320,256,51661,1,0
192,256,51871,1,0
320,128,52081,1,0
320,256,52291,1,0
320,128,52501,1,0
192,128,52710,1,0
96,256,53130,2,0,B|96:128,2,110
416,256,53969,2,0,B|416:128,2,110
256,192,54808,2,0,B|128:192,1,110
256,192,55228,2,0,B|384:192,1,110
384,96,55647,1,0
256,96,55857,1,0
128,96,56067,1,0
128,288,56487,1,0
256,288,56696,1,0
384,288,56906,1,0
256,128,57745,5,0
256,256,57955,1,0
256,192,58794,1,0
64,192,59633,1,0
256,320,60053,1,0
448,192,60473,1,0
256,64,60892,1,0
160,192,61312,5,0
352,192,61731,1,0
384,256,62151,1,0
256,256,62361,1,0
128,256,62571,1,0
69,184,62780,1,0
206,55,63200,1,0
288,128,63410,1,0
288,128,63619,1,0
384,64,63829,1,0
197,104,64249,1,0
64,128,64459,5,0
64,256,64668,1,0
448,256,65088,1,0
448,128,65298,1,0
288,64,65717,1,0
256,192,65927,1,0
224,320,66137,1,0
160,128,66557,1,0
352,256,66766,1,0
256,192,66976,1,0
256,192,67186,1,0
160,96,68025,5,0
320,128,68445,1,0
256,96,68864,1,0
202,199,69074,1,0
256,288,69284,1,0
354,222,69494,1,0
306,235,69913,1,0
172,267,70123,1,0
181,152,70333,1,0
251,56,70543,1,0
384,160,70962,5,0
384,256,71172,1,0
303,351,71382,1,0
105,235,71801,1,0
159,132,72011,1,0
296,278,72431,1,0
350,177,72640,1,0
284,80,72850,1,0
416,64,73270,1,0
288,128,73480,1,0
192,256,73689,1,0
96,160,73899,1,0
256,192,74319,1,0
128,96,88375,5,0
32,192,88585,1,0
147,223,88794,1,0
128,96,89004,1,0
256,64,89214,1,0
128,96,89424,1,0
128,96,89633,1,0
448,288,90053,5,0
332,251,90263,1,0
448,160,90473,1,0
355,77,90682,1,0
448,160,90892,1,0
352,192,91102,1,0
448,256,91312,1,0
64,192,91731,5,0
160,192,91941,1,0
256,192,92151,1,0
352,192,92361,1,0
352,192,92571,2,0,B|352:320,1,110
448,192,92990,1,0
64,320,93409,5,0
192,320,93619,2,0,B|288:256,1,110
160,256,94039,2,0,B|256:192,1,110
128,192,94459,2,0,B|224:128,1,110
32,160,95088,5,0
128,160,95298,1,0
128,256,95508,1,0
224,288,95717,2,0,B|352:288,2,110
128,352,96347,1,0
32,128,96766,6,0,B|32:256,2,110
96,32,97396,1,0
217,32,97605,1,0
327,90,97815,1,0
224,160,98025,1,0
448,320,98445,5,0
352,320,98654,2,0,B|352:192,1,110
256,192,99074,1,0
128,160,99284,2,0,B|128:32,1,110
256,32,99703,1,0
72,160,100123,5,0
74,159,100333,2,0,B|106:95|170:95,1,110
265,105,100752,2,0,B|201:73|137:105,1,110
160,96,101172,1,0
64,64,101382,1,0
96,320,101801,5,0
160,256,102011,2,0,B|260:317,1,110
253,313,102431,2,0,B|349:249,1,110
345,252,102850,2,0,B|249:188,1,110
448,96,103480,6,0,B|448:224,1,110
352,160,103899,1,0
256,160,104109,1,0
160,160,104319,1,0
64,224,104529,2,0,B|64:96,1,110
352,320,105158,5,0
288,256,105368,2,0,B|256:224|160:256,1,110
128,320,105787,1,0
64,256,105997,1,0
64,160,106207,2,0,B|96:96|160:96,1,110
256,192,106836,5,0
224,96,107046,1,0
320,64,107256,1,0
416,96,107466,1,0
448,192,107675,2,0,B|448:256|384:288|384:256,2,110
33,262,108515,5,0
128,320,108724,1,0
128,224,108934,2,0,B|160:192|256:224,1,110
256,128,109354,1,0
288,224,109564,2,0,B|320:288|288:352,1,110
96,64,110193,5,0
192,64,110403,1,0
288,64,110612,1,0
288,64,110822,2,0,B|320:128|288:192,1,110
298,170,111242,2,0,B|234:202|170:188,1,110
416,224,111871,5,0
480,128,112081,2,0,B|416:96|352:128,1,110
496,222,112501,1,0
480,320,112710,2,0,B|416:352|352:320,1,110
282,273,113130,1,0
352,128,113550,5,0
128,96,113969,1,0
32,189,114179,1,0
84,317,114389,1,0
192,224,114598,1,0
192,224,114808,1,0
480,128,115228,5,0
416,224,115438,1,0
352,128,115647,1,0
288,224,115857,1,0
224,128,116067,1,0
160,224,116277,1,0
96,128,116487,1,0
163,277,116906,1,0
253,211,117116,1,0
320,286,117326,1,0
32,256,118585,5,0
32,256,118794,2,0,B|96:288|160:256,1,110
175,257,119214,2,0,B|165:185|229:153,1,110
256,160,119633,2,0,B|320:160|352:96,1,110
288,64,120263,1,0
224,192,120473,1,0
284,321,120682,1,0
448,256,121102,1,0
395,128,121312,1,0
288,192,121522,1,0
96,224,121941,5,0
128,128,122151,1,0
224,96,122361,2,0,B|288:64|352:96,1,110
416,160,122780,1,0
352,256,122990,2,0,B|288:288|224:288,1,110
160,192,123619,1,0
254,129,123829,1,0
352,192,124039,1,0
96,256,124826,5,0
160,320,125088,1,0
416,64,125927,1,0
128,192,126766,1,0
192,128,126976,1,0
224,224,127186,1,0
256,320,127396,1,0
320,256,127605,1,0
384,320,127815,1,0
416,288,128025,2,0,B|448:288,7,27.5
448,256,128445,5,0
448,256,128864,1,0
384,128,129284,1,0
320,224,129494,2,0,B|192:224,1,110
72,216,129913,1,0
160,64,130333,1,0
224,128,130543,2,0,B|320:96|288:32,1,110
384,64,130962,1,0
32,288,131592,5,0
64,352,131801,1,0
224,32,132221,1,0
288,64,132431,1,0
448,320,132850,1,0
480,256,133060,1,0
416,256,133270,1,0
96,160,133689,1,0
224,128,133899,1,0
192,256,134109,1,0
320,320,134319,2,0,B|480:384|448:224,1,220
416,320,135158,5,0
128,320,135525,1,0
43,154,135945,1,0
156,92,136154,1,0
256,192,136364,2,0,B|307:211|275:83|339:147,1,110
128,224,136994,1,0
256,288,137203,1,0
290,160,137413,1,0
256,288,137623,1,0
192,256,138043,1,0
288,320,138252,1,0
384,320,138462,5,0
128,320,138882,1,0
64,288,139092,1,0
448,96,139564,1,0
384,64,139773,1,0
352,128,139983,1,0
96,256,140350,1,0
128,128,140560,1,0
256,96,140770,1,0
352,160,140980,1,0
384,256,141452,1,0
64,320,155508,5,0
64,224,155717,2,0,B|96:160|64:96,1,110
128,64,156137,1,0
160,160,156347,2,0,B|224:160|256:96,1,110
320,64,156766,1,0
480,192,157186,1,0
448,288,157396,1,0
352,320,157605,1,0
384,96,158864,5,0
320,160,159074,1,0
256,96,159284,1,0
192,160,159494,2,0,B|192:224|256:256,1,110
320,256,159913,2,0,B|384:256|416:192,1,110
32,256,160543,2,0,B|32:320|96:352,2,110
416,32,161382,2,0,B|480:32|512:96,2,110
384,192,162221,5,0
448,256,162431,1,0
384,320,162640,2,0,B|320:288|256:288,1,110
192,256,163060,1,0
256,192,163270,2,0,B|288:128|192:96,1,110
320,64,163899,1,0
384,128,164109,2,0,B|512:96|448:192,1,137.5
96,224,165210,5,0
96,192,165368,2,0,B|96:32|256:128,1,220
256,128,165997,1,0
192,192,166207,5,0
256,256,166417,1,0
160,288,166626,1,0
224,352,166836,1,0
320,352,167046,1,0
352,256,167256,5,0
416,320,167466,1,0
480,256,167675,1,0
416,192,167885,1,0
320,160,168095,1,0
384,96,168305,1,0
160,96,168724,5,0
64,128,169144,1,0
128,288,169563,1,0
192,224,169773,2,0,B|256:256|320:224,1,110
384,288,170192,1,0
384,128,170612,1,0
448,192,170822,1,0
320,224,171032,1,0
288,320,171241,1,0
96,128,171871,5,0
160,96,172081,1,0
224,352,172501,1,0
288,320,172710,1,0
128,224,173130,1,0
160,128,173340,1,0
224,192,173550,1,0
352,32,173969,1,0
448,64,174179,1,0
480,160,174389,1,0
448,256,174598,2,0,B|416:320|352:320|320:128|288:288,1,220
128,320,175438,5,0
64,256,175805,1,0
256,224,176224,1,0
320,288,176434,2,0,B|352:288|384:320|384:224,1,110
256,320,176854,1,0
256,64,177273,2,0,B|192:64|160:128,2,110
352,96,177903,1,0
448,192,178322,2,0,B|480:288|384:256,1,110
288,224,178742,5,0
128,320,179161,2,0,B|32:320|64:256,1,110
224,64,179791,2,0,B|256:0|320:64,1,110
64,64,180315,1,0
160,224,180682,1,0
256,160,180892,1,0
448,192,181312,2,0,B|416:192,3,27.5
448,192,181522,2,0,B|480:192,3,27.5
448,192,181731,2,0,B|448:160,1,27.5
448,192,181836,2,0,B|448:224,4,27.5
448,192,182098,1,0
439,183,182151,5,0
256,96,182518,1,0
128,192,182938,2,0,B|64:96,1,110
192,160,183357,2,0,B|256:256,1,110
448,160,183987,1,0
352,96,184196,2,0,B|352:224,1,110
256,128,184616,1,0
96,128,185298,5,0
32,192,185508,1,0
416,128,185927,1,0
448,192,186137,1,0
128,352,186557,1,0
224,288,186766,1,0
352,352,187029,1,0
384,96,187396,1,0
288,32,187605,1,0
288,160,187815,1,0
384,96,188025,1,0
448,256,188445,1,0
64,128,188864,5,0
96,256,189284,1,0
256,64,189651,2,0,B|352:128,1,110
224,160,190071,1,0
288,256,190280,1,0
448,160,190700,1,0
422,265,190910,1,0
422,265,191119,2,0,B|454:137,1,110
96,128,191749,1,0
32,192,191959,1,0
96,256,192168,5,0
320,96,192588,1,0
416,128,192798,1,0
160,320,193217,1,0
224,224,193427,1,0
320,160,193637,1,0
416,320,194057,1,0
320,256,194266,1,0
224,128,194476,1,0
320,32,194686,1,0
480,128,195105,1,0
192,64,195578,5,0
352,128,195945,1,0
192,192,196417,2,0,B|192:320,1,110
288,192,196836,2,0,B|288:64,1,110
256,288,197466,2,0,B|128:288,1,110
256,192,197885,2,0,B|384:192,1,110
128,128,198724,5,0
160,64,198934,1,0
352,288,199354,1,0
384,224,199564,1,0
256,64,199983,1,0
237,64,200193,1,0
288,192,200403,1,0
169,188,200612,1,0
56,244,200822,1,0
129,330,201032,1,0
234,337,201242,1,0
355,310,201452,1,0
410,323,201557,1,0
446,285,201661,1,0
409,240,201766,1,0
365,261,201871,1,0
437,121,202291,5,0
288,128,202710,1,0
128,64,203130,2,0,B|32:32|64:128,1,110
64,192,203550,1,0
160,160,203759,1,0
256,64,204179,1,0
352,96,204389,2,0,B|416:160|320:160,1,110
256,224,204808,1,0
480,256,205228,1,0
384,288,205438,1,0
448,320,205647,1,0
160,96,206067,5,0
96,160,206277,1,0
224,224,206696,2,0,B|288:256|256:160,2,110
416,64,207536,2,0,B|384:128|416:192|416:160,1,110
413,168,207955,2,0,B|320:192|288:160|320:160,1,110
192,192,209004,5,0
320,192,209424,5,0
