osu file format v9

[General]
AudioFilename: [GUMI]wakannokana[original].mp3
AudioLeadIn: 0
PreviewTime: 80514
Countdown: 0
SampleSet: Soft
StackLeniency: 0.7
Mode: 0
LetterboxInBreaks: 1

[Editor]
Bookmarks: 10270,21977,45392,57099,80514,86368,97709,121490,133197,156612
DistanceSpacing: 1.2
BeatDivisor: 4
GridSize: 8

[Metadata]
Title:Wakannokana [original]
Artist:Megpoid Gumi
Creator:L v c h a
Version:kiri
Source:P-man
Tags:

[Difficulty]
HPDrainRate:7
CircleSize:4
OverallDifficulty:7
ApproachRate:7
SliderMultiplier:0.6
SliderTickRate:1

[Events]
//Background and Video events
0,0,"1.jpg"
//Break Periods
2,80714,85468
//Storyboard Layer 0 (Background)
//Storyboard Layer 1 (Fail)
//Storyboard Layer 2 (Pass)
//Storyboard Layer 3 (Foreground)
//Storyboard Sound Samples
//Background Colour Transformations
3,100,163,162,255

[TimingPoints]
4417,365.853658536585,4,2,1,90,1,0
9721,-100,4,1,1,40,0,0
10910,-100,4,1,1,30,0,0
11093,-100,4,1,1,40,0,0
12374,-100,4,1,1,30,0,0
12923,-100,4,1,1,40,0,0
13837,-100,4,1,1,30,0,0
14020,-100,4,1,1,40,0,0
15301,-100,4,1,1,30,0,0
15849,-100,4,1,1,40,0,0
16764,-100,4,1,1,30,0,0
16947,-100,4,1,1,40,0,0
18227,-100,4,1,1,30,0,0
18776,-100,4,1,1,40,0,0
20240,-100,4,1,1,30,0,0
21337,-100,4,1,1,40,0,0
21795,-100,4,2,1,80,0,0
57099,-100,4,1,1,45,0,1
58471,-100,4,1,1,35,0,1
59020,-100,4,1,1,45,0,1
62130,-100,4,1,1,35,0,1
62679,-100,4,1,1,45,0,1
66520,-100,4,1,1,35,0,1
67069,-100,4,1,1,45,0,1
67984,-100,4,1,1,35,0,1
68624,-100,4,1,1,45,0,1
71276,-100,4,1,1,35,0,1
71459,-100,4,1,1,45,0,1
72740,-100,4,1,1,35,0,1
72923,-100,4,1,1,45,0,1
80331,-100,4,2,1,90,0,0
86276,-100,4,1,1,40,0,0
87008,-100,4,1,1,30,0,0
87191,-100,4,1,1,40,0,0
88471,-100,4,1,1,30,0,0
89020,-100,4,1,1,40,0,0
89935,-100,4,1,1,30,0,0
90118,-100,4,1,1,40,0,0
91398,-100,4,1,1,30,0,0
91947,-100,4,1,1,40,0,0
92862,-100,4,1,1,30,0,0
93045,-100,4,1,1,40,0,0
94325,-100,4,1,1,30,0,0
94874,-100,4,1,1,40,0,0
95788,-100,4,1,1,30,0,0
95971,-100,4,1,1,40,0,0
97984,-100,4,2,1,80,0,0
133197,-100,4,1,1,45,0,1
134569,-100,4,1,1,35,0,1
135118,-100,4,1,1,45,0,1
136764,-100,4,1,1,35,0,1
138045,-100,4,1,1,45,0,1
140423,-100,4,1,1,35,0,1
140971,-100,4,1,1,45,0,1
145545,-100,4,1,1,35,0,1
145727,-100,4,1,1,45,0,1
146642,-100,4,1,1,35,0,1
146825,-100,4,1,1,45,0,1
148471,-100,4,1,1,35,0,1
149752,-100,4,1,1,45,0,1
151764,-100,4,1,1,35,0,1
153045,-100,4,1,1,45,0,1
156612,-100,4,2,1,90,0,0

[Colours]
Combo1 : 255,255,98
Combo2 : 101,252,101
Combo3 : 117,234,240
Combo4 : 253,153,153

[HitObjects]
256,192,4417,12,4,9904
160,296,10270,5,4
296,240,11002,1,8
176,160,11734,1,4
160,296,12465,2,0,B|120:344,2,60,8|8|4
96,168,13929,5,8
208,72,14660,2,0,B|272:72,1,60,4|0
256,144,15392,2,0,B|328:176,1,60,8|8
264,224,16124,6,0,B|208:248|144:224,2,120,4|8|4
392,296,18319,1,8
432,240,18685,1,8
360,232,19051,1,4
296,104,19782,6,0,B|376:40,2,90,0|8|12
248,152,21246,1,8
24,184,21977,6,0,B|56:240|48:304,1,120,2|0
104,344,23075,1,2
160,304,23441,2,0,B|152:240|184:176,1,120
152,120,24538,1,2
208,80,24904,2,0,B|336:80,1,120,2|0
368,160,26002,2,0,B|248:160,1,120,2|0
208,104,27099,1,4
120,216,27831,6,0,B|184:224|224:280,1,120
352,328,29295,2,0,B|416:272,2,60,2|0|0
288,288,30392,1,2
232,240,30758,2,0,B|208:176|144:160,1,120,0|2
160,232,31856,2,0,B|264:152,1,120
312,112,32953,1,6
176,56,33685,6,0,B|72:120,2,120,0|2|0
240,96,35514,1,2
232,168,35880,2,0,B|168:208,1,60,0|2
120,232,36612,5,4
248,304,37343,2,0,B|376:304,1,120,2|0
248,224,38807,1,2
336,112,39538,6,0,B|384:64,2,60,0|2|0
328,256,41002,1,2
336,112,41734,6,0,B|272:112,2,60,0|2|0
392,248,43197,1,2
248,256,43929,2,0,B|176:192,2,90,2|2|2
312,216,45392,1,4
384,216,45758,6,0,B|384:152,1,60,2|0
384,120,46307,1,0
320,144,46673,2,0,B|264:168|200:136,1,120,2|0
88,192,47770,2,0,B|72:168,2,30,0|2|0
112,224,48319,1,6
160,360,49051,1,2
168,256,49599,2,0,B|232:240|296:256,1,120,2|0
360,256,50697,6,0,B|384:280,3,30,0|2|0|6
440,320,51612,2,0,B|472:280|472:232,1,90,2|0
432,176,52526,2,0,B|424:128|384:96,1,90,2|0
352,88,53258,1,2
152,96,53807,2,0,B|136:64,2,30,2|0|0
138,166,54538,1,2
208,144,54904,1,0
192,216,55270,2,0,B|218:268|218:268|211:343|280:360,1,180,2|0
288,288,56734,1,0
360,288,57099,6,0,B|376:256|368:224,1,60,4|0
320,176,57831,2,0,B|344:48,1,120,0|8
280,96,58929,1,12
256,160,59295,2,0,B|192:144,1,60,4|0
160,208,60026,2,0,B|96:192,1,60
56,248,60758,1,0
104,304,61124,2,0,B|232:304,1,120,4|0
272,256,62221,5,8
336,288,62587,1,8
272,256,62953,2,0,B|272:128,1,120,4|0
200,104,64051,2,0,B|200:224,1,120,0|4
138,262,65148,1,0
138,262,65514,1,0
186,318,65880,1,0
186,318,66246,1,0
250,278,66612,1,8
250,278,66977,1,8
296,224,67343,2,0,B|368:224,1,60,4|4
392,280,68075,5,8
448,232,68441,1,8
408,176,68807,2,0,B|416:112|456:64,2,120,12|0|0
384,240,70636,2,0,B|264:240,1,120,0|8
208,200,71734,1,4
208,200,72099,1,0
208,200,72465,1,0
168,144,72831,2,0,B|112:128|48:144,1,120,8|0
80,208,73929,5,0
136,256,74295,1,0
136,328,74660,2,0,B|200:320|256:352,1,120,4|0
264,280,75758,1,0
328,320,76124,2,0,B|320:256|368:200,1,120
296,184,77221,1,0
352,136,77587,2,0,B|296:104|264:48,1,120,4|0
208,96,78685,2,0,B|152:128,1,60,8|0
304,264,79782,2,0,B|360:224,1,60,8|0
353,229,80514,1,4
80,120,86368,6,0,B|112:176|184:192,2,120,4|8|4
216,88,88563,2,0,B|280:88,1,60,8|8
288,160,89295,6,0,B|360:168|392:224,2,120,4|8|4
312,304,91490,1,8
248,336,91856,1,8
248,264,92221,1,4
136,168,92953,6,0,B|168:112|232:96,1,120,8|4
360,152,94416,2,0,B|320:200,1,60,8|8
321,198,95148,1,4
216,104,95880,6,0,B|168:144|112:160|112:160|152:200|160:272,1,240,8|0
288,200,98075,6,0,B|280:264|296:328,1,120,2|0
208,208,99538,2,0,B|216:144|200:88,1,120,2|0
256,48,100636,1,0
304,104,101002,6,0,B|376:112|432:104,1,120,2|0
352,232,102465,2,0,B|360:280|352:328,2,90,2|2|2
296,184,103929,5,4
152,184,104660,2,0,B|152:120|128:64,2,120,0|0|2
136,256,106490,5,2
192,304,106856,2,0,B|256:320|320:304,1,120,2|0
312,232,107953,1,2
368,184,108319,2,0,B|464:184,2,90,2|2|2
304,144,109782,6,0,B|208:144|160:88,1,150,4|0
232,64,111063,2,0,B|224:136|160:200,1,150,4|0
144,264,112343,1,0
192,320,112709,6,0,B|256:328|320:320,1,120,4|2
360,272,113807,1,0
360,200,114173,2,0,B|232:200,1,120,2|0
376,128,115270,5,2
304,104,115636,2,0,B|248:88|184:104,2,120,4|0|0
440,296,118197,5,2
440,296,118563,2,0,B|384:312|320:296,1,120
264,256,119660,2,0,B|200:240|144:256,1,120,2|0
96,304,120758,2,0,B|24:304,1,60,2|0
312,216,121490,5,4
376,184,121856,2,0,B|416:136,1,60,2|0
414,138,122405,1,2
376,72,122771,2,0,B|320:48|256:72,1,120,2|0
184,72,123868,2,0,B|168:48,3,30,0|2|0|6
72,160,125149,1,2
152,232,125697,2,0,B|208:248|280:232,1,120,2|0
288,160,126795,6,0,B|272:128,2,30,0|2|0
304,192,127343,1,6
360,240,127709,2,0,B|424:240,1,60,2|0
344,320,128624,2,0,B|280:320,1,60,0|2
285,320,129356,1,2
136,64,129905,2,0,B|120:32,2,30,2|0|0
168,128,130636,1,2
200,192,131002,1,0
232,256,131368,2,0,B|280:344,2,90,2|0|0
280,200,132831,1,0
207,148,133197,6,0,B|198:118|207:84,1,60,4|0
274,120,133929,2,0,B|338:128|402:120,1,120,0|8
440,64,135026,1,8
394,122,135392,2,0,B|376:192,1,60
380,179,136124,2,0,B|444:171,1,60
441,172,136856,2,0,B|481:252,2,90,8|8|8
360,304,138319,6,0,B|288:304,1,60
232,312,139051,1,4
184,256,139416,1,0
144,192,139782,2,0,B|128:128|144:72,1,120,0|8
216,96,140880,2,0,B|312:120,2,90,8|0|0
200,232,142343,2,0,B|96:304,1,120,0|4
280,176,144173,5,0
280,176,144538,1,0
280,176,144904,2,0,B|264:112|280:48,1,120,4|8
344,80,146002,2,0,B|472:80,1,120,0|8
472,152,147099,2,0,B|472:216,1,60
400,200,147831,2,0,B|376:264,1,60
312,232,148563,2,0,B|232:288,2,90,8|8|8
280,168,150026,5,0
280,168,150392,1,0
216,136,150758,2,0,B|152:128|96:136,1,120,4|0
40,184,151856,2,0,B|64:248,1,60,8|8
184,320,152953,1,8
224,184,153685,2,0,B|288:160|296:88,1,120,4|0
296,24,154782,5,0
360,64,155148,2,0,B|408:104|432:168,1,120,4|0
400,224,156246,1,0
400,224,156612,1,4
