osu file format v14

[General]
AudioFilename: ----------CANDY CANDY [GUMI].mp3
AudioLeadIn: 0
PreviewTime: 59245
Countdown: 0
SampleSet: Normal
StackLeniency: 0.7
Mode: 0
LetterboxInBreaks: 0
WidescreenStoryboard: 0

[Editor]
DistanceSpacing: 1.2
BeatDivisor: 4
GridSize: 8
TimelineZoom: 1

[Metadata]
Title:CANDY CANDY
TitleUnicode:CANDY CANDY
Artist:Megpoid Gumi
ArtistUnicode:Megpoid Gumi
Creator:-Dave Strider-
Version:Hard
Source:
Tags:vocaloid kyary pamyu cover giga p
BeatmapID:482892
BeatmapSetID:204498

[Difficulty]
HPDrainRate:5
CircleSize:4
OverallDifficulty:6
ApproachRate:7.3
SliderMultiplier:1.4
SliderTickRate:1

[Events]
//Background and Video events
0,0,"ccandy candy.jpg",0,0
//Break Periods
2,88522,102699
2,162498,176545
2,180830,183930
2,188214,191315
//Storyboard Layer 0 (Background)
//Storyboard Layer 1 (Fail)
//Storyboard Layer 2 (Pass)
//Storyboard Layer 3 (Foreground)
//Storyboard Sound Samples

[TimingPoints]
169,461.538461538462,4,1,1,73,1,0
59245,-100,4,1,1,73,0,1
88322,-100,4,1,1,73,0,0
133092,-100,4,1,1,73,0,1
162169,-100,4,1,1,73,0,0
192169,-100,4,1,1,73,0,1
221707,-100,4,1,1,73,0,0

[Colours]
Combo1 : 255,0,255
Combo2 : 0,255,255
Combo3 : 255,128,255
Combo4 : 255,255,74
Combo5 : 0,255,0
Combo6 : 255,0,128

[HitObjects]
440,88,14707,5,0,0:0:0:0:
440,88,14822,1,0,0:0:0:0:
440,88,14938,2,0,P|448:128|432:160,1,70,8|0,0:0|0:0,0:0:0:0:
392,224,15399,2,0,P|352:264|320:272,1,70,8|0,0:0|0:0,0:0:0:0:
272,224,15861,1,8,0:0:0:0:
288,144,16092,2,0,L|208:128,1,70,0|8,0:0|0:0,0:0:0:0:
136,152,16553,5,0,0:0:0:0:
136,152,16669,1,0,0:0:0:0:
136,152,16784,2,0,P|104:200|96:232,1,70,8|0,0:0|0:0,0:0:0:0:
176,248,17245,2,0,L|144:312,1,70,8|0,0:0|0:0,0:0:0:0:
224,344,17707,2,0,L|256:280,1,70,8|0,0:0|0:0,0:0:0:0:
264,200,18169,1,8,0:0:0:0:
184,168,18399,5,0,0:0:0:0:
184,168,18515,1,0,0:0:0:0:
184,168,18630,2,0,L|112:128,1,70,8|0,0:0|0:0,0:0:0:0:
56,184,19092,2,0,P|40:152|40:96,1,70,8|0,0:0|0:0,0:0:0:0:
88,48,19553,1,8,0:0:0:0:
168,56,19784,1,0,0:0:0:0:
248,64,20015,2,0,P|272:80|336:96,1,70,8|0,0:0|0:0,0:0:0:0:
272,168,20476,6,0,L|344:216,1,70,8|0,0:0|0:0,0:0:0:0:
400,160,20938,2,0,L|400:88,2,70,8|0|8,0:0|0:0|0:0,0:0:0:0:
400,248,21630,1,0,0:0:0:0:
400,336,21861,1,8,0:0:0:0:
320,336,22092,5,0,0:0:0:0:
320,336,22207,1,0,0:0:0:0:
320,336,22322,2,0,P|296:296|280:248,1,70,8|0,0:0|0:0,0:0:0:0:
328,200,22784,2,0,P|328:160|304:136,1,70,8|0,0:0|0:0,0:0:0:0:
376,96,23245,2,0,P|424:120|456:120,1,70,8|0,0:0|0:0,0:0:0:0:
432,208,23707,1,8,0:0:0:0:
432,296,23938,5,0,0:0:0:0:
432,296,24053,1,0,0:0:0:0:
432,296,24169,2,0,P|384:288|344:272,1,70,8|0,0:0|0:0,0:0:0:0:
280,264,24630,2,0,P|280:224|264:192,1,70,8|0,0:0|0:0,0:0:0:0:
208,144,25092,1,8,0:0:0:0:
136,104,25322,1,0,0:0:0:0:
64,64,25553,1,8,0:0:0:0:
64,152,25784,5,0,0:0:0:0:
64,152,25899,1,0,0:0:0:0:
64,152,26015,1,8,0:0:0:0:
128,208,26245,2,0,P|144:240|176:280,1,70,0|8,0:0|0:0,0:0:0:0:
224,328,26707,2,0,L|136:352,1,70,0|8,0:0|0:0,0:0:0:0:
88,296,27169,1,0,0:0:0:0:
56,216,27399,1,8,0:0:0:0:
40,136,27630,5,0,0:0:0:0:
40,136,27745,1,0,0:0:0:0:
40,136,27861,1,8,0:0:0:0:
120,144,28092,2,0,L|120:48,1,70,0|8,0:0|0:0,0:0:0:0:
200,96,28553,2,0,B|232:128|224:144|256:152,1,70,0|8,0:0|0:0,0:0:0:0:
304,208,29015,2,0,P|248:232|216:232,1,70,0|8,0:0|0:0,0:0:0:0:
112,344,29707,6,0,P|56:304|56:216,1,140
128,264,30399,1,0,0:0:0:0:
136,184,30630,2,0,P|192:224|192:312,1,140
280,264,31322,2,0,P|288:312|280:344,1,70
368,336,31784,2,0,L|408:336|448:336,2,70
360,256,32476,2,0,L|280:256,1,70
208,256,32938,2,0,L|208:184,1,70
120,184,33399,6,0,L|120:256,1,70
56,312,33861,1,0,0:0:0:0:
48,232,34092,2,0,L|48:152,1,70
48,80,34553,1,0,0:0:0:0:
136,80,34784,1,0,0:0:0:0:
216,96,35015,2,0,L|288:136,1,70
320,208,35476,2,0,L|240:216,1,70
168,240,35938,2,0,L|216:304,2,70
128,168,36630,1,0,0:0:0:0:
80,96,36861,1,0,0:0:0:0:
40,168,37092,6,0,P|40:208|96:280,1,105
112,280,37553,1,0,0:0:0:0:
192,256,37784,2,0,P|200:192|208:168,1,70
280,168,38245,2,0,L|376:128,1,70
424,176,38707,1,0,0:0:0:0:
456,256,38938,1,0,0:0:0:0:
392,312,39169,1,0,0:0:0:0:
312,312,39399,2,0,P|272:272|240:264,2,70
352,240,40092,1,0,0:0:0:0:
288,184,40322,2,0,P|304:128|328:104,1,70
224,104,40784,6,0,L|136:104,1,70
96,168,41245,1,0,0:0:0:0:
56,240,41476,1,0,0:0:0:0:
120,296,41707,2,0,P|184:320|256:312,1,140
328,296,42399,1,0,0:0:0:0:
336,216,42630,2,0,L|344:144,1,70
424,168,43092,2,0,L|480:120,1,70
496,208,43553,2,0,P|472:248|448:272,1,70
376,288,44015,1,0,0:0:0:0:
296,296,44245,1,0,0:0:0:0:
208,296,44476,6,0,P|176:240|104:224,1,140,0|8,0:0|0:0,0:0:0:0:
136,144,45169,1,0,0:0:0:0:
192,80,45399,2,0,P|224:136|296:152,1,140,0|8,0:0|0:0,0:0:0:0:
368,192,46092,1,0,0:0:0:0:
448,160,46322,1,0,0:0:0:0:
512,112,46553,1,0,0:0:0:0:
432,88,46784,2,0,P|392:72|360:56,1,70,8|0,0:0|0:0,0:0:0:0:
360,144,47245,2,0,L|360:216,1,70
288,264,47707,2,0,L|216:232,1,70,8|0,0:0|0:0,0:0:0:0:
152,192,48169,6,0,P|144:248|216:320,1,140,0|8,0:0|0:0,0:0:0:0:
224,235,48861,1,0,0:0:0:0:
240,152,49092,2,0,P|304:160|352:144,1,105
368,128,49553,1,8,0:0:0:0:
440,176,49784,1,0,0:0:0:0:
424,256,50015,6,0,P|384:256|328:240,1,70
272,232,50476,1,8,0:0:0:0:
200,192,50707,1,0,0:0:0:0:
128,144,50938,1,0,0:0:0:0:
128,224,51169,2,0,L|128:312,1,70,0|8,0:0|0:0,0:0:0:0:
296,296,51861,6,0,L|448:320,1,140,0|8,0:0|0:0,0:0:0:0:
400,216,52553,1,0,0:0:0:0:
352,144,52784,2,0,L|200:120,1,140,0|8,0:0|0:0,0:0:0:0:
152,176,53476,2,0,P|152:248|168:272,1,70
240,280,53938,1,0,0:0:0:0:
328,280,54169,1,8,0:0:0:0:
392,224,54399,2,0,B|368:192|392:176|368:152,2,70
312,200,55092,1,8,0:0:0:0:
304,120,55322,1,0,0:0:0:0:
224,144,55553,6,0,P|160:160|136:168,1,70
168,248,56015,2,0,L|208:312,1,70,8|0,0:0|0:0,0:0:0:0:
272,264,56476,2,8,L|344:248,1,70,0|0,0:0|0:0,0:0:0:0:
424,216,56938,1,8,0:0:0:0:
488,272,57169,1,0,0:0:0:0:
424,320,57399,6,0,L|344:320,1,70
280,280,57861,2,0,P|248:248|248:216,1,70,8|0,0:0|0:0,0:0:0:0:
312,192,58322,1,0,0:0:0:0:
392,184,58553,1,0,0:0:0:0:
464,144,58784,1,8,0:0:0:0:
296,112,59245,6,8,P|232:136|136:104,1,140
88,176,59938,1,0,0:0:0:0:
144,240,60169,2,8,P|211:226|276:250,1,140
344,200,60861,1,0,0:0:0:0:
416,248,61092,2,0,P|440:304|416:328,1,70,8|0,0:0|0:0,0:0:0:0:
352,304,61553,2,0,P|304:256|312:240,1,70,8|0,0:0|0:0,0:0:0:0:
344,192,62015,2,0,P|352:144|376:136,1,70,8|0,0:0|0:0,0:0:0:0:
440,96,62476,1,8,0:0:0:0:
376,48,62707,1,0,0:0:0:0:
288,48,62938,6,8,P|216:64|144:48,1,140,10|10,0:0|0:0,0:0:0:0:
120,128,63630,1,0,0:0:0:0:
104,208,63861,2,8,P|184:224|256:208,1,140,10|10,0:0|0:0,0:0:0:0:
336,248,64553,1,0,0:0:0:0:
368,224,64669,1,0,0:0:0:0:
400,200,64784,1,10,0:0:0:0:
424,120,65015,2,0,L|344:88,1,70,0|10,0:0|0:0,0:0:0:0:
280,128,65476,2,0,L|328:192,1,70,0|10,0:0|0:0,0:0:0:0:
280,256,65938,5,0,0:0:0:0:
208,304,66169,1,10,0:0:0:0:
128,320,66399,1,0,0:0:0:0:
96,240,66630,6,0,L|56:168,1,70,8|0,0:0|0:0,0:0:0:0:
136,144,67092,2,0,L|168:64,1,70,8|0,0:0|0:0,0:0:0:0:
248,80,67553,2,0,L|320:80,1,70,8|0,0:0|0:0,0:0:0:0:
376,136,68015,1,8,0:0:0:0:
360,216,68245,2,0,L|264:208,1,70,0|8,0:0|0:0,0:0:0:0:
232,272,68707,1,0,0:0:0:0:
144,272,68938,1,8,0:0:0:0:
112,192,69169,2,0,B|80:152|112:144|72:104,2,70,0|8|0,0:0|0:0|0:0,0:0:0:0:
200,192,69861,2,0,P|240:184|272:176,1,70,8|0,0:0|0:0,0:0:0:0:
352,200,70322,6,8,P|416:224|496:200,1,140
352,104,71245,2,8,P|288:128|208:104,1,140
216,200,71938,1,0,0:0:0:0:
216,200,72053,1,0,0:0:0:0:
216,200,72169,2,0,L|144:184,1,70,8|0,0:0|0:0,0:0:0:0:
144,104,72630,1,8,0:0:0:0:
216,56,72861,2,0,B|216:96|200:120|232:144,2,70,0|8|0,0:0|0:0|0:0,0:0:0:0:
296,80,73553,1,8,0:0:0:0:
376,112,73784,1,0,0:0:0:0:
408,184,74015,6,0,L|328:200,1,70,8|0,0:0|0:0,0:0:0:0:
256,216,74476,2,0,L|184:184,1,70,8|0,0:0|0:0,0:0:0:0:
112,224,74938,2,0,L|80:288,1,70,8|0,0:0|0:0,0:0:0:0:
152,312,75399,2,0,L|224:312,1,70,8|0,0:0|0:0,0:0:0:0:
304,312,75861,1,8,0:0:0:0:
392,312,76092,1,0,0:0:0:0:
480,312,76322,1,8,0:0:0:0:
480,232,76553,2,0,P|440:192|408:184,2,70,0|8|0,0:0|0:0|0:0,0:0:0:0:
392,272,77245,2,0,L|336:320,1,70,8|0,0:0|0:0,0:0:0:0:
264,288,77707,6,0,B|248:328|208:328|184:312,1,70,10|0,0:0|0:0,0:0:0:0:
128,296,78169,1,10,0:0:0:0:
136,216,78399,2,0,P|80:208|48:208,1,70,0|10,0:0|0:0,0:0:0:0:
48,128,78861,1,0,0:0:0:0:
128,88,79092,1,10,0:0:0:0:
208,96,79322,1,0,0:0:0:0:
248,88,79438,1,0,0:0:0:0:
288,88,79553,2,8,P|352:96|432:144,1,140,10|10,0:0|0:0,0:0:0:0:
376,200,80245,2,0,L|328:256,2,70,0|10|0,0:0|0:0|0:0,0:0:0:0:
456,232,80938,1,10,0:0:0:0:
424,312,81169,5,0,0:0:0:0:
344,336,81399,2,8,P|288:304|200:288,1,140
232,208,82092,1,0,0:0:0:0:
272,136,82322,2,8,P|328:120|416:144,1,140
408,224,83015,1,0,0:0:0:0:
376,304,83245,2,0,L|296:344,1,70,8|0,0:0|0:0,0:0:0:0:
264,264,83707,1,8,0:0:0:0:
264,264,83938,2,0,L|184:216,1,70,0|8,0:0|0:0,0:0:0:0:
264,168,84399,1,0,0:0:0:0:
264,168,84630,1,8,0:0:0:0:
344,176,84861,5,0,0:0:0:0:
344,176,84976,1,0,0:0:0:0:
344,176,85092,2,0,B|376:208|392:216|432:224,1,70,8|0,0:0|0:0,0:0:0:0:
432,136,85553,2,0,P|392:96|360:72,1,70,8|0,0:0|0:0,0:0:0:0:
304,64,86015,2,0,P|264:88|248:112,1,70,8|0,0:0|0:0,0:0:0:0:
192,168,86476,2,8,P|144:184|80:120,1,140
160,96,87169,1,0,0:0:0:0:
160,96,87284,1,0,0:0:0:0:
160,96,87399,2,0,L|240:96,1,70,8|0,0:0|0:0,0:0:0:0:
304,96,87861,2,8,P|352:144|376:160,2,70,8|0|8,0:0|0:0|0:0,0:0:0:0:
224,264,103553,6,0,P|280:288|376:248,1,140
288,208,104245,1,0,0:0:0:0:
224,152,104476,2,0,P|280:128|376:168,1,140
464,184,105169,2,0,P|456:232|440:264,1,70
368,264,105630,2,0,P|320:264|296:248,1,70
304,168,106092,2,0,P|256:168|232:152,1,70
240,72,106553,2,0,L|152:72,1,70
104,128,107015,1,0,0:0:0:0:
120,208,107245,6,0,L|176:264,1,70
240,304,107707,1,0,0:0:0:0:
320,320,107938,1,0,0:0:0:0:
392,280,108169,2,0,P|408:224|392:136,1,140
312,96,108861,1,0,0:0:0:0:
232,96,109092,1,0,0:0:0:0:
152,112,109322,2,0,L|80:128,1,70
104,208,109784,2,0,L|104:296,1,70
184,288,110245,1,0,0:0:0:0:
264,296,110476,1,0,0:0:0:0:
400,200,110938,6,0,P|368:128|312:88,1,140
240,104,111630,1,0,0:0:0:0:
168,152,111861,2,0,P|200:224|256:264,1,140
176,304,112553,1,0,0:0:0:0:
248,344,112784,2,0,P|288:344|328:336,1,70
312,256,113245,2,0,L|360:184,2,70
384,296,113938,2,0,L|480:304,1,70
440,216,114399,1,0,0:0:0:0:
432,136,114630,5,0,0:0:0:0:
368,80,114861,2,0,P|328:104|288:104,1,70
224,128,115322,2,0,P|216:64|224:40,1,70
136,120,115784,2,0,P|72:88|64:64,1,70
144,40,116245,1,0,0:0:0:0:
224,64,116476,1,0,0:0:0:0:
280,128,116707,2,0,P|216:152|200:168,2,70
288,208,117399,2,0,P|264:240|232:256,1,70
152,272,117861,2,0,B|128:240|144:224|136:184,1,70
72,152,118322,6,0,P|104:128|200:144,1,140,0|8,0:0|0:0,0:0:0:0:
272,184,119015,1,0,0:0:0:0:
344,232,119245,2,0,P|376:256|472:240,1,140,0|8,0:0|0:0,0:0:0:0:
416,176,119938,1,0,0:0:0:0:
392,96,120169,6,0,L|328:32,1,70
272,88,120630,2,0,P|216:112|184:112,1,70,8|0,0:0|0:0,0:0:0:0:
144,168,121092,2,0,P|128:216|128:240,1,70
176,304,121553,2,0,L|264:296,1,70,8|0,0:0|0:0,0:0:0:0:
264,216,122015,6,0,P|304:216|328:232,1,70
392,288,122476,1,8,0:0:0:0:
440,216,122707,1,0,0:0:0:0:
384,152,122938,2,0,L|248:88,1,140,0|8,0:0|0:0,0:0:0:0:
208,160,123630,5,0,0:0:0:0:
208,160,123745,1,0,0:0:0:0:
208,160,123861,2,0,L|184:192|160:224,1,70
120,288,124322,2,0,L|56:248,1,70,8|0,0:0|0:0,0:0:0:0:
48,168,124784,2,0,L|104:96,1,70
176,104,125245,1,8,0:0:0:0:
264,104,125476,1,0,0:0:0:0:
344,112,125707,6,0,P|392:104|424:104,1,70
416,184,126169,2,0,L|376:248,1,70,8|0,0:0|0:0,0:0:0:0:
328,312,126630,2,0,P|400:328|488:320,1,140,0|8,0:0|0:0,0:0:0:0:
480,240,127322,1,0,0:0:0:0:
488,160,127553,2,0,P|448:96|432:88,1,70
368,96,128015,1,8,0:0:0:0:
280,96,128245,1,0,0:0:0:0:
200,104,128476,2,0,P|128:128|120:128,2,70,0|0|8,0:0|0:0|0:0,0:0:0:0:
240,176,129169,5,0,0:0:0:0:
240,176,129284,1,0,0:0:0:0:
240,176,129399,2,0,L|304:240,1,70
376,240,129861,2,0,L|440:280,1,70,8|0,0:0|0:0,0:0:0:0:
488,208,130322,2,0,P|504:176|512:120,1,70
448,88,130784,1,8,0:0:0:0:
376,48,131015,1,0,0:0:0:0:
296,64,131245,6,0,P|240:80|216:80,2,70,0|0|8,0:0|0:0|0:0,0:0:0:0:
352,128,131938,2,0,P|320:152|280:176,1,70
216,200,132399,1,0,0:0:0:0:
216,200,132515,1,0,0:0:0:0:
216,200,132630,1,8,0:0:0:0:
352,304,133092,6,8,P|448:312|488:296,1,140
480,216,133784,1,0,0:0:0:0:
472,136,134015,2,8,P|400:128|328:152,1,140
256,160,134707,1,0,0:0:0:0:
224,184,134822,1,0,0:0:0:0:
192,208,134938,1,8,0:0:0:0:
128,256,135169,2,0,P|160:280|192:296,1,70,0|8,0:0|0:0,0:0:0:0:
264,304,135630,1,0,0:0:0:0:
344,272,135861,2,0,P|392:216|392:208,1,70,8|0,0:0|0:0,0:0:0:0:
320,184,136322,2,0,P|264:184|240:168,1,70,8|0,0:0|0:0,0:0:0:0:
176,144,136784,6,0,P|128:168|120:208,1,70,8|0,0:0|0:0,0:0:0:0:
144,264,137245,2,8,P|192:248|296:272,1,140
360,280,137938,1,0,0:0:0:0:
360,280,138053,1,0,0:0:0:0:
360,280,138169,1,8,0:0:0:0:
320,208,138399,2,0,P|296:160|296:144,1,70,0|8,0:0|0:0,0:0:0:0:
376,112,138861,2,0,P|384:72|360:32,1,70,0|8,0:0|0:0,0:0:0:0:
296,72,139322,2,0,P|248:72|208:88,1,70,0|8,0:0|0:0,0:0:0:0:
144,104,139784,1,0,0:0:0:0:
112,128,139899,1,0,0:0:0:0:
80,152,140015,1,8,0:0:0:0:
40,224,140245,5,0,0:0:0:0:
112,264,140476,2,0,P|152:280|200:272,1,70,8|0,0:0|0:0,0:0:0:0:
240,224,140938,2,0,P|280:168|296:160,1,70,8|0,0:0|0:0,0:0:0:0:
344,216,141399,2,0,P|392:208|424:216,1,70,8|0,0:0|0:0,0:0:0:0:
424,128,141861,2,0,P|392:104|376:56,1,70,8|0,0:0|0:0,0:0:0:0:
296,80,142322,1,8,0:0:0:0:
216,104,142553,2,0,P|168:120|128:120,2,70,0|8|0,0:0|0:0|0:0,0:0:0:0:
272,168,143245,2,0,L|272:312,1,140,0|8,0:0|0:0,0:0:0:0:
184,304,143938,1,0,0:0:0:0:
104,296,144169,6,0,P|112:264|112:216,1,70,8|0,0:0|0:0,0:0:0:0:
200,224,144630,2,0,L|296:232,1,70,8|0,0:0|0:0,0:0:0:0:
352,200,145092,2,0,L|304:128,1,70,8|0,0:0|0:0,0:0:0:0:
232,128,145553,1,8,0:0:0:0:
152,112,145784,1,0,0:0:0:0:
72,88,146015,1,8,0:0:0:0:
80,168,146245,2,0,B|32:176|72:208|0:224,2,70,0|8|0,0:0|0:0|0:0,0:0:0:0:
152,208,146938,2,0,P|184:240|224:256,1,70,8|0,0:0|0:0,0:0:0:0:
288,232,147399,1,8,0:0:0:0:
328,232,147515,1,0,0:0:0:0:
368,232,147630,1,0,0:0:0:0:
448,248,147861,6,0,P|448:288|424:312,1,70,8|0,0:0|0:0,0:0:0:0:
344,320,148322,2,0,L|280:288|264:280,1,70,8|0,0:0|0:0,0:0:0:0:
256,208,148784,2,0,P|248:160|256:136,1,70,8|0,0:0|0:0,0:0:0:0:
336,144,149245,2,0,P|352:104|352:72,1,70,8|0,0:0|0:0,0:0:0:0:
272,56,149707,2,0,L|192:64,1,70,8|0,0:0|0:0,0:0:0:0:
208,144,150169,2,0,P|200:192|184:216,1,70,8|0,0:0|0:0,0:0:0:0:
168,288,150630,2,8,P|240:312|328:296,1,140
344,168,151553,6,0,P|376:112|392:96,1,70,8|0,0:0|0:0,0:0:0:0:
424,176,152015,2,0,P|424:232|408:256,1,70,8|0,0:0|0:0,0:0:0:0:
344,288,152476,2,0,P|312:240|288:208,1,70,8|0,0:0|0:0,0:0:0:0:
232,192,152938,2,0,P|184:224|152:224,1,70,8|0,0:0|0:0,0:0:0:0:
96,256,153399,2,0,P|88:328|72:336,1,70,8|0,0:0|0:0,0:0:0:0:
176,336,153861,1,8,0:0:0:0:
248,296,154092,1,0,0:0:0:0:
328,272,154322,1,8,0:0:0:0:
288,200,154553,1,0,0:0:0:0:
248,200,154669,1,0,0:0:0:0:
208,192,154784,1,8,0:0:0:0:
160,120,155015,6,0,P|208:104|248:88,1,70,0|8,0:0|0:0,0:0:0:0:
304,136,155476,2,0,P|344:152|392:176,1,70,0|8,0:0|0:0,0:0:0:0:
424,224,155938,1,0,0:0:0:0:
392,304,156169,2,0,L|304:336,1,70,8|0,0:0|0:0,0:0:0:0:
240,328,156630,2,0,L|168:296,1,70,8|0,0:0|0:0,0:0:0:0:
168,216,157092,2,0,P|176:168|184:144,1,70,8|0,0:0|0:0,0:0:0:0:
264,168,157553,1,8,0:0:0:0:
264,248,157784,1,0,0:0:0:0:
352,248,158015,2,0,P|344:200|344:168,1,70,8|0,0:0|0:0,0:0:0:0:
264,160,158476,2,0,L|192:120,1,70,8|0,0:0|0:0,0:0:0:0:
144,184,158938,6,8,P|88:208|48:280,1,140
136,272,159630,1,0,0:0:0:0:
216,280,159861,2,8,P|272:304|352:288,1,140
336,192,160553,1,0,0:0:0:0:
312,160,160669,1,0,0:0:0:0:
288,128,160784,1,8,0:0:0:0:
208,152,161015,2,0,P|152:168|128:168,1,70,0|8,0:0|0:0,0:0:0:0:
152,248,161476,1,0,0:0:0:0:
232,264,161707,1,8,0:0:0:0:
312,248,161938,2,0,B|288:208|320:200|288:176,1,70,0|8,0:0|0:0,0:0:0:0:
328,248,177399,6,8,P|256:272|184:256,1,140
136,104,178322,2,8,P|208:80|280:96,1,140
320,248,179245,2,0,L|280:328,1,70,8|0,0:0|0:0,0:0:0:0:
216,272,179707,2,0,L|256:192,1,70,8|0,0:0|0:0,0:0:0:0:
168,192,180169,2,8,P|128:248|144:312,1,140
56,184,184784,6,8,P|120:232|192:224,1,140
304,176,185707,2,8,P|352:128|432:144,1,140
432,304,186630,2,0,B|392:320|392:336|360:328,3,70,8|0|8|0,0:0|0:0|0:0|0:0,0:0:0:0:
288,312,187553,2,8,P|208:312|136:288,1,140
384,80,192169,6,0,P|384:144|376:168,1,70,8|0,0:0|0:0,0:0:0:0:
304,184,192630,2,0,P|256:192|224:208,1,70,8|0,0:0|0:0,0:0:0:0:
280,272,193092,2,0,P|272:336|280:360,1,70,8|0,0:0|0:0,0:0:0:0:
352,320,193553,2,0,P|392:344|440:336,1,70,8|0,0:0|0:0,0:0:0:0:
440,264,194015,2,0,P|432:208|424:176,1,70,8|0,0:0|0:0,0:0:0:0:
344,176,194476,1,8,0:0:0:0:
264,208,194707,1,0,0:0:0:0:
184,200,194938,2,0,B|152:160|176:152|144:136,1,70,8|0,0:0|0:0,0:0:0:0:
88,88,195399,1,8,0:0:0:0:
32,152,195630,1,0,0:0:0:0:
40,232,195861,6,0,B|80:256|80:288|120:288,1,70,10|0,0:0|0:0,0:0:0:0:
176,296,196322,1,10,0:0:0:0:
256,280,196553,2,0,P|272:224|296:200,1,70,0|10,0:0|0:0,0:0:0:0:
344,152,197015,1,0,0:0:0:0:
344,152,197130,1,0,0:0:0:0:
344,152,197245,2,0,P|376:200|400:216,1,70,10|0,0:0|0:0,0:0:0:0:
408,288,197707,2,0,B|456:264|472:288|512:264,1,105,10|0,0:0|0:0,0:0:0:0:
496,224,198169,1,10,0:0:0:0:
456,152,198399,2,0,P|384:176|368:176,1,70,0|10,0:0|0:0,0:0:0:0:
304,160,198861,1,0,0:0:0:0:
304,160,199092,1,10,0:0:0:0:
224,184,199322,6,0,B|184:168|160:200|136:168,1,70,0|8,0:0|0:0,0:0:0:0:
88,232,199784,1,0,0:0:0:0:
152,288,200015,1,8,0:0:0:0:
232,304,200245,2,0,B|264:288|272:312|304:272,1,70,0|8,0:0|0:0,0:0:0:0:
376,248,200707,1,0,0:0:0:0:
456,224,200938,1,8,0:0:0:0:
416,152,201169,2,0,L|328:120,1,70,0|8,0:0|0:0,0:0:0:0:
304,200,201630,2,0,L|304:272,1,70,0|8,0:0|0:0,0:0:0:0:
224,296,202092,5,0,0:0:0:0:
224,296,202207,1,0,0:0:0:0:
224,296,202322,2,0,P|176:296|152:288,1,70,8|0,0:0|0:0,0:0:0:0:
128,208,202784,1,8,0:0:0:0:
160,128,203015,1,0,0:0:0:0:
240,112,203245,2,8,P|304:120|400:96,1,140
448,152,203938,1,0,0:0:0:0:
456,232,204169,2,8,P|376:264|312:264,1,140
280,280,204745,1,0,0:0:0:0:
240,288,204861,1,0,0:0:0:0:
160,280,205092,6,0,L|88:232,1,70,8|0,0:0|0:0,0:0:0:0:
152,176,205553,2,8,P|200:184|232:168,2,70,8|0|8,0:0|0:0|0:0,0:0:0:0:
72,200,206245,2,0,P|80:264|96:280,1,70,0|8,0:0|0:0,0:0:0:0:
168,272,206707,1,0,0:0:0:0:
224,208,206938,6,0,B|240:152|264:192|280:144,1,70,8|0,0:0|0:0,0:0:0:0:
320,232,207399,2,0,B|288:272|320:288|280:304,1,70,8|0,0:0|0:0,0:0:0:0:
376,312,207861,2,0,B|416:280|392:264|448:248,1,70,8|0,0:0|0:0,0:0:0:0:
440,176,208322,1,8,0:0:0:0:
360,144,208553,1,0,0:0:0:0:
280,176,208784,2,0,P|232:160|200:152,1,70,8|0,0:0|0:0,0:0:0:0:
192,232,209245,2,0,P|112:240|104:240,1,70,8|0,0:0|0:0,0:0:0:0:
152,320,209707,2,8,P|64:320|8:296,1,140
56,224,210399,5,0,0:0:0:0:
104,160,210630,2,0,P|152:136|192:144,1,70,10|0,0:0|0:0,0:0:0:0:
248,152,211092,2,0,P|296:160|320:152,1,70,10|0,0:0|0:0,0:0:0:0:
400,128,211553,1,10,0:0:0:0:
400,128,211669,1,0,0:0:0:0:
400,128,211784,1,0,0:0:0:0:
448,200,212015,2,0,L|384:232,1,70,10|0,0:0|0:0,0:0:0:0:
312,272,212476,6,8,P|248:248|160:272,2,140,10|10|10,0:0|0:0|0:0,0:0:0:0:
352,288,213515,1,0,0:0:0:0:
392,312,213630,1,0,0:0:0:0:
456,256,213861,2,0,P|456:216|440:184,1,70,10|0,0:0|0:0,0:0:0:0:
384,128,214322,6,8,P|304:152|248:136,2,140
456,88,215476,1,0,0:0:0:0:
496,160,215707,1,8,0:0:0:0:
496,248,215938,2,0,P|464:272|416:272,1,70,0|8,0:0|0:0,0:0:0:0:
376,216,216399,2,0,P|304:184|296:184,1,70,0|8,0:0|0:0,0:0:0:0:
248,240,216861,2,0,P|176:272|160:272,2,70,0|8|0,0:0|0:0|0:0,0:0:0:0:
176,200,217553,1,8,0:0:0:0:
184,120,217784,6,0,P|224:136|280:136,1,70,0|8,0:0|0:0,0:0:0:0:
336,136,218245,2,0,L|424:136,1,70,0|8,0:0|0:0,0:0:0:0:
472,192,218707,1,0,0:0:0:0:
448,272,218938,2,0,L|360:280,2,70,8|0|8,0:0|0:0|0:0,0:0:0:0:
400,200,219630,2,0,P|328:208|312:208,1,70,0|8,0:0|0:0,0:0:0:0:
248,216,220092,1,0,0:0:0:0:
168,224,220322,1,8,0:0:0:0:
80,224,220553,2,0,L|40:200,2,35
160,72,221245,1,8,0:0:0:0:
256,192,221707,12,8,223553,0:0:0:0:
