osu file format v9

[General]
AudioFilename: GUMI-A Town Nearing Spring.mp3
AudioLeadIn: 0
PreviewTime: 75525
Countdown: 0
SampleSet: Soft
StackLeniency: 0.7
Mode: 0
LetterboxInBreaks: 0

[Editor]
Bookmarks: 824,20952,39303,60500
DistanceSpacing: 0.8
BeatDivisor: 2
GridSize: 8

[Metadata]
Title:A Town Nearing Spring (Cut ver.)
Artist:Megpoid Gumi
Creator:thumbd03803
Version:Relax
Source:40mP
Tags:vocaloid vocaloid2Haru ni Ichiban Chikai Machi

[Difficulty]
HPDrainRate:2
CircleSize:3
OverallDifficulty:2
ApproachRate:3
SliderMultiplier:1.00000000596046
SliderTickRate:1

[Events]
//Background and Video events
Video,0,"A Town Nearing Spring.avi"
0,0,"BG.jpg"
//Break Periods
//Storyboard Layer 0 (Background)
//Storyboard Layer 1 (Fail)
//Storyboard Layer 2 (Pass)
//Storyboard Layer 3 (Foreground)
//Storyboard Sound Samples
//Background Colour Transformations
3,100,0,255,0

[TimingPoints]
20953,571.428571428571,4,2,1,80,1,0
57524,-100,4,1,1,80,0,0
75811,-100,4,1,1,80,0,1
98668,-100,4,1,1,80,0,0

[Colours]
Combo1 : 0,255,0
Combo2 : 128,255,255
Combo3 : 128,0,255

[HitObjects]
496,24,20953,2,0,B|568:120|496:208,1,200.000001192092,4|2
440,152,22667,1,0
384,96,23238,2,0,B|312:192|384:280,1,200.000001192092,0|2
344,352,24953,1,0
280,304,25524,6,0,B|224:272|224:272|272:224|272:224|216:176,1,200.000001192092,0|2
176,112,27238,1,0
128,176,27810,2,0,B|76:220|76:220|124:268|124:268|68:300,1,200.000001192092,0|0
2,255,29524,1,0
24,178,30095,5,4
92,136,30667,2,0,B|59:88|5:99,2,100.000000596046,0|2|0
128,208,32381,2,0,B|88:256|128:304,1,100.000000596046,0|0
192,256,33524,1,2
272,256,34095,1,0
328,200,34667,6,0,B|392:144|392:144|506:144,1,200.000001192092,0|2
488,224,36381,1,0
448,296,36953,2,0,B|384:352|384:352|256:352,1,200.000001192092,0|2
264,272,38667,1,0
184,272,39238,1,4
96,264,39810,6,2,B|144:200|144:200|144:80,1,200.000001192092,0|2
64,80,41524,1,0
104,8,42095,1,0
184,8,42667,1,0
224,80,43238,1,2
304,104,43810,6,0,B|328:136|328:136|328:200,1,100.000000596046,0|0
248,176,44952,2,0,B|248:236|248:236|272:268,1,100.000000596046,0|2
176,272,46095,1,0
232,336,46667,1,0
312,336,47238,1,0
352,264,47810,1,2
431,264,48381,6,0,B|463:216|431:168,1,100.000000596046
352,170,49524,1,0
352,90,50095,1,2
400,24,50667,2,0,B|352:-8|304:24,1,100.000000596046
256,88,51810,2,0,B|225:133|257:181,1,100.000000596046,0|2
325,223,52952,6,0,B|296:269|239:261,1,100.000000596046,0|0
176,216,54095,1,0
104,256,54667,1,2
32,216,55238,2,2,B|-59:71|-6:22|137:117,1,300.000001788138,0|4
184,176,57524,6,0,B|216:272,1,100.000000596046,0|8
296,270,58667,2,0,B|328:176,1,100.000000596046,0|8
384,120,59810,6,0,B|280:64,1,100.000000596046,0|8
216,72,60952,2,0,B|128:120,1,100.000000596046,0|8
57,81,62095,6,0,B|16:128|58:168,1,100.000000596046,0|8
136,200,63238,1,0
216,200,63810,1,8
296,224,64381,2,0,B|337:271|295:311,2,100.000000596046
216,200,66095,1,2
136,176,66667,5,0
173,102,67238,1,0
239,56,67810,1,0
317,38,68381,1,8
392,64,68952,5,0
440,128,69524,1,0
368,168,70095,1,0
296,128,70667,1,8
216,128,71238,5,0
192,208,71810,1,0
256,256,72381,1,0
320,208,72952,1,8
256,192,73524,12,4,75238
176,304,76381,5,8
176,224,76952,1,0
176,144,77524,1,0
256,120,78095,2,0,B|256:224,1,100.000000596046,0|0
256,304,79238,2,0,B|288:344|288:344|320:304,1,100.000000596046,0|0
320,216,80381,6,0,B|320:112,1,100.000000596046,0|8
240,88,81524,1,0
240,168,82095,2,0,B|166:176|101:104|131:-20|237:-52|324:6|327:74,1,400.000002384184,0|2
400,40,84952,6,0,B|488:40|488:40|496:48|504:56|504:56|504:168,1,200.000001192092,0|0
447,202,86667,1,8
503,258,87238,2,0,B|503:346|503:346|495:354|487:362|487:362|367:362,1,200.000001192092,0|0
320,336,88953,1,8
280,264,89524,6,0,B|376:240|376:240|408:112,1,200.000001192092,0|0
376,64,91238,1,8
296,40,91810,2,0,B|200:64|200:64|168:192,1,200.000001192092,0|0
104,192,93524,1,8
160,248,94095,6,0,B|216:248|216:248|160:304|256:464|344:304|288:248|288:248|360:248,2,400.000002384184,0|0|4
