osu file format v9

[General]
AudioFilename: GUMI-A Town Nearing Spring.mp3
AudioLeadIn: 0
PreviewTime: 75525
Countdown: 0
SampleSet: Normal
StackLeniency: 0.7
Mode: 0
LetterboxInBreaks: 0

[Editor]
Bookmarks: 824,20361,29524,38646,48952,57218,59238,61524,66095,75503,79810,84381,93524
DistanceSpacing: 1.2
BeatDivisor: 4
GridSize: 8

[Metadata]
Title:A Town Nearing Spring (Cut ver.)
Artist:Megpoid Gumi
Creator:thumbd03803
Version:Normal
Source:40mP
Tags:vocaloid vocaloid2Haru ni Ichiban Chikai Machi

[Difficulty]
HPDrainRate:3
CircleSize:4
OverallDifficulty:3
ApproachRate:4
SliderMultiplier:1.30000000596046
SliderTickRate:1

[Events]
//Background and Video events
Video,0,"A Town Nearing Spring.avi"
0,0,"BG.jpg"
//Break Periods
2,38295,38490
//Storyboard Layer 0 (Background)
//Storyboard Layer 1 (Fail)
//Storyboard Layer 2 (Pass)
//Storyboard Layer 3 (Foreground)
//Storyboard Sound Samples
//Background Colour Transformations
3,100,0,255,0

[TimingPoints]
20953,571.428571428571,4,2,1,85,1,0
57524,-100,4,1,1,75,0,0
75811,-100,4,1,1,75,0,1
98668,-100,4,1,1,75,0,0

[Colours]
Combo1 : 0,255,0
Combo2 : 128,255,255
Combo3 : 128,0,255

[HitObjects]
392,72,20952,2,0,B|424:56|456:72,1,65.000000298023
424,144,21524,1,0
464,208,22095,2,0,B|456:248|424:264|384:248|376:208,1,130.000000596046,2|0
296,72,23238,6,0,B|264:56|232:72,1,65.000000298023
192,136,23810,1,0
144,72,24095,2,0,B|112:56|80:72,1,65.000000298023,0|2
40,136,24667,1,0
40,136,24952,1,0
176,216,25524,6,0,B|144:272|144:272|176:328,1,130.000000596046
256,328,26381,1,0
335,328,26667,2,0,B|368:272|368:272|336:216,1,130.000000596046,2|0
335,23,27810,6,0,B|368:80|368:80|336:136,1,130.000000596046
256,136,28667,1,0
175,135,28953,2,0,B|143:79|143:79|176:23,1,130.000000596046,2|2
72,72,30095,6,0,B|40:56|8:72,1,65.000000298023
40,144,30667,1,0
0,208,31238,2,0,B|8:248|40:264|80:248|88:208,1,130.000000596046,2|0
165,344,32381,6,0,B|184:374|219:376,1,65.000000298023
293,376,32952,2,0,B|327:373|346:343,1,65.000000298023
376,272,33524,1,2
376,272,33810,1,0
376,272,34096,1,0
312,128,34667,6,0,B|256:80|192:128,1,130.000000596046
256,176,35524,1,0
256,176,35810,1,2
224,248,36095,2,0,B|256:264|288:248,2,65.000000298023
256,192,36952,12,4,38095
48,320,39810,6,0,B|136:320|136:320|160:288,1,130.000000596046,2|0
232,144,40952,1,0
200,216,41524,6,0,B|112:216|112:216|88:248,1,130.000000596046,0|2
208,344,42667,1,0
256,368,42952,1,0
296,344,43238,1,0
464,320,43810,6,0,B|376:320|376:320|352:288,1,130.000000596046,0|2
280,144,44952,1,0
312,216,45524,6,0,B|400:216|400:216|424:248,1,130.000000596046,0|0
336,120,46667,2,0,B|304:136|272:120,1,65.000000298023,2|0
240,48,47238,2,0,B|208:32|176:48,1,65.000000298023
136,112,47810,5,0
96,120,48095,1,0
64,112,48381,1,0
200,216,48952,6,0,B|138:270|202:326,1,130.000000596046,2|0
344,272,50095,1,0
340,338,50667,6,0,B|306:337|286:308,1,65.000000298023
284,230,51238,2,2,B|305:201|340:202,1,65.000000298023,2|0
400,152,51810,1,0
400,72,52095,1,0
328,104,52381,2,0,B|328:32,2,65.000000298023
400,240,53524,6,0,B|461:294|397:350,1,130.000000596046,2|0
256,296,54667,1,0
216,144,55238,6,0,B|232:112|216:80,1,65.000000298023
296,80,55810,2,0,B|280:112|296:144,1,65.000000298023,2|0
256,208,56381,1,0
256,208,56667,1,0
256,208,56953,1,4
320,256,57524,5,0
320,256,58095,1,8
256,72,58667,1,0
192,256,59238,1,0
344,136,59810,5,0
344,136,60381,1,8
152,136,60953,1,0
320,256,61524,1,0
216,96,62095,5,0
216,96,62667,1,8
256,288,63238,1,0
288,96,63810,1,0
408,248,64381,6,0,B|440:192|440:192|408:136,1,130.000000596046,0|8
352,192,65238,1,0
296,248,65524,2,0,B|264:192|264:192|296:136,1,130.000000596046,0|2
208,56,66667,6,0,B|192:120|192:120|128:136,1,130.000000596046,0|8
64,184,67524,1,0
128,232,67810,2,0,B|192:248|192:248|208:312,1,130.000000596046,0|8
256,376,68667,5,0
304,312,68952,2,0,B|319:248|319:248|384:231,1,130.000000596046,0|8
448,184,69810,1,0
383,136,70095,2,0,B|320:120|320:120|304:55,1,130.000000596046,0|8
256,144,70952,5,0
232,216,71238,2,0,B|216:232|216:232|256:248|256:248|296:232|296:232|280:216,3,130.000000596046
256,192,73238,12,4,75238
416,64,75810,5,0
320,136,76381,2,0,B|352:192|416:176,1,97.5000004470345
400,179,77238,1,0
401,179,77524,1,8
336,320,78095,6,0,B|256:320,1,65.000000298023
232,248,78667,1,0
192,320,78952,2,0,B|112:320|88:224,1,130.000000596046
96,248,79810,1,8
96,64,80381,5,0
192,136,80952,2,0,B|160:192|96:176,1,97.5000004470345
111,178,81810,1,0
111,178,82095,1,8
224,288,82667,6,0,B|216:296|224:304|232:312|256:320|280:312|288:304|296:296|288:288,2,97.5000004470345
256,216,84095,1,8
256,216,84381,1,8
320,160,84953,6,0,B|256:136|192:160,1,130.000000596046,0|8
304,48,86095,1,0
256,32,86381,1,0
208,48,86667,1,8
152,152,87238,6,0,B|136:216|136:216|56:216,1,130.000000596046,0|8
96,288,88095,1,0
176,288,88381,2,0,B|192:352|192:352|272:352,1,130.000000596046,0|8
392,272,89524,6,0,B|352:264|344:224,1,65.000000298023
272,248,90095,2,0,B|216:200|232:128,1,130.000000596046,8|0
344,24,91238,2,0,B|480:24,1,130.000000596046,8|0
432,96,92095,5,0
488,152,92381,1,8
432,208,92667,1,0
488,264,92952,2,0,B|470:292|427:286,2,65.000000298023,0|0|8
335,249,94095,6,0,B|296:304|296:304|336:352,1,130.000000596046,0|8
175,350,95238,2,0,B|215:302|215:302|176:248,1,130.000000596046,0|8
296,152,96381,6,0,B|256:128|256:128|208:152,4,97.5000004470345
256,56,98381,1,0
256,56,98667,1,4
