osu file format v9

[General]
AudioFilename: GUMI-A Town Nearing Spring.mp3
AudioLeadIn: 0
PreviewTime: 75525
Countdown: 0
SampleSet: Soft
StackLeniency: 0.7
Mode: 0
LetterboxInBreaks: 0
CountdownOffset: 3

[Editor]
Bookmarks: 824,20361,39218,48285,57000
DistanceSpacing: 0.7
BeatDivisor: 4
GridSize: 8

[Metadata]
Title:A Town Nearing Spring (Cut ver.)
Artist:Megpoid Gumi
Creator:thumbd03803
Version:Insane
Source:40mP
Tags:vocaloid vocaloid2Haru ni Ichiban Chikai Machi

[Difficulty]
HPDrainRate:8
CircleSize:4
OverallDifficulty:7
ApproachRate:8
SliderMultiplier:2.00000000596046
SliderTickRate:2

[Events]
//Background and Video events
Video,0,"A Town Nearing Spring.avi"
0,0,"BG.jpg"
//Break Periods
//Storyboard Layer 0 (Background)
//Storyboard Layer 1 (Fail)
//Storyboard Layer 2 (Pass)
//Storyboard Layer 3 (Foreground)
//Storyboard Sound Samples
//Background Colour Transformations
3,100,0,255,0

[TimingPoints]
20953,571.428571428571,4,2,1,100,1,0
57000,-100,4,1,1,100,0,0
75811,-100,4,1,1,100,0,1
98668,-100,4,1,1,100,0,0

[Colours]
Combo1 : 0,255,0
Combo2 : 128,255,255
Combo3 : 128,0,255

[HitObjects]
104,96,20952,2,0,B|104:23|0:48,1,100.000000298023,4|0
16,80,21381,2,0,B|16:153|120:128,1,100.000000298023
136,144,21810,2,0,B|240:200,1,100.000000298023
408,288,22381,1,8
320,240,22667,1,8
472,112,23238,5,0
432,88,23381,1,0
400,48,23524,1,0
368,88,23667,1,0
328,112,23810,1,8
240,152,24095,5,0
240,152,24238,1,0
240,152,24381,1,0
144,120,24667,1,8
136,216,24952,1,8
456,40,25524,6,0,B|440:88|440:88|480:176|480:176|456:224,1,200.000000596046,4|8
424,320,26381,1,0
328,280,26667,2,0,B|272:184,1,100.000000298023,0|8
240,104,27238,2,0,B|268:88|308:113,2,50.0000001490115,8|0|0
152,160,27810,5,0
56,192,28095,1,0
88,232,28238,1,0
128,272,28381,1,8
88,296,28524,1,0
56,328,28667,1,0
216,320,28952,6,0,B|256:376|312:312,1,100.000000298023,0|8
256,232,29524,1,8
256,232,29667,1,0
256,232,29810,1,0
200,152,30095,6,0,B|96:152,1,100.000000298023,4|0
72,112,30524,2,0,B|200:112,1,100.000000298023
224,112,30952,1,0
432,112,31238,1,0
328,112,31524,2,0,B|328:160|328:160|280:192,1,100.000000298023,8|8
96,248,32381,5,0
104,296,32524,2,0,B|115:325|151:329,1,50.0000001490115
192,328,32810,1,0
232,304,32952,1,8
256,152,33238,5,0
256,104,33381,2,0,B|256:48,1,50.0000001490115
168,0,33810,1,8
344,104,34095,1,8
448,320,34667,5,0
472,272,34810,1,0
448,232,34952,2,0,B|488:184,2,50.0000001490115,0|0|8
240,224,35524,1,0
344,224,35810,5,0
144,224,36095,2,0,B|80:216|72:136,1,100.000000298023,8|8
76,162,36524,1,0
336,64,36952,5,0
200,64,37238,1,0
248,64,37381,2,0,B|216:104|280:120|248:176,1,100.000000298023
256,160,37810,1,0
336,160,38095,5,0
352,208,38238,1,0
352,256,38381,1,2
304,288,38524,1,2
256,304,38667,1,0
208,288,38810,1,0
160,256,38952,1,2
160,208,39095,1,2
176,160,39238,1,4
16,128,39810,6,0,B|48:144|72:120,1,50.0000001490115
72,80,40095,1,0
80,32,40238,2,0,B|136:16|168:80,1,100.000000298023
164,72,40667,1,0
104,312,41238,5,0
144,344,41381,1,0
184,352,41524,2,0,B|240:368|280:296,1,100.000000298023
352,368,42095,1,0
376,272,42381,1,0
360,224,42524,2,0,B|208:200,1,150.000000447035
160,288,43238,5,0
264,96,43524,1,0
264,96,43667,1,0
272,56,43810,1,0
368,24,44095,1,0
432,96,44381,5,0
392,128,44524,1,0
296,200,44810,2,0,B|264:248|200:248,1,100.000000298023
208,280,45238,2,0,B|240:320|304:320,1,100.000000298023
456,112,45810,5,0
416,112,45953,1,0
384,112,46095,2,0,B|344:64|256:120,1,100.000000298023
293,100,46524,1,0
480,240,46810,5,0
440,240,46953,2,0,B|408:296,1,50.0000001490115
376,280,47238,2,0,B|328:224,1,50.0000001490115
304,240,47524,2,0,B|304:168,5,50.0000001490115
344,192,48381,1,0
88,256,48953,6,0,B|38:256,1,50.0000001490115,0|0
16,224,49238,1,0
16,176,49381,2,0,B|128:176,1,100.000000298023
112,176,49810,1,0
208,320,50381,5,0
208,320,50524,1,0
208,320,50667,2,0,B|256:344|304:320,1,100.000000298023
208,320,51095,1,0
264,112,51524,5,0
304,88,51667,2,0,B|376:40|464:96,1,150.000000447035
504,8,52381,1,0
392,184,52667,5,0
392,184,52810,1,0
392,184,52953,1,0
256,40,53524,5,0
232,88,53667,2,0,B|208:136|128:160,1,100.000000298023
224,240,54238,1,0
224,240,54381,1,0
104,72,54953,5,0
72,112,55095,1,0
40,152,55238,2,0,B|8:200|40:280,1,100.000000298023
80,232,55667,2,0,B|97:285|170:278,1,100.000000298023
160,280,56095,2,0,B|208:280,11,25.0000000745058,0|0|0|0|0|0|0|0|0|0|0|4
440,72,57238,5,0
440,120,57381,1,0
440,168,57524,2,0,B|496:168,2,50.0000001490115,2|0|2
392,168,57953,6,0,B|338:169,1,50.0000001490115
342,269,58381,1,8
342,269,58524,1,0
342,269,58667,1,0
344,64,58953,1,2
344,16,59095,1,2
112,88,59524,5,0
160,88,59667,1,0
208,88,59810,2,0,B|264:88,2,50.0000001490115,2|0|2
208,136,60238,1,0
208,184,60381,2,0,B|208:240,1,50.0000001490115
258,234,60667,5,8
308,234,60810,1,0
308,284,60953,2,0,B|204:284,1,100.000000298023,0|2
208,334,61381,1,2
40,312,61810,6,0,B|40:376,2,50.0000001490115,0|0|2
90,312,62238,1,0
140,312,62381,1,2
140,261,62524,1,0
140,210,62667,6,0,B|36:210,1,100.000000298023,0|8
40,159,63095,1,0
40,108,63238,2,0,B|40:60|40:60|120:60,1,100.000000298023,0|2
142,60,63667,1,2
280,344,64095,5,0
229,344,64238,1,0
229,293,64381,2,0,B|229:237,1,50.0000001490115,2|0
178,243,64667,2,0,B|122:243,1,50.0000001490115,2|0
128,192,64953,5,0
128,141,65095,1,0
178,141,65238,1,8
228,141,65381,1,0
228,191,65524,2,0,B|172:191,3,50.0000001490115,0|0|2|2
304,224,66381,5,0
304,274,66524,2,0,B|329:319,1,50.0000001490115,0|2
378,317,66810,1,0
427,317,66953,2,0,B|451:269,1,50.0000001490115,2|0
449,221,67238,5,0
449,170,67381,2,0,B|425:114,1,50.0000001490115
378,124,67667,1,0
327,124,67810,2,0,B|295:196,3,50.0000001490115,8|0|2|2
104,80,68667,6,0,B|72:72|56:40,2,50.0000001490115,0|0|2
88,128,69095,2,0,B|56:128|16:104,2,50.0000001490115,0|2|0
88,168,69524,2,0,B|64:184|16:176,2,50.0000001490115
96,208,69953,2,0,B|80:232|32:240,3,50.0000001490115,0|8|0|2
24,248,70524,1,2
167,338,70953,6,0,B|210:291,1,50.0000001490115
224,347,71238,2,0,B|255:342|270:311,1,50.0000001490115,2|0
154,282,71524,2,0,B|156:249|186:233,1,50.0000001490115,2|0
225,228,71810,2,0,B|274:175,1,50.0000001490115
272,272,72095,2,0,B|310:231,1,50.0000001490115
304,192,72381,6,0,B|380:110,1,100.000000298023,8|2
372,121,72810,2,0,B|476:1,1,150.000000447035,2|8
256,192,73381,12,4,75524
456,352,75810,5,0
368,240,76095,2,0,B|344:208|384:160,1,50.0000001490115,0|0
456,80,76524,2,0,B|472:112|440:152,1,50.0000001490115,0|2
168,104,77238,5,8
200,104,77381,1,0
240,104,77524,2,0,B|272:160|272:160|240:224|240:224|272:288,1,200.000000596046,8|0
368,280,78381,1,0
368,280,78524,6,0,B|417:127,1,150.000000447035,0|2
448,176,79095,2,0,B|394:183|356:146,1,100.000000298023
357,147,79524,1,8
296,56,79810,5,0
256,24,79953,1,0
216,56,80095,1,0
88,256,80381,6,0,B|48:144,1,100.000000298023,4|0
104,161,80810,2,0,B|64:49,1,100.000000298023
72,72,81238,1,2
376,56,81810,5,8
421,75,81953,1,0
456,110,82095,2,0,B|416:150,1,50.0000001490115,8|0
456,180,82381,2,0,B|416:212,1,50.0000001490115
366,211,82667,2,0,B|302:203|302:139,1,100.000000298023,0|8
304,152,83095,1,0
280,248,83381,5,0
280,248,83524,1,0
200,72,83810,5,0
152,232,84095,1,0
40,48,84381,1,8
0,80,84524,1,0
40,112,84667,1,0
152,72,84953,6,0,B|200:40|264:72,1,100.000000298023,4|0
248,112,85381,2,0,B|296:136|360:112,1,100.000000298023
344,72,85810,2,0,B|392:48|456:72,1,100.000000298023,2|0
416,168,86381,5,8
480,248,86667,2,0,B|488:304|424:368,1,100.000000298023,8|0
368,280,87238,2,0,B|344:328|256:336,1,100.000000298023
286,331,87667,1,0
320,184,88095,5,0
320,184,88238,1,0
248,120,88524,1,0
248,120,88667,1,0
0,72,89238,5,0
0,72,89381,2,0,B|48:144|128:176,1,150.000000447035,0|0
159,192,89953,1,0
208,208,90095,2,0,B|256:232|304:208,1,100.000000298023,0|2
350,187,90524,6,0,B|374:131|318:67,1,100.000000298023,0|0
301,56,90953,1,8
256,48,91095,1,0
208,56,91238,1,8
256,192,91810,12,0,93524
256,344,93810,5,0
256,312,93953,2,0,B|200:248|312:200|216:136,1,150.000000447035,0|0
249,171,94524,1,0
352,304,94953,5,0
304,304,95095,2,0,B|192:304,1,100.000000298023
160,304,95524,1,0
160,304,95667,2,0,B|137:281|137:281|120:287|120:287|143:264|143:264|126:270|126:270|58:202,1,150.000000447035
56,200,96238,1,0
152,112,96667,6,0,B|192:80,1,50.0000001490115
232,112,96953,2,0,B|296:112,1,50.0000001490115
332,112,97238,1,8
432,288,97524,5,0
384,264,97667,1,0
344,288,97810,1,0
296,264,97953,1,0
256,288,98095,1,0
208,264,98238,1,0
168,288,98381,1,0
128,264,98524,1,0
88,288,98667,1,4
