osu file format v9

[General]
AudioFilename: GUMI-A Town Nearing Spring.mp3
AudioLeadIn: 0
PreviewTime: 75525
Countdown: 0
SampleSet: Soft
StackLeniency: 0.7
Mode: 0
LetterboxInBreaks: 0
CountdownOffset: 3

[Editor]
Bookmarks: 824,20361,29524,39218,48285,57000,75500
DistanceSpacing: 1
BeatDivisor: 4
GridSize: 8

[Metadata]
Title:A Town Nearing Spring (Cut ver.)
Artist:Megpoid Gumi
Creator:thumbd03803
Version:Hard
Source:40mP
Tags:vocaloid vocaloid2Haru ni Ichiban Chikai Machi

[Difficulty]
HPDrainRate:6
CircleSize:4
OverallDifficulty:6
ApproachRate:6
SliderMultiplier:1.50000000596046
SliderTickRate:2

[Events]
//Background and Video events
Video,0,"A Town Nearing Spring.avi"
0,0,"BG.jpg"
//Break Periods
//Storyboard Layer 0 (Background)
//Storyboard Layer 1 (Fail)
//Storyboard Layer 2 (Pass)
//Storyboard Layer 3 (Foreground)
//Storyboard Sound Samples
//Background Colour Transformations
3,100,0,255,0

[TimingPoints]
20953,571.428571428571,4,2,1,70,1,0
57238,-66.6666666666667,4,1,1,70,0,0
75811,-66.6666666666667,4,1,1,70,0,1
98668,-100,4,2,1,70,0,0

[Colours]
Combo1 : 0,255,0
Combo2 : 128,255,255
Combo3 : 128,0,255

[HitObjects]
184,72,20952,2,0,B|208:104|184:144,1,75.000000298023,4|0
248,176,21524,1,8
248,176,21810,1,0
312,72,22095,2,0,B|288:104|312:144,1,75.000000298023
376,176,22667,1,8
432,232,22952,1,0
480,288,23238,6,0,B|454:319|410:305,1,75.000000298023,0|0
360,240,23810,1,8
288,264,24095,2,0,B|255:286|216:261,1,75.000000298023,0|0
192,328,24667,1,0
192,328,24952,1,8
184,176,25524,6,0,B|184:168|184:168|144:184|120:152|120:152|144:120|184:136|184:136|184:128,1,150.000000596046,0|8
256,152,26381,1,0
326,174,26667,2,0,B|326:168|326:168|366:184|390:152|390:152|366:120|326:136|326:136|328:136,1,150.000000596046,0|8
336,8,27810,2,0,B|296:-8|264:8,1,75.000000298023
224,168,28667,1,0
80,168,28952,1,0
152,168,29238,1,0
264,112,29524,2,0,B|258:90|236:95,2,37.5000001490115,10|0|2
304,176,30095,6,0,B|304:256,1,75.000000298023,4|0
400,248,30667,1,8
400,176,30952,1,0
336,224,31238,6,0,B|336:312,1,75.000000298023
264,296,31810,1,8
200,264,32095,1,0
152,208,32381,6,0,B|192:184|200:144,1,75.000000298023,0|0
136,128,32952,1,8
256,128,33238,1,0
136,128,33524,1,0
256,128,33810,1,0
196,83,34095,1,8
432,72,34667,6,0,B|464:128|384:184|432:224,1,150.000000596046,4|8
368,256,35524,2,0,B|327:206|246:260|226:201,1,150.000000596046,0|0
248,144,36381,2,0,B|176:120,1,75.000000298023,8|0
120,80,36952,5,0
56,112,37238,2,0,B|48:160|91:182,1,75.000000298023,0|8
144,216,37810,2,0,B|151:264|108:286,1,75.000000298023
56,240,38381,1,0
176,312,38667,6,0,B|256:288,1,75.000000298023,8|0
256,360,39238,1,4
256,192,39810,5,0
168,120,40238,2,0,B|192:88|232:88|232:88|344:88,1,187.500000745057,0|0
416,56,41238,1,0
456,120,41524,2,0,B|478:158|454:190,1,75.000000298023
384,216,42095,1,0
384,216,42667,2,0,B|406:254|382:286,1,75.000000298023
408,360,43238,2,0,B|370:382|338:358,2,75.000000298023
256,344,44381,1,0
256,192,44952,1,0
256,40,45524,1,0
256,40,46095,1,0
328,64,46381,1,0
376,120,46667,1,0
328,176,46952,1,0
256,192,47238,1,0
184,208,47524,1,0
136,264,47810,1,0
184,320,48095,1,0
256,344,48381,1,0
256,192,48952,5,0
344,264,49380,2,0,B|320:296|280:296|280:296|168:296,1,187.500000745057,0|0
88,280,50381,1,0
48,216,50667,2,0,B|24:184|24:184|48:160,1,75.000000298023
120,160,51238,2,0,B|144:184|144:184|120:216,2,75.000000298023
72,80,52095,2,0,B|72:0,1,75.000000298023
0,40,52667,1,0
144,40,52952,1,0
144,40,53524,2,0,B|192:104|280:104,1,150.000000596046
312,40,54381,2,0,B|352:63|344:104,1,75.000000298023
360,256,54952,1,0
344,176,55238,2,0,B|264:208|176:160,1,150.000000596046
264,264,56095,2,0,B|186:301|95:259,1,150.000000596046
120,184,56952,1,0
80,80,57238,2,0,B|101:46|127:76,1,56.2500023692846
184,72,57524,2,0,B|304:72,1,112.500004738569
368,160,58095,2,0,B|255:160,1,112.500004738569
360,0,58667,1,0
448,104,58952,1,0
440,216,59238,1,0
392,288,59524,1,0
168,272,59810,2,0,B|208:232|208:232|248:272,1,112.500004738569
128,328,60381,2,0,B|88:368|88:368|48:328,1,112.500004738569
176,144,60952,1,0
224,248,61238,1,0
8,240,61524,1,0
120,256,61810,1,0
32,168,62095,2,0,B|32:112|48:96|56:88|64:80|80:80|96:80|112:88,1,112.500004738569
176,152,62667,2,0,B|163:153|179:153|195:153|203:145|211:137|227:121|227:65,1,112.500004738569
320,280,63238,1,0
312,72,63524,1,0
272,176,63810,1,0
488,136,64095,1,0
384,96,64381,2,0,B|408:160|408:160|368:248|368:248|384:312,1,225.000009477138
256,304,65238,1,0
129,306,65524,2,0,B|144:248|144:248|104:160|104:160|128:96,1,225.000009477138
232,48,66381,2,0,B|256:16|280:48,1,56.2500023692846
256,97,66667,1,0
256,208,66952,1,0
216,312,67238,2,0,B|181:322|154:304|138:275|150:241,2,112.500004738569
328,296,68095,1,0
328,128,68381,1,0
328,296,68667,1,0
432,312,68952,2,0,B|466:322|493:304|509:275|497:241,2,112.500004738569
432,312,69810,1,0
328,296,70095,1,0
328,128,70381,1,0
208,16,70667,1,0
376,72,70952,1,0
216,136,71238,1,0
160,232,71524,1,0
88,320,71810,2,0,B|24:320,2,56.2500023692846
200,320,72381,1,0
312,320,72667,2,0,B|376:320,4,56.2500023692846
256,192,73524,12,0,75238
308,30,75810,5,0
275,146,76095,1,0
390,179,76381,1,0
424,64,76667,1,0
322,108,76952,5,0
246,201,77237,1,0
340,276,77523,1,0
416,184,77809,1,0
424,352,78095,2,0,B|312:352,1,112.500004738569
200,352,78667,2,0,B|80:352,2,112.500004738569
200,352,79524,1,0
200,352,79667,1,0
200,352,79810,1,0
256,208,80381,1,0
340,123,80667,1,0
256,208,80952,1,0
171,123,81238,1,0
256,40,81524,1,0
171,123,81810,1,0
256,208,82095,1,0
341,123,82381,1,0
360,232,82667,2,0,B|424:224|456:160,2,112.500004738569
448,304,83524,2,0,B|401:339|340:319,1,112.500004738569
344,320,84095,1,0
344,320,84238,1,0
344,320,84381,1,0
216,320,84952,2,0,B|136:248|72:320|8:280|0:224,1,225.000009477138
104,192,85809,1,0
10,131,86095,2,0,B|8:104|72:64|136:136|216:64,1,225.000009477138
432,72,87238,2,0,B|432:200|432:200|416:224|392:240|360:248|328:216,1,225.000009477138
352,120,88095,1,0
352,8,88381,2,0,B|340:-8|308:0|284:15|268:39|268:39|268:167,1,225.000009477138
56,96,89524,2,0,B|73:150|144:163,1,112.500004738569
256,216,90095,1,0
256,192,90238,1,0
256,168,90381,1,0
44,258,90667,2,0,B|94:286|155:246,1,112.500004738569
256,168,91238,1,0
256,192,91381,1,0
256,216,91524,1,0
416,208,91810,1,0
416,208,92238,1,0
416,208,92381,2,0,B|456:120|416:40,1,168.750007107854
264,120,93238,1,0
264,120,93524,1,0
40,96,93952,1,0
40,96,94095,2,0,B|176:96,1,112.500004738569
152,208,94667,1,0
40,208,95095,1,0
40,208,95238,2,0,B|40:320,1,112.500004738569
152,320,95810,1,0
256,240,96381,1,0
256,240,96810,1,0
256,240,96952,2,0,B|272:192|232:192|256:128,1,112.500004738569
296,16,97524,2,0,B|328:24|336:56,2,56.2500023692846
216,16,98095,2,0,B|184:24|176:56,2,56.2500023692846
256,72,98667,1,0
