osu file format v9

[General]
AudioFilename: 10..mp3
AudioLeadIn: 1500
PreviewTime: 54643
Countdown: 0
SampleSet: Normal
StackLeniency: 0.7
Mode: 0
LetterboxInBreaks: 1

[Editor]
Bookmarks: 22633,44451,55360,77178,88087,109905,134451,142633,153542
DistanceSpacing: 1.5
BeatDivisor: 4
GridSize: 8

[Metadata]
Title:Yume Chizu
Artist:Megpoid GUMI
Creator:y u c a
Version:Hard
Source:40mP
Tags:vocaloid lalarun yuca y_u_c_a

[Difficulty]
HPDrainRate:6
CircleSize:4
OverallDifficulty:7
ApproachRate:8
SliderMultiplier:1.7
SliderTickRate:2

[Events]
//Background and Video events
0,0,"bg.jpg"
//Break Periods
2,77438,86715
//Storyboard Layer 0 (Background)
//Storyboard Layer 1 (Fail)
//Storyboard Layer 2 (Pass)
//Storyboard Layer 3 (Foreground)
//Storyboard Sound Samples
//Background Colour Transformations
3,100,163,162,255

[TimingPoints]
-489,340.909090909091,4,1,1,80,1,0
9056,-100,4,1,1,40,0,0
9397,-100,4,1,1,50,0,0
9738,-100,4,1,1,60,0,0
10079,-100,4,1,1,70,0,0
10420,-100,4,1,1,80,0,0
10596,-100,4,2,1,60,0,0
10676,-100,4,1,1,60,0,0
11102,-100,4,2,1,70,0,0
11187,-100,4,1,1,70,0,0
11783,-100,4,1,1,80,0,0
12294,-100,4,2,1,80,0,0
12464,-100,4,1,1,80,0,0
12635,-100,4,2,1,80,0,0
12805,-100,4,1,1,80,0,0
13999,-100,4,2,1,80,0,0
14169,-100,4,1,1,80,0,0
15362,-100,4,2,1,80,0,0
15533,-100,4,1,1,80,0,0
15703,-100,4,2,1,80,0,0
15874,-100,4,1,1,80,0,0
16385,-100,4,2,1,80,0,0
16555,-100,4,1,1,80,0,0
17238,-100,4,2,2,80,0,0
17578,-100,4,1,2,60,0,0
17749,-100,4,1,1,80,0,0
18771,-100,4,2,2,80,0,0
18942,-100,4,1,1,80,0,0
19112,-100,4,2,1,80,0,0
19283,-100,4,1,1,80,0,0
19794,-100,4,2,1,80,0,0
19964,-100,4,1,1,80,0,0
20135,-100,4,2,1,80,0,0
20305,-100,4,1,1,80,0,0
21158,-100,4,1,1,90,0,0
22692,-100,4,2,1,80,0,0
25419,-100,4,2,1,70,0,0
25589,-100,4,2,1,80,0,0
28146,-100,4,2,1,70,0,0
28231,-100,4,2,1,80,0,0
33601,-100,4,1,1,60,0,0
35305,-100,4,1,2,50,0,0
35476,-100,4,1,1,60,0,0
36158,-100,4,2,1,80,0,0
36328,-100,4,2,1,70,0,0
36413,-100,4,1,1,60,0,0
38033,-100,4,1,2,50,0,0
38203,-100,4,1,1,60,0,0
38885,-100,4,2,1,80,0,0
39055,-100,4,2,1,70,0,0
39226,-100,4,1,1,60,0,0
40930,-100,4,2,1,80,0,0
41101,-100,4,1,1,60,0,0
41271,-100,4,2,1,80,0,0
41442,-100,4,1,1,60,0,0
41612,-100,4,2,1,80,0,0
41697,-100,4,1,1,60,0,0
42976,-100,4,2,1,80,0,0
43061,-100,4,1,1,60,0,0
43487,-100,4,1,2,50,0,0
43658,-100,4,1,1,60,0,0
43828,-100,4,2,1,80,0,0
44169,-100,4,1,1,60,0,0
44510,-133.333333333333,4,1,1,70,0,0
44510,-133.333333333333,4,1,1,70,0,0
44595,-133.333333333333,4,2,1,70,0,0
45192,-133.333333333333,4,1,1,60,0,0
45277,-133.333333333333,4,2,1,70,0,0
45703,-133.333333333333,4,1,1,60,0,0
45788,-133.333333333333,4,2,1,70,0,0
46044,-133.333333333333,4,1,1,60,0,0
46300,-133.333333333333,4,2,1,70,0,0
46555,-133.333333333333,4,1,1,60,0,0
46641,-133.333333333333,4,2,1,70,0,0
47237,-133.333333333333,4,1,1,60,0,0
47322,-133.333333333333,4,2,1,70,0,0
47919,-133.333333333333,4,1,1,60,0,0
48004,-133.333333333333,4,2,1,70,0,0
48430,-100,4,1,1,60,0,0
48516,-100,4,2,1,70,0,0
48771,-100,4,2,1,60,0,0
48942,-100,4,1,1,50,0,0
49283,-100,4,1,1,60,0,0
49624,-100,4,1,1,70,0,0
52692,-100,4,1,1,40,0,0
53033,-100,4,1,1,50,0,0
53374,-100,4,1,1,60,0,0
53714,-100,4,1,1,70,0,0
54055,-100,4,1,1,80,0,0
54396,-100,4,1,1,90,0,0
54737,-100,4,2,1,20,0,0
55419,-100,4,1,1,80,0,0
56271,-100,4,2,1,80,0,0
56442,-100,4,1,1,80,0,0
56953,-100,4,2,1,80,0,0
57124,-100,4,1,2,60,0,0
57294,-100,4,1,1,80,0,0
58317,-100,4,2,2,70,0,0
58487,-100,4,1,1,80,0,0
58658,-100,4,2,2,70,0,0
58828,-100,4,1,1,80,0,0
59680,-100,4,2,1,80,0,0
59851,-100,4,1,1,80,0,0
60021,-100,4,2,1,80,0,0
60192,-100,4,1,1,80,0,0
61386,-100,4,2,1,80,0,0
61556,-100,4,1,1,80,0,0
61726,-100,4,2,1,80,0,0
61896,-100,4,1,1,80,0,0
62067,-100,4,2,1,80,0,0
62152,-100,4,1,1,80,0,0
62749,-100,4,2,2,80,0,0
62834,-100,4,1,1,80,0,0
63771,-100,4,2,1,80,0,0
63942,-100,4,1,1,80,0,0
64112,-100,4,2,1,80,0,0
64283,-100,4,1,1,80,0,0
65305,-100,4,2,1,80,0,0
65476,-100,4,1,1,80,0,0
65646,-100,4,1,1,50,0,0
65817,-100,4,2,1,50,0,0
65902,-100,4,1,1,50,0,0
65987,-100,4,1,1,70,0,0
66158,-100,4,2,1,80,0,0
66243,-100,4,1,1,80,0,0
67180,-100,4,2,1,80,0,0
67351,-100,4,1,1,80,0,0
67521,-100,4,2,1,80,0,0
67606,-100,4,1,1,80,0,0
68033,-100,4,1,2,60,0,0
68203,-100,4,1,1,80,0,0
68544,-100,4,2,1,80,0,0
68714,-100,4,1,1,80,0,0
68885,-100,4,2,1,80,0,0
69055,-100,4,1,1,80,0,0
70419,-100,4,2,2,80,0,0
70504,-100,4,1,1,80,0,0
70930,-100,4,2,1,80,0,0
71101,-100,4,1,1,80,0,0
71271,-100,4,2,2,80,0,0
71356,-100,4,1,1,80,0,0
71953,-100,4,2,1,80,0,0
72124,-100,4,1,1,80,0,0
73317,-100,4,2,2,80,0,0
73402,-100,4,1,1,80,0,0
73999,-100,4,2,2,80,0,0
74170,-100,4,1,1,80,0,0
74339,-100,4,2,1,80,0,0
74680,-100,4,1,1,80,0,0
75021,-100,4,2,2,80,0,0
75192,-100,4,1,1,80,0,0
75362,-100,4,2,1,80,0,0
75703,-100,4,1,1,80,0,0
76044,-100,4,2,1,80,0,0
76214,-100,4,1,2,60,0,0
76385,-100,4,2,1,80,0,0
76555,-100,4,1,1,80,0,0
76726,-100,4,2,1,80,0,0
77237,-100,4,1,1,80,0,0
87464,-100,4,1,1,50,0,0
87636,-100,4,2,1,50,0,0
87721,-100,4,1,1,50,0,0
87805,-100,4,1,1,70,0,0
87977,-100,4,2,1,70,0,0
88062,-100,4,1,1,70,0,0
88659,-100,4,2,1,70,0,0
88744,-100,4,1,1,70,0,0
88999,-100,4,2,1,70,0,0
89085,-100,4,1,1,70,0,0
89851,-100,4,1,2,50,0,0
90021,-100,4,2,2,70,0,0
90193,-100,4,1,1,70,0,0
91045,-100,4,2,2,70,0,0
91214,-100,4,1,2,50,0,0
91385,-100,4,1,1,70,0,0
91727,-100,4,2,2,70,0,0
91897,-100,4,1,1,70,0,0
92578,-100,4,1,2,50,0,0
92749,-100,4,2,1,70,0,0
92920,-100,4,1,1,70,0,0
93772,-100,4,2,2,70,0,0
93943,-100,4,1,1,70,0,0
94284,-100,4,2,1,70,0,0
94454,-100,4,2,1,70,0,0
94624,-100,4,1,1,70,0,0
95136,-100,4,2,1,70,0,0
95306,-100,4,1,1,70,0,0
95473,-100,4,2,1,70,0,0
95647,-100,4,1,1,70,0,0
95818,-100,4,2,1,70,0,0
95988,-100,4,1,1,70,0,0
96159,-100,4,2,1,70,0,0
96329,-100,4,1,1,70,0,0
96840,-100,4,2,1,70,0,0
97011,-100,4,1,1,70,0,0
97181,-100,4,2,1,70,0,0
97352,-100,4,1,1,70,0,0
98204,-100,4,2,1,70,0,0
98289,-100,4,1,1,70,0,0
98545,-100,4,2,1,70,0,0
98630,-100,4,1,1,70,0,0
98886,-100,4,2,1,70,0,0
98971,-100,4,1,1,70,0,0
99227,-100,4,2,2,70,0,0
99312,-100,4,1,1,70,0,0
99568,-100,4,2,1,70,0,0
99909,-100,4,1,1,70,0,0
100078,-100,4,1,2,50,0,0
100163,-100,4,1,1,70,0,0
100249,-100,4,2,1,70,0,0
100590,-100,4,1,1,70,0,0
100931,-100,4,2,1,70,0,0
101272,-100,4,1,1,70,0,0
101784,-100,4,1,1,70,0,0
101954,-100,4,2,2,70,0,0
102124,-100,4,1,1,70,0,0
102636,-100,4,2,1,70,0,0
102977,-100,4,1,1,70,0,0
103147,-100,4,2,2,70,0,0
103318,-100,4,1,1,70,0,0
103659,-100,4,1,1,70,0,0
103999,-100,4,2,1,70,0,0
104340,-100,4,1,1,70,0,0
105022,-100,4,2,1,70,0,0
105193,-100,4,1,1,70,0,0
105363,-100,4,2,1,70,0,0
105534,-100,4,1,1,70,0,0
111669,-100,4,1,2,50,0,0
111754,-100,4,1,1,70,0,0
112011,-100,4,2,1,70,0,0
112096,-100,4,1,1,70,0,0
113545,-100,4,2,1,70,0,0
113630,-100,4,1,1,70,0,0
114396,-100,4,1,2,50,0,0
114481,-100,4,1,1,70,0,0
115590,-100,4,2,1,70,0,0
115761,-100,4,1,1,70,0,0
115931,-100,4,2,1,70,0,0
116102,-100,4,1,1,70,0,0
116272,-100,4,2,2,70,0,0
116357,-100,4,1,1,70,0,0
117636,-100,4,2,1,70,0,0
117721,-100,4,1,1,70,0,0
117891,-100,4,2,1,70,0,0
117977,-100,4,1,1,70,0,0
118659,-100,4,2,1,70,0,0
118829,-100,4,1,1,70,0,0
118999,-100,4,2,1,70,0,0
119170,-100,4,1,1,70,0,0
120363,-100,4,2,1,70,0,0
120534,-100,4,1,1,70,0,0
120704,-100,4,2,1,70,0,0
120874,-100,4,1,1,70,0,0
121727,-100,4,2,1,70,0,0
121812,-100,4,1,1,70,0,0
125818,-100,4,2,1,70,0,0
126159,-100,4,1,1,70,0,0
126499,-100,4,2,2,70,0,0
126670,-100,4,1,1,70,0,0
127181,-100,4,2,1,70,0,0
127522,-100,4,1,1,70,0,0
127863,-100,4,2,2,70,0,0
127948,-100,4,1,2,70,0,0
128204,-100,4,2,1,70,0,0
128374,-100,4,1,1,70,0,0
128545,-100,4,2,1,70,0,0
128715,-100,4,1,1,70,0,0
128886,-100,4,2,1,70,0,0
129055,-100,4,1,1,40,0,0
129396,-100,4,1,1,50,0,0
129737,-100,4,1,1,60,0,0
130078,-100,4,1,1,70,0,0
135874,-100,4,2,1,40,0,0
135959,-100,4,2,1,20,0,0
136044,-100,4,1,1,60,0,0
139283,-100,4,1,1,5,0,0
139453,-100,4,1,1,60,0,0
139624,-100,4,1,1,5,0,0
139794,-200,4,1,1,60,0,0
140817,-200,4,1,1,70,0,0
140987,-100,4,1,1,80,0,0
141328,-100,4,1,1,90,0,0
142010,-100,4,2,1,70,0,0
142352,-100,4,2,1,50,0,0
142693,-100,4,2,1,70,0,0
147805,-100,4,2,1,60,0,0
148147,-100,4,1,1,60,0,0
152749,-100,4,2,1,60,0,0
152834,-100,4,1,1,50,0,0
153090,-100,4,2,1,50,0,0
153176,-100,4,1,1,50,0,0
153260,-100,4,1,1,70,0,0
153431,-100,4,2,1,70,0,0
153516,-100,4,1,1,70,0,0
153601,-100,4,1,1,80,0,0
154454,-100,4,2,1,80,0,0
154624,-100,4,1,1,80,0,0
155136,-100,4,2,1,80,0,0
155305,-100,4,1,2,60,0,0
155391,-100,4,1,1,80,0,0
157011,-100,4,2,2,80,0,0
157181,-100,4,1,1,80,0,0
157522,-100,4,2,1,80,0,0
157693,-100,4,1,1,80,0,0
157863,-100,4,2,2,80,0,0
158034,-100,4,1,1,80,0,0
158204,-100,4,2,2,80,0,0
158374,-100,4,1,1,80,0,0
158545,-100,4,2,1,80,0,0
158715,-100,4,1,1,80,0,0
159227,-100,4,2,1,80,0,0
159397,-100,4,1,1,80,0,0
160590,-100,4,2,2,80,0,0
160761,-100,4,1,1,80,0,0
161272,-100,4,2,2,80,0,0
161443,-100,4,1,1,80,0,0
162295,-100,4,2,2,80,0,0
162465,-100,4,1,1,80,0,0
165022,-100,4,2,2,80,0,0
165193,-100,4,1,1,80,0,0
165363,-100,4,2,1,80,0,0
165534,-100,4,1,1,80,0,0
166045,-100,4,2,1,80,0,0
166214,-100,4,1,2,60,0,0
166300,-100,4,1,1,80,0,0
167749,-100,4,2,2,80,0,0
167920,-100,4,1,1,80,0,0
168090,-100,4,2,1,80,0,0
168261,-100,4,1,1,80,0,0
168772,-100,4,2,1,80,0,0
168942,-100,4,1,2,60,0,0
169113,-100,4,2,1,60,0,0
169284,-100,4,1,1,60,0,0
170477,-100,4,2,2,60,0,0
170647,-100,4,1,1,60,0,0
170818,-100,4,2,1,60,0,0
170988,-100,4,1,1,60,0,0
171499,-100,4,2,1,60,0,0
171670,-100,4,1,1,60,0,0
172692,-133.333333333333,4,1,1,80,0,0
177124,-133.333333333333,4,1,2,60,0,0
177295,-133.333333333333,4,1,1,80,0,0
177806,-133.333333333333,4,1,2,60,0,0
177977,-133.333333333333,4,1,1,80,0,0
179852,-133.333333333333,4,1,2,60,0,0
180022,-133.333333333333,4,1,1,80,0,0
181385,-133.333333333333,4,1,1,50,0,0
181726,-133.333333333333,4,1,1,60,0,0
181896,-100,4,1,1,60,0,0
182067,-100,4,1,1,70,0,0
182237,-100,4,1,1,80,0,0
182408,-100,4,1,1,85,0,0
182749,-100,4,1,1,90,0,0
184453,-100,4,1,1,60,0,0
184624,-100,4,1,1,60,0,0

[Colours]
Combo1 : 133,237,107
Combo2 : 255,255,128
Combo3 : 255,117,186
Combo4 : 60,157,255

[HitObjects]
256,352,534,1,2
256,352,874,1,4
256,40,2409,1,0
256,40,2579,1,2
64,192,2920,1,0
456,192,3261,1,2
64,192,3602,5,4
256,352,5136,1,0
256,352,5306,1,2
440,192,5647,1,0
440,192,5818,1,0
440,192,5988,1,2
440,192,6329,5,4
64,192,7693,1,4
256,192,9056,6,0,B|224:136|192:96,1,85,0|0
120,88,9397,1,2
56,152,9568,1,0
48,248,9738,2,0,B|64:304|88:344,1,85
176,336,10079,1,2
272,320,10249,1,0
336,248,10420,1,0
352,152,10590,2,0,B|304:112,13,42.5,2|0|0|0|0|0|2|0|0|0|0|0|0|0
352,152,11783,6,0,B|424:232|360:312,1,170,4|8
272,312,12295,1,2
192,264,12465,2,0,B|168:216|192:184,2,85,0|2|8
240,80,13147,2,0,B|64:80,1,170,0|8
70,80,13829,1,0
70,80,13999,1,2
70,80,14170,1,8
208,296,14511,2,0,B|384:296,1,170,0|8
378,296,15193,5,0
384,200,15363,1,2
320,128,15533,1,8
232,96,15704,1,2
136,112,15874,2,0,B|32:256,1,170,0|8
88,328,16386,1,2
184,320,16556,2,0,B|288:168,1,170,0|8
358,232,17068,2,0,B|462:72,1,170,0|2
450,89,17579,2,0,B|373:28|260:53,1,170,8|0
304,304,18261,6,0,B|424:320|512:296,2,170,8|0|8
320,208,19113,1,2
344,120,19283,2,0,B|264:112|168:120,1,170,0|8
136,208,19795,1,2
200,280,19965,1,0
136,352,20136,1,2
136,352,20306,2,0,B|240:360|320:352,1,170,8|0
305,353,20818,1,0
152,48,21158,5,0
480,144,21499,1,0
168,280,21840,1,0
480,144,22181,1,0
480,144,22693,5,4
400,96,22863,1,0
312,128,23033,2,0,B|296:168|296:224,1,85
272,304,23374,1,0
176,312,23545,1,0
96,264,23715,1,0
72,176,23886,1,0
120,96,24056,2,0,B|224:80|312:104,3,170
289,98,25249,5,2
368,152,25420,1,2
384,248,25590,1,0
304,304,25761,2,0,B|256:328|216:328,1,85
223,327,26102,2,0,B|136:272|184:160,1,170
264,200,26613,1,0
264,200,26954,2,0,B|288:96|200:48,2,170
264,200,27977,5,2
264,200,28147,2,0,B|328:192|408:200,1,127.5,2|0
408,176,28488,2,0,B|432:80|328:32,1,170
248,48,28999,1,0
160,72,29170,1,0
72,96,29340,2,0,B|56:144|56:192,1,85
56,179,29681,2,0,B|152:192|192:288,1,170,0|2
256,336,30193,1,0
352,336,30363,1,2
432,280,30533,1,0
440,184,30704,1,2
392,104,30874,6,0,B|280:96|200:104,1,170
222,102,31386,1,0
222,102,31727,1,0
320,336,32068,2,0,B|424:344|504:336,1,170,2|0
489,337,32749,1,2
489,337,33090,1,2
64,56,33602,6,0,B|152:48|240:56,1,170,4|8
312,104,34113,1,0
232,160,34283,1,0
168,224,34454,1,0
224,296,34624,1,8
296,352,34795,2,0,B|408:360|472:352,3,170
465,352,35988,1,8
465,352,36158,5,2
440,264,36329,1,2
432,240,36414,1,0
416,224,36499,2,0,B|376:248|320:256,1,85,0|8
248,232,36840,1,0
176,176,37011,1,0
80,184,37181,1,0
64,208,37266,1,0
48,232,37352,2,0,B|72:280|96:312,1,85,8|0
91,305,37863,2,0,B|192:312|264:304,2,170
91,305,38715,1,8
92,211,38886,5,2
152,139,39056,1,2
239,104,39227,2,0,B|285:94|359:106,1,85,0|8
397,159,39568,1,0
368,247,39738,1,0
299,298,39908,2,0,B|251:307|178:298,1,85,0|8
214,300,40249,2,0,B|177:208|39:237,1,170
73,231,40676,1,0
73,231,40761,1,8
96,144,40931,5,2
176,96,41102,1,0
264,72,41272,1,2
352,112,41443,1,8
432,168,41613,2,0,B|464:240|480:336,1,170,2|0
224,304,42295,2,0,B|200:216|200:128,1,170
336,352,42977,1,2
336,352,43318,2,0,B|504:352,1,170
368,256,43829,2,0,B|200:256,1,170,2|8
198,256,44511,6,0,B|135:200|191:134,1,127.499996200204,4|0
253,134,45022,1,0
323,129,45193,2,0,B|373:63|307:9,1,127.499996200204,2|0
244,24,45704,1,2
178,48,45874,1,0
118,84,46045,2,0,B|46:84,1,63.749998100102,2|0
152,248,46556,5,2
152,248,46897,1,0
152,248,47238,2,0,B|232:288|296:232,1,127.499996200204,2|0
304,184,47749,1,0
264,128,47920,2,0,B|320:88|400:144,1,127.499996200204,2|0
416,200,48431,1,2
368,280,48602,1,0
280,304,48772,2,0,B|216:328|176:312,1,85,2|0
136,248,49113,2,0,B|112:200|104:144,1,85
152,80,49454,1,0
240,48,49624,5,2
328,72,49795,1,0
384,144,49965,2,0,B|408:248|400:312,1,170,4|8
399,312,50477,1,0
120,312,50988,1,8
120,312,51329,2,0,B|104:208|120:136,1,170,0|8
118,142,51840,1,0
118,142,52352,1,8
118,142,52693,5,2
192,88,52863,1,0
288,88,53033,2,0,B|344:120|360:152,1,85,2|0
368,248,53374,1,2
296,336,53545,1,0
168,344,53715,1,2
72,256,53886,1,0
128,144,54056,1,2
128,144,54227,1,0
128,144,54397,1,2
128,144,54738,5,0
128,144,55079,1,0
128,144,55420,6,0,B|216:80|312:176,2,170,4|8|0
192,208,56272,1,2
272,264,56443,1,8
344,320,56613,2,0,B|264:376|168:320,2,170,0|2|0
344,320,57465,5,0
376,64,57806,1,8
344,320,58147,2,0,B|376:224|368:144,2,170,0|8|0
136,168,59170,1,8
136,168,59340,2,0,B|128:264|160:336,1,170,0|2
256,320,59852,1,8
352,328,60022,1,2
448,320,60193,5,0
440,64,60533,1,8
448,320,60874,2,0,B|456:200|440:136,1,170,0|8
352,152,61386,1,2
296,224,61556,1,0
216,280,61727,1,2
128,312,61897,1,8
32,320,62068,2,0,B|24:208|32:136,1,170,2|0
104,96,62579,6,0,B|176:80|240:96,1,127.5,8|0
230,93,62920,1,0
408,272,63261,1,8
408,272,63602,1,0
312,280,63772,1,2
224,240,63943,2,0,B|200:200|192:152,1,85,8|2
216,72,64283,2,0,B|296:48|384:72,1,170,0|8
383,71,64795,1,0
400,328,65136,5,0
304,312,65306,1,2
224,256,65477,1,2
160,192,65647,2,0,B|128:224,7,42.5,2|0|2|0|2|0|2|0
160,192,66329,6,0,B|104:120|160:32,2,170,4|8|0
240,144,67181,1,2
320,96,67352,1,8
400,48,67522,2,0,B|464:128|392:224,2,170,2|0|0
320,96,68374,2,0,B|272:112|216:88,1,85,0|2
152,64,68715,1,8
72,112,68886,1,2
72,208,69056,2,0,B|104:288|192:344,2,170,0|8|0
408,128,70079,5,8
408,128,70249,2,0,B|360:56|240:32,1,170
224,120,70761,1,8
264,208,70931,1,2
224,296,71102,2,0,B|320:344|400:288,1,170,0|8
384,160,71613,2,0,B|304:104|208:160,1,170,0|2
223,151,72124,1,8
224,152,72806,5,8
224,152,73147,2,0,B|88:288,1,170,0|8
346,190,73829,2,0,B|402:118|458:54,1,170,0|8
454,59,74340,1,2
248,330,74681,1,0
248,330,74852,2,0,B|336:338|432:330,1,170,8|0
418,332,75363,1,2
216,56,75704,2,0,B|112:48|40:56,3,170,0|2|2|2
47,56,77238,5,4
96,168,87465,6,0,B|48:200,7,42.5,0|0|2|0|0|0|2|0
96,168,88147,6,0,B|120:64|248:96,1,170,4|8
248,216,88659,2,0,B|296:208|352:224,1,85,2|0
248,312,88999,2,0,B|200:320|128:304,1,85,2|8
163,310,89681,2,0,B|67:302|19:222|27:126,1,255
27,128,90534,1,8
272,56,90874,2,0,B|440:32|448:208,2,255,0|0|8
272,56,92409,2,0,B|176:64|88:56,1,170,0|2
102,57,92920,1,0
102,57,93261,1,8
216,288,93602,6,0,B|104:288|96:168,2,170,0|8|2
232,192,94454,1,2
240,96,94624,2,0,B|352:88|352:208,1,170,8|0
288,264,95136,1,2
200,296,95306,2,0,B|144:264|120:216,1,85,8|2
80,168,95647,2,0,B|80:112,2,42.5,0|0|2
160,120,95988,2,0,B|192:88,2,42.5,8|0|2
288,112,96329,6,0,B|400:280,1,170,0|8
288,256,96840,1,2
195,272,97011,1,0
103,256,97181,1,2
10,270,97352,2,0,B|81:97,1,170,8|0
202,115,97863,6,0,B|241:98,5,42.5,0|0|8|0|2|0
269,90,98374,1,0
293,81,98460,1,0
321,88,98545,1,2
342,108,98630,1,0
367,122,98715,1,8
396,117,98801,1,0
421,101,98886,1,2
449,93,98971,1,0
476,80,99056,6,0,B|484:187|481:283,1,170,4|8
481,249,99568,1,2
141,249,99909,2,0,B|135:157|144:76,1,170,0|2
143,79,100590,1,0
474,156,100931,1,2
184,333,101272,1,0
184,333,101784,6,0,B|85:319|64:209,1,170,0|8
172,151,102295,2,0,B|288:143|300:268,1,170,0|2
295,240,102977,2,0,B|471:239,1,170,0|0
236,126,103659,2,0,B|55:128,1,170,0|2
294,240,104340,5,0
294,240,104511,2,0,B|111:239,1,170,0|8
60,170,105022,1,2
85,79,105193,2,0,B|138:73|174:49,1,85,0|2
259,51,105534,1,8
259,51,105704,5,0
471,191,106045,1,0
260,335,106386,1,2
48,191,106727,1,0
257,190,107068,1,0
256,192,107238,12,0,109624
72,288,109795,5,0
72,288,109965,2,0,B|152:296|200:288,1,127.5,6|0
205,274,110306,2,0,B|182:172|277:120,1,170,10|0
358,120,110818,1,0
439,164,110988,1,8
426,257,111159,1,0
426,257,111499,2,0,B|338:277|250:261,1,170
174,218,112011,1,2
147,204,112096,1,0
127,181,112181,2,0,B|152:118|178:87,1,85,0|8
258,96,112522,1,0
328,157,112693,6,0,B|379:202|412:264,1,127.5,2|0
398,273,113034,2,0,B|388:372|267:351,1,170,10|0
181,309,113545,1,2
158,289,113630,1,0
137,267,113715,2,0,B|144:207|170:165,1,85,8|0
159,185,114227,2,0,B|334:185,1,170
399,247,114738,1,0
350,327,114909,1,0
257,338,115079,1,8
163,327,115249,1,0
108,251,115420,6,0,B|74:190|68:138,1,85,0|2
118,90,115761,1,8
205,58,115931,1,2
298,66,116102,2,0,B|398:64|441:69,1,127.5
425,67,116443,1,8
369,181,116613,2,0,B|281:187|216:180,1,127.5,0|0
241,182,116954,1,0
241,182,117295,6,0,B|231:246|201:276,1,85
121,281,117636,2,0,B|57:306,1,42.5,2|0
73,202,117891,2,0,B|33:139,1,42.5,2|0
64,74,118147,2,0,B|137:55|246:70,1,170,0|8
310,122,118659,1,2
226,163,118829,1,0
155,225,118999,1,2
189,311,119170,1,8
276,344,119340,2,0,B|379:350|455:343,1,170
439,249,119852,5,8
395,166,120022,1,0
323,105,120193,2,0,B|226:104,1,85,0|2
194,224,120534,2,0,B|296:223,1,85,8|2
278,223,120874,6,0,B|252:328|375:354,1,170,6|10
357,349,121386,1,0
432,294,121556,1,0
438,200,121727,1,2
425,173,121812,1,0
404,151,121897,2,0,B|332:123|315:94,1,85,8|0
329,110,122409,5,0
240,80,122579,1,8
152,112,122749,1,0
80,168,122920,1,0
40,256,123090,2,0,B|32:304|40:352,2,85,0|8|0
80,168,123602,6,0,B|72:72|200:40,1,170,2|10
272,128,124113,2,0,B|272:224|160:240,1,170
80,208,124624,1,8
64,182,124710,1,0
71,153,124795,2,0,B|106:123|129:72,1,85
216,80,125136,2,0,B|296:96|328:128,2,85,0|8|0
216,80,125647,5,0
216,80,125818,1,2
216,80,126159,2,0,B|112:72|24:136|24:232,1,255,2|8
296,328,127011,1,0
296,328,127181,1,2
296,328,127522,2,0,B|421:328|472:198,1,212.5
463,218,128034,1,8
410,141,128204,1,2
319,115,128374,2,0,B|302:172|278:193,1,85,0|2
192,218,128715,2,0,B|146:228|68:214,1,85,8|2
107,219,129056,5,2
116,126,129227,1,2
208,65,129397,1,2
317,50,129568,1,2
416,128,129738,1,2
438,253,129909,1,2
438,253,130079,1,2
438,253,130249,2,0,B|347:262|257:253,1,170
197,147,130761,1,2
197,147,130931,2,0,B|292:138|374:150,1,170
366,148,131613,1,0
366,148,131954,1,0
256,192,132124,12,4,134511
85,92,135874,6,0,B|125:116,1,42.5,2|2
422,311,137238,5,4
422,311,138090,1,0
404,218,138261,1,0
310,223,138431,1,0
324,315,138602,2,0,B|229:328|146:320,1,170,4|0
102,242,139113,2,0,B|97:187|106:137,1,85
217,101,139454,2,0,B|227:152|214:203,1,85
217,185,139795,2,0,B|309:179|377:230|402:332,1,255
401,328,140988,1,0
118,72,141329,5,2
118,72,141499,1,2
118,72,141670,1,4
257,196,142011,5,0
257,196,142352,1,2
257,196,142693,2,0,B|179:100|284:18,2,170
443,208,143715,1,0
443,208,143886,2,0,B|508:288|447:366,1,170
449,363,144397,1,0
257,195,144738,5,0
257,195,145079,1,0
257,195,145420,2,0,B|197:283|74:268,2,170
104,86,146443,1,0
104,87,146613,2,0,B|166:20|293:40,1,170
260,36,147124,1,0
261,290,147465,1,0
261,290,147636,1,0
261,290,147806,5,2
261,290,148147,2,0,B|70:291,2,170
300,106,149170,1,0
300,106,149340,2,0,B|490:104,1,170
469,104,149852,1,0
366,337,150193,1,0
260,104,150534,1,0
158,337,150874,2,0,B|163:289|145:232,1,85
150,252,151215,2,0,B|35:284|20:158,2,170,0|0|2
237,215,152068,1,2
313,161,152238,1,0
391,108,152409,6,0,B|472:91,4,42.5,0|0|0|0|2
361,104,152835,1,0
333,93,152920,1,0
307,77,153005,1,0
277,72,153090,1,2
249,84,153176,1,0
224,100,153261,1,0
207,124,153346,1,0
183,142,153431,1,2
152,142,153516,1,0
122,138,153602,6,0,B|61:235|136:323,2,170,4|8|0
205,180,154454,1,2
275,242,154624,1,8
347,289,154795,2,0,B|404:210|332:122,2,170,0|2|0
351,295,155647,5,0
351,295,155988,1,8
351,295,156329,2,0,B|272:352|192:288,1,170,0|8
196,160,156840,2,0,B|270:97|370:175,1,170
288,218,157352,1,8
222,271,157522,1,2
152,320,157693,2,0,B|72:168,2,170,0|8|0
234,297,158545,1,2
315,320,158715,1,8
399,312,158886,2,0,B|475:151,1,170,0|2
471,158,159397,1,8
40,156,160079,5,8
40,156,160420,2,0,B|100:59|207:41,1,170,0|8
459,228,161102,2,0,B|418:315|297:347,1,170,0|8
333,335,161613,1,0
43,229,161954,1,0
43,229,162124,2,0,B|95:324|194:342,1,170,8|0
169,336,162636,1,0
441,132,162977,5,0
101,110,163318,1,0
355,335,163659,1,0
355,335,163829,1,0
355,335,164170,1,0
355,335,164511,6,0,B|420:242|313:159,2,170,4|8|0
272,290,165363,1,2
199,230,165534,1,8
118,182,165704,2,0,B|32:250|122:350,2,170,0|2|0
118,182,166556,5,0
335,49,166897,1,8
118,182,167238,2,0,B|211:114|283:77,2,170,0|8|0
203,220,168090,1,2
295,233,168261,1,8
386,250,168431,2,0,B|331:314|225:347,2,170,0|2|2
386,250,169284,5,0
209,65,169624,1,8
386,250,169965,2,0,B|328:167|247:105,2,170,0|8|0
293,269,170818,1,2
202,247,170988,1,8
114,211,171159,2,0,B|62:155|31:48,1,170,0|2
35,61,171670,1,8
288,40,172011,1,0
330,291,172352,1,8
76,317,172693,6,0,B|-6:228|103:129,1,191.249994300306,4|0
76,317,173374,2,0,B|163:391|262:307,1,191.249994300306,4|0
247,221,174056,2,0,B|155:150|58:234,1,191.249994300306,4|0
250,316,174738,2,0,B|339:369|445:301,1,191.249994300306,4|0
431,309,175590,1,0
431,309,175761,1,4
127,77,176443,5,0
127,77,176784,2,0,B|207:5|308:89,1,191.249994300306
301,177,177465,2,0,B|215:252|123:177,1,191.249994300306,0|4
127,180,178318,1,0
127,180,178488,1,4
127,180,179170,5,0
127,180,179511,2,0,B|142:296|274:285,1,191.249994300306
320,192,180193,2,0,B|289:114|208:108,1,127.499996200204,0|2
228,110,180704,1,2
388,310,181045,1,2
388,310,181215,2,0,B|406:198|392:98,1,191.249994300306
301,112,181897,5,0
207,116,182068,1,0
118,182,182238,1,0
125,292,182408,1,0
125,292,182749,2,0,B|208:312|329:284,1,170
293,291,183261,1,0
293,291,183431,1,0
256,192,183516,12,2,184454
255,190,184624,5,2
255,190,184795,1,4
