osu file format v9

[General]
AudioFilename: Shinkaron -code variant-.mp3
AudioLeadIn: 1500
PreviewTime: 60323
Countdown: 0
SampleSet: Soft
StackLeniency: 0.4
Mode: 0
LetterboxInBreaks: 1

[Editor]
DistanceSpacing: 1.2
BeatDivisor: 4
GridSize: 8

[Metadata]
Title:Shinkaron -code:variant-
Artist:Megpoid GUMI
Creator:NatsumeRin
Version:Dis
Source:Tambourine-P
Tags:ORYO OHAGI vocaloid vocaloid2 Kiiwa kanpakyin

[Difficulty]
HPDrainRate:6
CircleSize:4
OverallDifficulty:7
ApproachRate:8
SliderMultiplier:1.4
SliderTickRate:1

[Events]
//Background and Video events
0,0,"BG.jpg"
Video,0,"Shinkaron.flv"
//Break Periods
2,6446,25189
2,47062,49496
2,80292,89189
//Storyboard Layer 0 (Background)
//Storyboard Layer 1 (Fail)
//Storyboard Layer 2 (Pass)
//Storyboard Layer 3 (Foreground)
//Storyboard Sound Samples
//Background Colour Transformations
3,100,163,162,255

[TimingPoints]
93,307.692307692308,4,1,1,70,1,0
1631,-100,4,1,1,80,0,0
1785,-100,4,1,1,70,0,0
2246,-100,4,1,1,65,0,0
2400,-100,4,1,1,70,0,0
2862,-100,4,1,1,80,0,0
3016,-100,4,1,1,70,0,0
3477,-100,4,1,1,65,0,0
3631,-100,4,1,1,70,0,0
4093,-100,4,1,1,80,0,0
4246,-100,4,1,1,70,0,0
4708,-100,4,1,1,75,0,0
4862,-100,4,1,1,70,0,0
5016,-100,4,1,1,90,0,0
5169,-100,4,1,1,70,0,0
5323,-100,4,1,1,90,0,0
5477,-100,4,1,1,70,0,0
5631,-100,4,1,1,90,0,0
5785,-100,4,1,1,70,0,0
5939,-100,4,1,1,80,0,0
6246,-200,4,1,1,70,0,0
25939,-100,4,2,1,85,0,0
34708,-100,4,1,1,65,0,0
35785,-100,4,2,1,80,0,0
36093,-100,4,1,1,55,0,0
36246,-100,4,2,1,85,0,0
45016,-100,4,1,2,50,0,0
50246,-133.333333333333,4,2,1,70,0,0
54862,-100,4,1,1,60,0,0
55477,-100,4,1,2,50,0,0
57939,-100,4,1,2,65,0,0
60400,-100,4,2,1,100,0,1
80093,-100,4,2,1,90,0,0
92093,-100,4,1,1,50,0,0
94862,-100,4,2,1,90,0,0
113631,-100,4,1,1,40,0,0
114862,-133.333333333333,4,2,1,80,0,0
119477,-100,4,1,1,50,0,0
120708,-100,4,1,1,60,0,0
121939,-100,4,1,1,50,0,0
125016,307.692307692308,4,2,1,100,1,1
144708,-100,4,2,1,100,0,0
144862,-100,4,2,1,100,0,1
163785,-100,4,1,1,50,0,1
164400,-100,4,1,1,60,0,0
168246,-100,4,2,1,90,0,0
169323,-100,4,1,1,60,0,0
173169,-100,4,2,1,90,0,0
174246,-100,4,1,1,60,0,0
178093,-100,4,2,1,90,0,0
179169,-100,4,1,1,60,0,0
183016,-100,4,2,1,90,0,0
183785,-133.333333333333,4,1,1,60,0,0
184093,-133.333333333333,4,2,1,5,0,0

[Colours]
Combo1 : 202,121,0
Combo2 : 3,167,3
Combo3 : 4,4,176
Combo4 : 179,4,4

[HitObjects]
296,328,1169,1,0
312,320,1246,1,0
328,312,1323,1,0
328,232,1477,6,0,B|408:192,1,70,0|8
384,120,1785,2,0,B|472:80,1,70
296,96,2246,6,0,B|232:72,1,70,8|0
192,56,2477,1,0
152,40,2554,1,0
200,144,2708,6,0,B|136:120,1,70,0|8
104,192,3016,2,0,B|40:168,1,70,0|0
104,304,3477,5,8
176,288,3631,1,0
208,304,3708,1,0
240,320,3785,2,0,B|312:360,1,70
352,296,4093,2,0,B|432:336,1,70,8|0
472,272,4400,6,0,B|424:248|424:248|408:152,1,140,0|8
304,136,4862,1,0
304,136,4939,1,0
304,136,5016,2,0,B|320:224,1,70,8|0
136,256,5323,5,8
208,176,5477,2,0,B|195:107,1,70,0|8
195,107,5708,1,0
195,107,5785,1,0
240,40,5939,6,0,B|304:64|392:32,1,140,8|4
304,80,25939,6,0,B|335:55|335:55|394:55|414:128,1,140,4|8
344,160,26400,1,2
256,160,26554,6,0,B|224:135|224:135|165:135|145:208,1,140,2|8
216,240,27015,1,2
376,320,27323,1,2
456,280,27477,6,0,B|496:192,1,70,8|2
312,240,27785,2,0,B|272:328,1,70,2|2
200,336,28093,5,8
48,320,28246,1,8
128,280,28400,6,0,B|89:289|89:289|35:266|44:192,1,140,2|8
122,190,28861,1,2
203,225,29015,6,0,B|222:259|222:259|276:282|324:223,1,140,2|8
271,167,29476,1,2
155,30,29784,1,2
66,36,29938,6,0,B|-5:101,1,70,8|2
183,129,30246,2,0,B|254:63,1,70,2|2
323,84,30554,5,8
456,128,30707,1,8
384,176,30862,6,0,B|360:240|392:328,1,140,4|8
432,376,31323,1,2
352,352,31477,2,0,B|272:336|200:352,1,140,2|8
128,368,31939,5,2
40,224,32246,2,0,B|96:160,1,70,2|8
248,216,32554,6,0,B|192:280,1,70,2|2
168,176,32862,2,0,B|184:96,2,70,2|8|8
256,104,33323,5,4
312,168,33477,2,2,B|376:216|456:184,1,140,10|2
496,128,33939,2,0,B|416:168|448:272,1,140,10|8
488,296,34400,2,2,B|456:224|376:232,1,140,2|0
304,256,34862,5,8
224,288,35016,1,8
144,304,35169,1,8
64,296,35323,1,8
144,304,35477,2,0,B|224:320|248:232,1,140,0|4
104,128,36093,5,8
24,112,36246,1,2
104,144,36400,2,0,B|160:160|160:160|248:104,1,140,2|8
228,116,36862,1,2
392,168,37169,2,0,B|336:216,1,70,2|8
208,232,37477,6,0,B|261:186,1,70,2|2
456,288,37785,2,0,B|387:272,1,70,2|8
312,312,38093,5,8
232,344,38246,2,0,B|160:320|64:344,1,140,2|8
8,360,38708,1,2
80,312,38862,2,0,B|152:280|176:208,1,140,2|8
192,128,39323,5,2
208,216,39477,2,0,B|200:296|264:344,1,140,2|8
320,280,39939,2,0,B|392:272,1,70,2|2
320,200,40246,5,2
400,192,40400,2,0,B|488:200,1,70,8|8
472,80,40708,6,0,B|392:64|336:128,1,140,4|8
320,200,41169,1,2
248,240,41323,2,0,B|184:280|112:248,1,140,2|8
114,248,41785,1,2
40,96,42093,6,0,B|112:112,1,70,2|8
256,96,42400,2,2,B|184:128,1,70
112,152,42708,5,2
192,144,42862,1,8
264,184,43016,1,2
288,264,43169,6,0,B|352:312|440:280,1,140,4|8
472,128,43785,2,0,B|408:80|320:112,1,140,2|8
256,96,44246,2,2,B|176:56,2,70
192,152,44708,2,0,B|104:176,2,70,8|2|0
272,176,45169,5,8
288,180,45246,1,8
306,185,45323,1,8
322,190,45400,1,8
340,196,45477,1,8
256,192,45631,12,4,46862
256,96,50246,5,4
368,184,50554,2,0,B|416:224|488:216,1,104.999996870756,2|2
288,176,51016,5,0
320,256,51169,2,2,B|336:312,1,52.4999984353781
256,360,51477,2,2,B|232:296,1,52.4999984353781,8|2
160,272,51785,6,0,B|88:264|48:288,1,104.999996870756,0|2
48,152,52246,2,0,B|112:184,2,52.4999984353781,0|2|2
160,144,52708,2,0,B|224:168|272:160,1,104.999996870756,8|0
448,320,53323,6,0,B|384:296|336:304,1,104.999996870756,2|0
272,320,53785,1,0
216,264,53939,2,0,B|184:312,1,52.4999984353781,8|2
40,320,54246,5,2
48,304,54323,1,0
56,288,54400,1,2
120,240,54554,2,0,B|96:184,1,52.4999984353781,2|0
160,128,54862,2,8,B|136:72,2,35
240,136,55169,6,0,B|304:168|384:152,1,140,0|8
456,112,55631,1,0
400,176,55785,2,0,B|344:232|360:320,1,140,8|0
400,376,56246,1,0
328,328,56400,2,0,B|264:296|176:320,1,140,8|0
112,344,56862,5,0
128,264,57016,2,0,B|184:208,1,70,8|0
328,136,57323,2,0,B|368:216,1,70
304,272,57631,5,8
256,192,57785,1,0
200,128,57939,5,12
120,152,58093,1,12
256,224,58400,5,12
352,216,58554,1,12
256,256,58862,5,12
188,345,59016,2,0,B|268:381|344:335,1,140,0|8
384,288,59477,6,8,B|464:304,1,70
464,184,59785,2,0,B|304:152,1,140,0|8
168,104,60400,5,4
96,144,60554,2,0,B|56:184|56:184|72:280,1,140,8|2
144,304,61016,1,2
224,288,61169,2,0,B|320:272|392:304,1,140,8|2
432,336,61631,5,0
432,248,61785,2,0,B|472:208|472:208|456:112,1,140,8|2
280,64,62246,6,0,B|296:144,1,70,10|0
384,168,62554,2,0,B|368:88,1,70,10|2
248,200,62862,5,4
208,128,63016,2,0,B|172:110|172:110|118:128|122:193,1,140,8|2
288,272,63477,5,2
288,272,63631,2,0,B|323:289|323:289|377:271|373:206,1,140,8|2
328,144,64093,1,2
208,240,64246,6,0,B|176:265|176:265|171:321|231:344,1,140,8|2
312,352,64708,2,0,B|400:328|464:352,1,140,2|8
320,240,65169,5,0
320,240,65323,2,0,B|360:264|408:256,2,70,4|2|8
200,120,65939,2,0,B|112:96|48:144,1,140,2|8
40,216,66400,6,0,B|72:296,1,70,2|4
216,312,66708,2,0,B|184:240,1,70,2|8
232,184,67016,5,2
296,136,67169,1,0
384,112,67323,1,2
480,112,67477,1,8
440,272,67785,5,4
448,336,67939,1,8
336,232,68246,5,12
312,320,68399,1,8
232,184,68708,5,12
168,280,68862,1,8
144,112,69169,6,8,B|96:136,2,35
192,40,69477,1,2
280,56,69631,1,0
288,144,69785,1,2
208,176,69939,1,8
360,96,70246,5,4
360,184,70400,2,0,B|408:208|408:208|432:312,1,140,8|2
264,352,70862,5,2
184,320,71016,2,0,B|136:296|136:296|112:192,1,140,8|2
280,216,71477,5,2
280,136,71631,2,0,B|260:51|260:51|212:27,1,140,8|2
88,80,72093,6,0,B|112:168,1,70,8|2
200,168,72400,2,0,B|181:100,1,70,8|2
48,200,72708,5,4
104,264,72862,2,0,B|192:232|240:320,1,140,8|2
152,336,73323,1,2
336,232,73477,6,0,B|248:200|200:288,1,140,8|2
288,304,73939,1,2
368,312,74093,2,0,B|416:280|416:280|448:184,1,140,8|2
304,80,74554,6,0,B|280:160,1,70,8|2
336,232,74862,2,0,B|356:164,1,70,8|2
424,120,75169,1,4
216,72,75477,6,0,B|128:56|88:128,1,140,8|2
296,312,76093,2,0,B|384:328|424:256,1,140,8|2
418,265,76554,1,2
256,240,76862,5,8
256,200,76939,1,8
256,160,77016,1,8
312,96,77169,1,2
232,80,77323,5,8
336,176,77477,1,8
392,112,77631,6,0,B|416:88|472:88,1,70,12|8
152,176,78093,6,0,B|128:152|72:152,1,70,12|8
256,248,78554,5,12
256,248,78708,2,0,B|256:272|256:272|264:280|264:280|248:280|248:280|256:288|256:288|256:384,1,140,10|2
336,336,79169,5,8
176,336,79323,1,8
312,256,79477,1,8
200,256,79631,1,8
256,192,79785,6,0,B|272:144|224:72|256:32,1,140,8|4
112,232,89939,6,0,B|136:312|248:304,1,140,4|8
400,152,90554,2,0,B|376:72|264:80,1,140,2|8
256,152,91016,5,0
328,192,91169,2,0,B|384:256,2,70,2|0|8
256,232,91631,2,0,B|280:328,2,70,0|2|0
176,208,92093,6,0,B|168:264,1,35
80,160,92400,1,0
96,80,92554,1,8
152,136,92708,1,8
224,168,92862,2,8,B|232:216,1,35,8|8
304,160,93093,6,0,B|296:112,1,35,8|0
360,80,93323,1,8
440,80,93477,1,8
472,152,93631,6,0,B|424:192,1,35
360,192,93862,2,0,B|416:224,1,35
464,256,94093,2,0,B|408:272,1,35
360,304,94323,2,0,B|312:320|256:312,1,105,0|4
96,264,94862,6,0,B|72:344,1,70,4|2
88,192,95169,2,0,B|48:248,1,70,8|2
104,120,95477,2,0,B|40:168,2,70,0|2|8
176,72,95939,6,0,B|240:40|328:72,1,140,10|2
408,160,96400,1,8
392,32,96554,1,2
328,144,96708,1,0
456,88,96862,1,8
456,88,96939,1,8
456,88,97016,6,0,B|496:112|488:160,1,70,8|2
441,217,97323,2,0,B|401:193|409:145,1,70,4|2
344,216,97631,6,0,B|355:261|315:289,1,70,8|2
160,240,97938,2,0,B|148:194|188:166,1,70,0|2
264,176,98246,2,0,B|288:64,2,105,8|2|8
256,216,98785,1,8
248,256,98862,1,8
192,320,99016,5,2
112,344,99169,1,0
192,320,99323,1,2
280,336,99477,2,0,B|368:352,1,70,8|10
432,320,99785,5,4
432,320,99939,1,2
316,244,100093,2,0,B|228:260,1,70,8|2
176,208,100400,1,0
160,128,100554,6,0,B|64:112,2,70,2|8|10
240,128,101016,2,0,B|320:104|400:128,1,140,4|8
456,160,101477,5,2
448,80,101631,1,2
456,160,101785,1,0
432,240,101939,2,0,B|472:328,1,70,8|10
384,312,102246,6,0,B|296:336|264:256,1,140,4|8
344,240,102708,2,0,B|344:328|232:344,1,140,10|10
216,272,103169,2,0,B|128:248|96:328,1,140,8|12
176,336,103631,2,0,B|176:248|64:232,1,140,10|8
16,256,104093,6,0,B|104:272|160:184,1,140,4|8
152,136,104554,1,10
216,96,104708,6,0,B|304:120,1,70,4|2
448,144,105016,2,0,B|360:160,1,70,8|2
336,224,105323,2,0,B|248:200,2,70,0|2|8
360,296,105785,1,10
280,288,105939,6,0,B|192:296,1,70,4|2
176,280,106169,1,2
136,264,106246,2,2,B|48:272,1,70,8|0
112,112,106554,6,0,B|208:104,1,70,0|2
176,184,106862,2,8,B|96:192,1,70,8|10
160,48,107169,5,4
232,88,107323,1,2
312,104,107477,1,8
392,88,107631,1,2
368,168,107785,5,0
312,232,107939,1,2
240,272,108093,1,8
160,280,108246,1,10
168,192,108400,5,4
240,232,108554,1,2
320,256,108708,1,8
400,264,108862,2,2,B|448:240|448:240|472:144,1,140
468,156,109477,1,2
400,72,109631,6,0,B|384:144,1,70,4|2
296,176,109939,2,0,B|312:96,1,70,8|2
248,32,110246,2,0,B|232:104,1,70,0|2
144,136,110554,2,0,B|160:56,1,70,8|10
56,192,110862,6,0,B|72:264,1,70,4|2
160,296,111170,2,0,B|144:216,1,70,8|2
208,152,111477,2,0,B|224:224,1,70,0|2
312,256,111785,2,0,B|296:176,1,70,8|10
376,152,112093,5,4
448,120,112246,1,2
384,72,112400,1,8
384,72,112554,6,0,B|336:48|288:64,1,70,2|0
240,88,112862,2,0,B|200:112|152:112,1,70,2|8
104,72,113169,1,2
112,152,113323,2,0,B|136:208|112:248,1,70,4|2
224,304,113631,6,0,B|200:248|224:208,1,70,0|0
296,256,113939,2,8,B|328:272,2,35
272,176,114246,2,0,B|360:184|424:128,1,140,0|4
256,48,114862,6,0,B|200:96,1,52.4999984353781,2|2
144,80,115169,2,0,B|104:120,1,52.4999984353781,2|2
64,176,115477,2,0,B|120:144|184:168,1,104.999996870756,8|4
256,240,115939,5,2
328,248,116093,2,2,B|392:224,1,52.4999984353781
424,320,116400,2,2,B|368:344,1,52.4999984353781
304,328,116708,2,0,B|248:320|248:320|200:336,1,104.999996870756,8|4
144,288,117169,6,2,B|112:248,1,52.4999984353781
176,208,117477,2,2,B|184:152,2,52.4999984353781
256,128,117939,2,0,B|304:104|376:120,1,104.999996870756,8|4
424,152,118400,5,2
424,80,118554,1,2
488,112,118708,1,2
488,184,118862,1,2
424,224,119016,1,2
360,192,119169,1,8
168,240,119477,6,0,B|112:320,1,70,4|0
264,304,119785,2,0,B|312:240,1,70,8|0
232,128,120093,2,0,B|248:224,1,70,8|0
345,105,120401,2,8,B|333:25,1,70
256,8,120708,5,0
176,0,120862,1,0
96,8,121016,1,8
24,48,121169,1,0
24,48,121477,5,0
104,40,121631,1,8
184,56,121785,1,0
256,96,121939,1,0
288,176,122093,6,8,B|320:224|384:224,1,105,8|0
408,216,122400,1,0
496,176,122554,2,8,B|448:232|472:296,1,105,8|0
480,304,122862,1,8
376,312,123016,6,0,B|296:288|224:320,1,140
112,344,123477,1,8
224,288,123631,1,0
112,320,123785,1,0
152,248,123939,5,8
144,232,124016,1,8
136,216,124093,1,8
176,144,124246,1,0
176,144,124400,2,0,B|200:88|200:88|168:8,1,140
112,88,124862,5,0
256,152,125016,2,0,B|328:120|424:152,1,140,4|8
464,184,125477,1,2
408,120,125631,1,4
392,40,125785,2,0,B|456:40|488:80|488:80|488:120,1,140,8|2
384,200,126246,5,2
312,160,126400,2,0,B|248:165|219:208|219:208|223:248,1,140,8|2
304,248,126862,5,8
248,192,127016,1,2
176,168,127169,1,10
96,176,127323,1,2
144,240,127477,5,4
224,144,127631,2,0,B|264:120|264:120|280:16,1,140,8|2
192,64,128093,5,2
32,72,128246,2,0,B|1:107|1:107|18:211,1,140,8|2
64,264,128708,5,2
224,248,128862,2,0,B|255:283|255:283|238:387,1,140,8|2
152,376,129323,6,0,B|168:304,1,70,8|2
159,163,129631,2,0,B|144:232,1,70,8|2
240,168,129939,6,0,B|320:144|384:176,1,140,4|8
424,232,130400,1,2
408,160,130554,2,0,B|392:88|440:24,1,140,4|8
437,27,131016,1,2
256,48,131323,5,2
74,27,131631,1,2
256,64,131939,1,8
256,144,132093,1,8
256,224,132246,2,0,B|264:264|264:264|256:336|256:336|264:368,1,140,2|2
392,280,132862,5,12
464,304,133016,1,8
184,184,133323,5,12
104,192,133477,1,8
256,112,133785,6,8,B|208:128,2,35,10|8|8
448,184,134093,2,0,B|432:96,1,70,2|4
344,136,134400,2,0,B|336:208,1,70,2|8
256,328,134708,5,8
280,256,134862,1,4
200,272,135016,2,0,B|152:232|152:232|128:152,1,140,8|2
336,200,135477,5,2
408,240,135631,2,0,B|456:200|456:200|480:120,1,140,8|2
256,184,136093,5,2
184,144,136246,2,0,B|137:103|137:103|115:22,1,140,8|2
320,136,136708,2,0,B|304:64,1,70,8|2
256,184,137016,2,0,B|240:252,1,70,8|2
224,336,137323,5,4
168,288,137477,2,0,B|136:288|104:312|104:312|64:304|24:328,1,140,8|2
240,264,137939,5,2
296,216,138093,2,0,B|328:216|360:240|360:240|400:232|440:256,1,140,8|2
224,192,138554,5,2
168,144,138708,2,0,B|136:144|104:168|104:168|64:160|24:184,1,140,8|2
80,240,139169,6,0,B|96:312,1,70,8|2
168,288,139477,2,0,B|184:360,1,70,8|2
256,344,139785,2,0,B|344:312|416:360,1,140,4|8
208,88,140400,2,0,B|120:120|48:72,1,140,2|8
71,85,140862,1,2
256,144,141169,5,2
336,272,141477,1,10
176,272,141785,1,2
256,296,141939,5,8
256,296,142093,1,8
280,224,142246,5,12
352,192,142400,1,8
232,184,142708,5,12
152,152,142862,1,8
288,120,143169,5,12
384,96,143323,1,8
256,296,143631,6,0,B|256:376,2,70,2|8|2
320,246,144093,2,0,B|320:176,1,70,4|2
200,130,144400,2,0,B|200:200,1,70,8|8
144,256,144708,5,4
120,176,144862,2,0,B|80:192|80:192|64:232|64:232|56:264|80:304,1,140,8|2
200,200,145323,5,2
232,120,145477,2,0,B|272:136|272:136|288:176|288:176|296:208|272:248,1,140,8|2
216,280,145939,5,2
184,360,146093,2,0,B|159:355|142:327|142:327|125:287|125:287|142:247,1,140,8|2
344,320,146554,6,0,B|264:352,1,70,8|2
304,248,146862,2,0,B|368:222,1,70,8|2
432,272,147169,5,4
440,192,147323,2,0,B|472:160|456:112|456:112|408:80,1,140,8|2
368,152,147785,5,2
208,152,147939,2,0,B|176:120|192:72|192:72|240:40,1,140,8|2
288,112,148400,5,2
288,200,148554,2,0,B|333:230|333:230|349:278|317:310,1,140,8|2
144,320,149016,6,0,B|176:248,1,70,4|2
248,280,149323,2,8,B|224:336,2,35,10|8|8
112,208,149631,6,0,B|72:184|72:184|48:80,1,140,4|8
128,56,150093,2,0,B|144:128,1,70,2|2
304,168,150400,1,2
304,168,150554,2,8,B|288:72,1,70
200,240,150862,5,2
200,240,151016,2,2,B|224:384,2,140,0|10|2
208,160,151785,1,8
256,96,151939,1,8
256,8,152093,5,12
384,120,152246,1,8
256,24,152554,5,12
152,88,152708,1,8
256,40,153016,5,4
288,112,153169,2,0,B|312:176|288:264,1,140,8|8
256,272,153554,1,8
256,232,153631,2,0,B|312:200|368:224,1,105,8|8
392,240,153939,2,0,B|424:288|488:296,1,105,12|8
456,328,154246,2,8,B|400:352,2,35
456,192,154554,5,4
384,152,154708,2,0,B|336:168|336:168|296:272,1,140,8|2
184,192,155169,5,2
184,192,155323,2,0,B|232:176|232:176|272:72,1,140,8|2
176,104,155785,5,2
112,232,155939,2,0,B|82:273|82:273|111:380,1,140,8|2
296,360,156400,6,0,B|272:280,1,70,8|2
200,344,156708,2,0,B|176:264,1,70,8|2
256,240,157016,1,4
336,264,157169,6,0,B|384:296|424:280|424:280|464:224,1,140,8|2
384,192,157631,1,2
307,182,157785,6,0,B|259:214|219:198|219:198|192:160,1,140,8|2
256,112,158246,1,2
184,72,158400,6,0,B|145:45|145:45|102:45|68:91,1,140,8|2
141,212,158862,2,0,B|128:144,1,70,8|2
51,251,159169,2,0,B|64:320,1,70,8|2
152,312,159477,6,0,B|224:288|304:320,1,140,4|8
360,360,159939,1,2
344,208,160093,2,0,B|368:280,1,70,2|2
472,312,160400,2,0,B|449:245,1,70,8|8
256,152,160862,5,10
62,245,161169,2,0,B|40:312,1,70,2|4
144,176,161477,2,0,B|176:256,1,70,2|8
304,336,161939,5,12
304,336,162093,1,8
440,72,162400,5,12
440,72,162554,1,8
136,104,162862,5,12
136,104,163016,1,8
80,168,163169,2,0,B|120:240,1,70,8|2
272,224,163477,2,8,B|232:152,1,70,8|10
208,280,163785,6,8,B|240:336,2,35
288,312,164093,1,8
328,320,164169,1,8
368,328,164246,1,8
408,320,164323,1,8
448,304,164400,1,8
376,152,164708,6,0,B|384:112|384:112|368:64|368:64|384:16,1,140,8|0
304,112,165169,2,0,B|272:192,1,70,2|8
200,192,165477,2,0,B|136:168|136:168|56:184,2,140,2|8|2
128,264,166246,6,0,B|208:296,1,70
264,248,166554,2,8,B|344:224,1,70
352,312,166862,2,0,B|400:296|400:296|432:192,1,140,0|8
360,160,167323,5,2
280,168,167477,2,0,B|232:152|232:152|192:184|144:152,1,140
184,80,167939,6,0,B|224:128|224:128|208:224,1,140,2|2
72,320,168400,2,0,B|32:272|32:272|48:176,1,140,8|4
136,152,168862,6,0,B|120:240,1,70,8|2
256,312,169169,2,0,B|272:232,1,70,8|4
464,64,169631,6,0,B|456:112|456:112|464:128|464:128|448:200,1,140,8|0
376,240,170093,1,2
312,184,170246,2,0,B|232:160,1,70,0|2
160,176,170554,1,0
224,120,170708,6,0,B|280:88|368:104,2,140,2|8|2
160,176,171477,2,8,B|120:200|64:192,1,70
16,160,171785,2,0,B|72:192|72:192|88:280,1,140,0|8
232,336,172246,5,2
232,336,172400,2,0,B|176:304|176:304|160:216,1,140,0|8
296,256,172862,2,0,B|312:216|296:176|296:176|312:112,2,140,2|8|2
224,216,173631,6,0,B|200:144,1,70,4|8
32,104,173939,2,0,B|56:176,1,70,2|8
112,232,174246,2,0,B|144:304|144:304|208:336,1,140,4|8
280,296,174708,1,2
280,296,174862,2,0,B|352:272,1,70,0|2
416,320,175169,5,8
368,192,175323,2,0,B|408:128|504:136,2,140,2|8|2
288,176,176093,2,0,B|256:152|208:160,1,70,0|2
144,176,176400,5,8
8,192,176554,1,8
80,232,176708,6,0,B|128:296|88:384,1,140,4|8
32,312,177169,1,2
168,248,177323,5,0
232,304,177477,2,0,B|320:328,1,70,2|8
304,240,177785,2,0,B|368:256|456:240,2,140,2|8|2
328,144,178554,6,0,B|328:48,1,70,4|8
184,24,178862,2,0,B|184:104,1,70,2|8
128,152,179169,6,0,B|80:200|80:200|96:272,1,140,4|8
192,304,179631,2,0,B|168:224,1,70,2|0
256,232,179939,2,0,B|232:160,1,70,2|8
272,304,180246,6,0,B|344:280|432:304,2,140,2|8|2
400,376,181016,1,0
360,304,181169,1,2
352,224,181323,1,8
368,144,181477,1,8
368,144,181631,6,0,B|312:176|312:176|216:168,1,140,4|8
152,192,182093,1,2
248,88,182246,2,0,B|168:80,1,70,0|2
104,120,182554,2,0,B|24:144,2,70,0|2|8
136,88,182939,1,8
168,56,183016,2,0,B|248:32,1,70,8|2
328,64,183323,5,2
296,144,183477,1,4
216,168,183631,1,2
256,232,183785,6,0,B|264:256|264:256|248:256|248:256|256:264|256:264|256:328,1,104.999996870756,12|0
