osu file format v10

[General]
AudioFilename: .mp3
AudioLeadIn: 2096
PreviewTime: 50458
Countdown: 1
SampleSet: Normal
StackLeniency: 0.7
Mode: 0
LetterboxInBreaks: 1

[Editor]
Bookmarks: 24952,74452,86452,123952,135952,147952,161452
DistanceSpacing: 0.8
BeatDivisor: 4
GridSize: 4

[Metadata]
Title:Sasha
TitleUnicode:
Artist:Megpoid GUMI
ArtistUnicode:
Creator:wantuole
Version:Sasha
Source:internet
Tags:
BeatmapID:178305
BeatmapSetID:58640

[Difficulty]
HPDrainRate:6
CircleSize:4
OverallDifficulty:7
ApproachRate:9
SliderMultiplier:1.6
SliderTickRate:1

[Events]
//Background and Video events
0,0,"bg.jpg"
//Break Periods
2,111964,123352
2,147402,160664
//Storyboard Layer 0 (Background)
//Storyboard Layer 1 (Fail)
//Storyboard Layer 2 (Pass)
//Storyboard Layer 3 (Foreground)
//Storyboard Sound Samples
//Background Colour Transformations
3,100,163,162,255

[TimingPoints]
952,375,4,1,1,50,1,0
9764,-100,4,1,1,50,0,0
50452,-100,4,1,1,50,0,1
52608,-66.6666666666667,4,1,1,50,0,1
53170,-100,4,1,1,50,0,1
55608,-66.6666666666667,4,1,1,50,0,1
56170,-100,4,1,1,50,0,1
62452,-100,4,1,1,50,0,0
73795,-100,4,2,0,50,0,0
85795,-100,4,1,1,50,0,0
99952,-100,4,1,1,50,0,1
102108,-66.6666666666667,4,1,1,50,0,1
102670,-100,4,1,1,50,0,1
105108,-66.6666666666667,4,1,1,50,0,1
105670,-100,4,1,1,50,0,1
111952,-100,4,1,1,50,0,0
123952,-200,4,1,1,50,0,0
161452,-100,4,1,1,50,0,1
172608,-133.333333333333,4,1,1,50,0,1
173358,-100,4,1,1,50,0,1
185452,-100,4,1,1,50,0,0
199608,-100,4,1,1,50,0,0

[Colours]
Combo1 : 242,194,4
Combo2 : 151,55,221
Combo3 : 253,39,34
Combo4 : 19,152,251

[HitObjects]
128,244,952,6,0,B|88:204|88:136|128:76,1,160,0|8,0:0|0:0,0:0:0
256,168,1514,1,8,0:0:0
384,139,1702,2,0,B|424:180|424:248|384:308,1,160,4|8,0:0|0:0,0:0:0
256,244,2264,1,8,0:0:0
384,140,2452,5,2,0:0:0
48,248,2827,1,8,0:0:0
256,136,3202,1,2,0:0:0
152,84,3389,1,8,0:0:0
148,192,3577,1,8,0:0:0
244,248,3764,1,8,0:0:0
336,320,3952,6,0,B|296:360|228:360|168:321,1,160,0|8,0:0|0:0,0:0:0
148,192,4514,1,8,0:0:0
203,64,4702,2,0,B|244:24|312:24|372:64,1,160,0|8,0:0|0:0,0:0:0
432,192,5264,1,8,0:0:0
260,352,5452,6,0,B|212:332|188:264,1,80,2|0,0:0|0:0,0:0:0
344,136,5827,2,0,B|352:188|313:244,1,80
100,192,6202,1,2,0:0:0
184,60,6389,1,8,0:0:0
99,192,6577,1,8,0:0:0
232,208,6764,1,0,0:0:0
184,60,6952,6,0,B|268:32|364:56,1,160,0|8,0:0|0:0,0:0:0
448,192,7514,1,8,0:0:0
336,185,7702,2,0,B|296:264|296:376,1,160,0|8,0:0|0:0,0:0:0
64,192,8264,1,8,0:0:0
154,294,8452,5,8,0:0:0
424,352,8827,1,8,0:0:0
357,91,9202,1,2,0:0:0
224,160,9389,1,8,0:0:0
344,248,9577,1,8,0:0:0
356,92,9764,1,8,0:0:0
224,161,9952,6,0,B|192:252|91:272,1,160,2|0,0:0|0:0,0:0:0
112,267,10514,1,8,0:0:0
256,32,10702,2,0,B|230:107|293:181,1,160,0|8,0:0|0:0,0:0:0
256,280,11264,1,8,0:0:0
256,56,11452,5,0,0:0:0
416,300,11827,1,0,0:0:0
164,192,12202,1,0,0:0:0
96,300,12389,1,2,0:0:0
256,280,12577,1,8,0:0:0
352,192,12764,1,0,0:0:0
352,192,12952,6,0,B|360:116|360:116|416:128|468:80,1,160,12|8,0:0|0:0,0:0:0
384,24,13514,1,0,0:0:0
256,96,13702,1,8,0:0:0
136,24,13889,1,0,0:0:0
136,24,14077,1,0,0:0:0
160,192,14264,1,0,0:0:0
160,192,14358,1,0,0:0:0
160,192,14452,6,0,B|152:268|152:268|96:256|44:304,1,160,0|8,0:0|0:0,0:0:0
128,360,15014,1,0,0:0:0
256,192,15202,1,0,0:0:0
256,288,15389,1,0,0:0:0
152,128,15577,1,8,0:0:0
368,136,15764,1,0,0:0:0
136,59,15952,5,0,0:0:0
136,59,16045,1,0,0:0:0
136,60,16139,1,0,0:0:0
180,232,16327,1,8,0:0:0
76,164,16514,1,0,0:0:0
376,59,16702,5,0,0:0:0
376,59,16795,1,0,0:0:0
376,60,16889,1,0,0:0:0
332,232,17077,1,12,0:0:0
436,164,17264,1,0,0:0:0
256,284,17452,5,2,0:0:0
256,284,17545,1,0,0:0:0
256,284,17639,1,0,0:0:0
256,124,17827,2,0,B|256:288,1,160,0|2,0:0|0:0,0:0:0
384,360,18389,1,8,0:0:0
384,360,18577,1,0,0:0:0
348,136,18764,1,0,0:0:0
348,136,18858,1,0,0:0:0
348,136,18952,6,0,B|356:60|356:60|440:8,1,160,2|0,0:0|0:0,0:0:0
440,168,19514,1,0,0:0:0
344,252,19702,1,8,0:0:0
144,116,19889,1,0,0:0:0
144,116,19983,1,0,0:0:0
144,116,20077,1,0,0:0:0
256,192,20264,1,0,0:0:0
160,224,20452,6,0,B|152:300|152:300|68:352,1,160,2|0,0:0|0:0,0:0:0
72,168,21014,1,0,0:0:0
256,192,21202,1,0,0:0:0
160,224,21389,1,0,0:0:0
260,56,21577,1,8,0:0:0
136,72,21764,1,0,0:0:0
136,72,21858,1,0,0:0:0
136,72,21952,6,0,B|104:127|125:186,1,80,6|8,0:0|0:0,0:0:0
376,312,22327,2,0,B|408:257|387:198,1,80,0|8,0:0|0:0,0:0:0
84,248,22702,2,0,B|188:216,1,80,0|8,0:0|0:0,0:0:0
420,149,23077,2,0,B|316:180,1,80,2|8,0:0|0:0,0:0:0
316,316,23452,5,0,0:0:0
472,228,23639,1,0,0:0:0
292,212,23827,1,0,0:0:0
424,328,24014,1,0,0:0:0
384,152,24202,1,4,0:0:0
320,152,24389,1,0,0:0:0
256,140,24577,1,0,0:0:0
192,152,24764,1,0,0:0:0
128,140,24952,6,6,B|88:180|88:248|128:308,1,160
256,232,25514,1,0,0:0:0
376,308,25702,2,0,B|416:268|416:200|376:140,1,160,8|0,0:0|0:0,0:0:0
256,40,26264,1,0,0:0:0
256,40,26452,5,2,0:0:0
32,172,26827,1,0,0:0:0
252,308,27202,1,2,0:0:0
235,215,27389,1,8,0:0:0
318,167,27577,1,8,0:0:0
397,224,27764,1,8,0:0:0
312,76,27952,6,8,B|272:36|204:36|144:75,1,160
56,184,28514,1,8,0:0:0
136,336,28702,2,0,B|193:335|241:287|255:216,1,160
404,336,29264,1,8,0:0:0
404,160,29452,6,0,B|316:88,1,80,2|8,0:0|0:0,0:0:0
200,280,29827,2,0,B|308:248,1,80,8|8,0:0|0:0,0:0:0
204,40,30202,1,2,0:0:0
188,156,30389,1,8,0:0:0
308,172,30577,1,8,0:0:0
208,96,30764,1,8,0:0:0
208,96,30858,1,0,0:0:0
208,96,30952,6,0,B|120:113|12:84,1,160
448,192,31514,1,8,0:0:0
336,199,31702,2,0,B|296:120|296:8,1,160,0|8,0:0|0:0,0:0:0
64,192,32264,1,8,0:0:0
154,90,32452,5,0,0:0:0
357,293,32827,1,2,0:0:0
88,304,33202,1,0,0:0:0
240,336,33389,1,8,0:0:0
320,192,33577,1,8,0:0:0
224,224,33764,1,8,0:0:0
224,224,33858,1,0,0:0:0
224,223,33952,6,0,B|192:132|91:112,1,160
112,117,34514,1,8,0:0:0
262,352,34702,2,0,B|236:277|299:203,1,160,0|2,0:0|0:0,0:0:0
256,104,35264,1,8,0:0:0
392,104,35452,5,12,0:0:0
120,104,35827,1,8,0:0:0
256,280,36202,1,2,0:0:0
348,192,36389,1,8,0:0:0
256,104,36577,1,8,0:0:0
164,192,36764,1,8,0:0:0
164,192,36952,6,0,B|156:268|156:268|96:264|56:296,1,160,2|8,0:0|0:0,0:0:0
128,360,37514,1,0,0:0:0
256,280,37702,1,0,0:0:0
164,192,37889,1,0,0:0:0
348,192,38076,1,0,0:0:0
164,192,38264,1,0,0:0:0
348,192,38452,6,0,B|356:268|356:268|416:264|456:296,1,160,0|8,0:0|0:0,0:0:0
384,360,39014,1,0,0:0:0
296,296,39202,1,0,0:0:0
476,292,39389,1,0,0:0:0
360,232,39577,1,0,0:0:0
228,184,39764,1,0,0:0:0
228,184,39858,1,0,0:0:0
228,184,39952,6,0,B|240:80,1,80
368,44,40327,2,0,B|356:148,1,80,0|0,0:0|0:0,0:0:0
256,280,40702,5,0,0:0:0
264,176,40889,1,0,0:0:0
144,68,41077,1,0,0:0:0
152,188,41264,1,0,0:0:0
64,288,41452,5,2,0:0:0
64,288,41545,1,0,0:0:0
64,288,41639,1,0,0:0:0
40,184,41827,2,0,B|16:88,2,80,2|0|0,0:0|0:0|0:0,0:0:0
172,280,42389,1,0,0:0:0
244,200,42577,1,0,0:0:0
348,192,42764,1,0,0:0:0
348,192,42858,1,0,0:0:0
348,192,42952,6,0,B|356:116|356:116|440:64,1,160,2|0,0:0|0:0,0:0:0
440,168,43514,1,0,0:0:0
392,304,43702,1,0,0:0:0
120,304,43889,1,0,0:0:0
120,304,43983,1,0,0:0:0
120,304,44077,1,0,0:0:0
256,268,44264,1,0,0:0:0
164,192,44452,6,0,B|156:116|156:116|72:64,1,160,2|0,0:0|0:0,0:0:0
72,168,45014,1,0,0:0:0
164,192,45202,1,0,0:0:0
208,100,45389,1,0,0:0:0
303,100,45577,1,0,0:0:0
255,14,45764,1,0,0:0:0
232,20,45858,1,0,0:0:0
212,28,45952,6,0,B|156:59|145:121,1,80,2|8,0:0|0:0,0:0:0
299,355,46327,2,0,B|355:324|366:262,1,80,0|8,0:0|0:0,0:0:0
164,192,46702,2,0,B|136:208|136:208|130:258,1,80,0|8,0:0|0:0,0:0:0
348,192,47077,2,0,B|376:176|376:176|382:126,1,80,2|8,0:0|0:0,0:0:0
257,14,47452,5,0,0:0:0
209,100,47639,1,0,0:0:0
304,100,47827,1,0,0:0:0
348,192,48014,1,0,0:0:0
440,168,48202,1,12,0:0:0
147,133,48764,1,0,0:0:0
147,133,48858,1,0,0:0:0
147,133,48952,5,0,0:0:0
256,288,49139,1,0,0:0:0
260,76,49327,1,0,0:0:0
368,224,49514,1,0,0:0:0
424,52,49702,1,8,0:0:0
424,332,50077,1,8,0:0:0
144,224,50264,1,0,0:0:0
144,224,50452,6,0,B|168:116,1,80,2|0,0:0|0:0,0:0:0
144,224,50827,1,8,0:0:0
224,80,51014,1,0,0:0:0
224,80,51202,2,0,B|332:104,1,80,2|0,0:0|0:0,0:0:0
224,80,51577,1,8,0:0:0
368,160,51764,1,0,0:0:0
352,256,51952,6,0,B|328:364,1,80,2|0,0:0|0:0,0:0:0
160,256,52327,2,0,B|184:364,1,80,2|0,0:0|0:0,0:0:0
144,160,52702,2,0,B|208:112|312:112|372:164,1,240.000009155274,12|0,0:0|0:0,0:0:0
256,232,53264,1,0,0:0:0
256,232,53452,6,0,B|256:344,1,80,2|0,0:0|0:0,0:0:0
256,232,53827,1,8,0:0:0
256,144,54014,1,0,0:0:0
256,144,54202,2,0,B|256:128|256:128|248:120|248:120|264:120|264:120|248:112|248:112|264:112|264:112|256:104|256:104|256:8,1,160,2|8,0:0|0:0,0:0:0
144,223,54764,1,0,0:0:0
160,128,54952,6,0,B|100:32,1,80,2|0,0:0|0:0,0:0:0
352,128,55327,2,0,B|412:32,1,80,2|0,0:0|0:0,0:0:0
368,224,55702,2,0,B|304:272|200:272|140:220,1,240.000009155274,12|0,0:0|0:0,0:0:0
256,152,56264,1,0,0:0:0
256,152,56452,6,0,B|220:112|276:56,1,80,2|0,0:0|0:0,0:0:0
336,120,56827,1,8,0:0:0
88,112,57014,1,0,0:0:0
88,112,57108,1,0,0:0:0
88,112,57202,2,0,B|184:112,1,80,2|0,0:0|0:0,0:0:0
256,152,57577,1,8,0:0:0
180,216,57764,1,0,0:0:0
252,298,57952,5,2,0:0:0
156,196,58139,1,8,0:0:0
252,100,58327,1,8,0:0:0
356,196,58514,1,8,0:0:0
252,298,58702,2,0,B|172:336|84:296,1,160,2|8,0:0|0:0,0:0:0
24,212,59264,1,0,0:0:0
156,196,59452,6,0,B|118:116|158:28,1,160,2|8,0:0|0:0,0:0:0
256,120,60014,1,0,0:0:0
348,40,60202,2,0,B|386:120|346:208,1,160,2|4,0:0|0:0,0:0:0
488,212,60764,1,0,0:0:0
403,135,60952,6,0,B|352:196,1,80,2|0,0:0|0:0,0:0:0
104,135,61327,2,0,B|156:196,1,80,2|0,0:0|0:0,0:0:0
256,296,61702,2,4,B|336:334|424:294,1,160,6|4,0:0|0:0,0:0:0
411,299,62264,1,0,0:0:0
336,224,62452,6,0,B|376:184|376:116|336:56,1,160,2|8,0:0|0:0,0:0:0
272,16,63014,1,0,0:0:0
104,112,63202,2,0,B|156:140|216:140|260:112,1,160,2|8,0:0|0:0,0:0:0
347,74,63764,1,0,0:0:0
164,74,63952,5,0,0:0:0
188,352,64327,1,8,0:0:0
416,192,64702,1,2,0:0:0
256,272,64889,1,8,0:0:0
96,192,65077,1,8,0:0:0
256,132,65264,1,8,0:0:0
404,136,65452,6,0,B|364:96|296:96|236:144,1,160,2|8,0:0|0:0,0:0:0
168,192,66014,1,0,0:0:0
160,340,66202,2,0,B|200:300|200:232|152:172,1,160,2|8,0:0|0:0,0:0:0
344,192,66764,1,0,0:0:0
168,36,66952,6,0,B|234:128,1,80,2|0,0:0|0:0,0:0:0
372,344,67327,2,0,B|322:282,1,80,10|0,0:0|0:0,0:0:0
208,96,67702,1,2,0:0:0
168,184,67889,1,8,0:0:0
304,280,68077,1,8,0:0:0
320,112,68264,1,8,0:0:0
264,192,68452,6,0,B|224:232|224:300|264:360,1,160,2|8,0:0|0:0,0:0:0
336,272,69014,1,0,0:0:0
368,160,69202,2,0,B|291:131|211:163,1,160,2|8,0:0|0:0,0:0:0
160,256,69764,1,0,0:0:0
256,320,69952,5,2,0:0:0
444,156,70326,1,8,0:0:0
208,80,70702,1,2,0:0:0
112,124,70889,1,8,0:0:0
111,224,71077,1,8,0:0:0
216,188,71264,1,8,0:0:0
216,188,71358,1,0,0:0:0
216,188,71452,6,0,B|296:204|296:204|336:292,1,160,2|8,0:0|0:0,0:0:0
392,176,72014,1,0,0:0:0
328,120,72202,2,0,B|256:80|256:80|160:136,1,160,2|8,0:0|0:0,0:0:0
112,192,72764,1,0,0:0:0
440,128,72952,5,0,0:0:0
256,24,73327,1,8,0:0:0
72,128,73702,1,2,0:0:0
112,256,73889,1,8,0:0:0
228,180,74077,1,8,0:0:0
112,256,74264,1,8,0:0:0
148,127,74452,6,0,B|200:123|260:147|260:147|224:183,1,160,0|8,0:0|0:0,0:0:0
256,264,75014,1,0,0:0:0
440,128,75202,1,2,0:0:0
400,256,75389,1,8,0:0:0
284,180,75576,1,8,0:0:0
400,256,75764,1,8,0:0:0
364,128,75952,6,0,B|312:124|252:148|252:148|288:184,1,160,0|8,0:0|0:0,0:0:0
380,292,76514,1,0,0:0:0
252,232,76702,1,0,0:0:0
132,292,76889,1,8,0:0:0
256,168,77077,1,8,0:0:0
380,292,77264,1,8,0:0:0
412,300,77358,1,0,0:0:0
440,308,77452,5,2,0:0:0
408,196,77639,1,8,0:0:0
356,96,77827,1,8,0:0:0
256,104,78014,1,8,0:0:0
148,88,78202,5,2,0:0:0
148,88,78295,1,0,0:0:0
148,88,78389,1,8,0:0:0
172,192,78577,1,8,0:0:0
256,280,78764,1,8,0:0:0
336,192,78952,5,2,0:0:0
336,192,79139,1,8,0:0:0
420,192,79327,2,0,B|500:192,2,80,8|0|0,0:0|0:0|0:0,0:0:0
172,192,79889,1,8,0:0:0
80,192,80077,1,8,0:0:0
120,104,80264,1,0,0:0:0
151,98,80358,1,0,0:0:0
184,92,80452,6,0,B|266:75|292:56|292:56|316:72|344:76,1,160,0|8,0:0|0:0,0:0:0
424,180,81014,1,0,0:0:0
432,76,81202,1,0,0:0:0
328,292,81389,1,0,0:0:0
328,292,81483,1,0,0:0:0
328,292,81577,1,8,0:0:0
432,304,81764,1,0,0:0:0
328,292,81952,6,0,B|245:308|220:328|220:328|196:312|168:308,1,160,0|8,0:0|0:0,0:0:0
128,224,82514,1,0,0:0:0
40,300,82702,1,0,0:0:0
48,100,82889,1,8,0:0:0
48,100,83077,1,8,0:0:0
128,224,83264,1,0,0:0:0
128,224,83358,1,0,0:0:0
128,224,83452,6,0,B|144:176|136:112,1,80,2|0,0:0|0:0,0:0:0
240,64,83827,2,0,B|232:136|232:176,1,80,8|0,0:0|0:0,0:0:0
104,240,84202,6,0,B|120:192|112:128,1,80,2|0,0:0|0:0,0:0:0
272,40,84577,2,0,B|264:112|264:152,1,80,8|0,0:0|0:0,0:0:0
72,256,84952,5,4,0:0:0
88,136,85139,1,0,0:0:0
72,256,85327,1,8,0:0:0
88,136,85514,1,0,0:0:0
72,256,85702,1,0,0:0:0
184,208,85889,1,0,0:0:0
256,288,86077,1,8,0:0:0
328,208,86264,1,4,0:0:0
328,208,86452,6,0,B|336:132|404:172|404:172|420:80,1,160,0|8,0:0|0:0,0:0:0
344,24,87014,1,0,0:0:0
256,96,87202,1,2,0:0:0
168,24,87389,1,8,0:0:0
256,96,87576,1,8,0:0:0
352,192,87764,1,8,0:0:0
160,192,87952,6,0,B|152:268|84:228|84:228|68:320,1,160,0|8,0:0|0:0,0:0:0
168,336,88514,1,0,0:0:0
256,288,88702,1,2,0:0:0
256,192,88889,1,8,0:0:0
256,288,89077,1,8,0:0:0
344,336,89264,1,8,0:0:0
256,352,89452,5,2,0:0:0
336,256,89639,1,2,0:0:0
256,352,89827,1,8,0:0:0
176,256,90014,1,8,0:0:0
176,128,90202,5,2,0:0:0
256,32,90389,1,2,0:0:0
336,128,90577,1,8,0:0:0
256,32,90764,1,8,0:0:0
256,192,90952,5,0,0:0:0
104,284,91139,1,0,0:0:0
104,284,91327,2,0,B|164:284|196:236,1,80,8|0,0:0|0:0,0:0:0
256,192,91702,1,0,0:0:0
256,316,91889,1,0,0:0:0
396,356,92077,1,8,0:0:0
364,224,92264,1,0,0:0:0
364,224,92358,1,0,0:0:0
364,224,92452,6,0,B|372:148|456:96,1,160,0|8,0:0|0:0,0:0:0
456,216,93014,1,0,0:0:0
356,316,93202,1,6,0:0:0
256,220,93389,1,2,0:0:0
256,220,93483,1,0,0:0:0
256,220,93577,1,8,0:0:0
56,216,93764,1,8,0:0:0
132,84,93952,6,0,B|136:164|52:216,1,160,0|8,0:0|0:0,0:0:0
156,316,94514,1,0,0:0:0
256,292,94702,1,6,0:0:0
292,80,94889,1,2,0:0:0
192,104,95077,1,8,0:0:0
248,332,95264,1,8,0:0:0
248,332,95358,1,0,0:0:0
248,332,95452,6,0,B|303:364|362:343,1,80
264,52,95827,2,0,B|209:20|150:41,1,80,8|0,0:0|0:0,0:0:0
319,317,96202,6,0,B|382:317|423:269,1,80
192,66,96577,2,0,B|129:66|88:114,1,80,8|0,0:0|0:0,0:0:0
168,176,96952,5,2,0:0:0
344,210,97139,1,0,0:0:0
217,81,97327,1,8,0:0:0
242,255,97514,1,0,0:0:0
325,94,97702,1,0,0:0:0
158,144,98264,1,0,0:0:0
158,144,98358,1,0,0:0:0
158,144,98452,5,2,0:0:0
314,286,98639,1,0,0:0:0
267,79,98827,1,8,0:0:0
184,270,99014,1,0,0:0:0
368,160,99202,1,0,0:0:0
368,160,99577,1,0,0:0:0
96,312,99764,1,0,0:0:0
144,160,99952,6,0,B|116:260,1,80,2|0,0:0|0:0,0:0:0
144,160,100327,1,8,0:0:0
376,308,100514,1,0,0:0:0
216,304,100702,6,0,B|320:304,1,80,2|0,0:0|0:0,0:0:0
216,304,101077,1,8,0:0:0
368,223,101264,1,0,0:0:0
352,128,101452,6,4,B|328:20,1,80,6|4,0:0|0:0,0:0:0
160,128,101827,2,4,B|184:20,1,80,10|4,0:0|0:0,0:0:0
144,224,102202,2,4,B|212:240|256:268|256:268|308:232|392:220,1,240.000009155274,6|4,0:0|0:0,0:0:0
160,128,102764,1,0,0:0:0
256,152,102952,6,0,B|256:40,1,80,2|0,0:0|0:0,0:0:0
256,240,103327,1,8,0:0:0
352,128,103514,1,0,0:0:0
255,240,103702,2,0,B|256:256|256:256|248:264|248:264|264:264|264:264|248:272|248:272|263:272|263:272|256:280|256:280|256:376,1,160,2|8,0:0|0:0,0:0:0
368,161,104264,1,0,0:0:0
117,323,104452,6,4,B|160:256,1,80,2|4,0:0|0:0,0:0:0
394,323,104827,2,4,B|352:256,1,80,2|4,0:0|0:0,0:0:0
144,160,105202,2,4,B|212:144|256:116|256:116|308:152|392:164,1,240.000009155274
256,232,105764,1,0,0:0:0
256,232,105858,1,0,0:0:0
256,232,105952,6,0,B|256:320,1,80,2|0,0:0|0:0,0:0:0
156,208,106327,1,8,0:0:0
356,208,106514,1,0,0:0:0
256,104,106702,1,0,0:0:0
256,104,106795,1,0,0:0:0
256,104,106889,1,0,0:0:0
116,104,107077,1,0,0:0:0
396,104,107264,1,8,0:0:0
256,104,107452,5,2,0:0:0
156,192,107639,1,2,0:0:0
256,104,107827,1,8,0:0:0
356,192,108014,1,8,0:0:0
256,88,108202,2,0,B|176:50|88:90,1,160,2|8,0:0|0:0,0:0:0
24,172,108764,1,0,0:0:0
156,192,108952,6,0,B|118:272|118:272|156:296|158:360,1,160,2|8,0:0|0:0,0:0:0
256,264,109514,1,0,0:0:0
353,325,109702,6,0,B|352:292|390:268|390:268|352:188,1,160,2|8,0:0|0:0,0:0:0
488,172,110264,1,0,0:0:0
272,188,110452,6,0,B|352:188,1,80,2|0,0:0|0:0,0:0:0
240,188,110827,6,0,B|160:188,1,80,0|0,0:0|0:0,0:0:0
256,88,111202,2,0,B|336:50|424:90,1,160,2|8,0:0|0:0,0:0:0
488,172,111764,1,0,0:0:0
64,40,123952,6,2,B|28:116|76:208,1,160,0|0,0:0|0:0,0:0:0
252,360,125077,1,10,0:0:0
344,152,125452,6,2,B|408:128|464:120,2,120,2|2|8,0:0|0:0|0:0,0:0:0
200,80,126952,6,2,B|184:120|152:144,1,80,4|0,0:0|0:0,0:0:0
56,172,127702,2,2,B|40:220|48:252,1,80,4|0,0:0|0:0,0:0:0
56,348,128452,1,4,0:0:0
288,272,128827,2,4,B|312:264|336:264,1,40
336,232,129202,2,2,B|376:240|432:216,1,80
408,32,129952,6,2,B|320:48|272:120,1,160
224,216,131077,1,8,0:0:0
252,72,131452,6,2,B|124:56,2,120,2|2|8,0:0|0:0|0:0,0:0:0
336,292,132952,6,2,B|424:308,1,80,8|0,0:0|0:0,0:0:0
412,124,133702,1,0,0:0:0
252,116,133889,1,0,0:0:0
124,148,134077,1,0,0:0:0
56,216,134264,1,0,0:0:0
104,296,134452,6,2,B|168:352|272:328,1,160,2|10,0:0|0:0,0:0:0
384,88,135952,6,2,B|304:144|288:224,1,160,8|4,0:0|0:0,0:0:0
304,320,137077,1,8,0:0:0
176,188,137452,6,2,B|46:211,2,120,6|2|10,0:0|0:0|0:0,0:0:0
352,112,138952,2,2,B|310:111|272:128,1,80,8|0,0:0|0:0,0:0:0
152,56,139702,2,2,B|180:95|174:146,1,80,8|0,0:0|0:0,0:0:0
32,288,140452,6,10,B|96:232|192:224,1,160,8|12,0:0|0:0,0:0:0
444,336,141952,6,2,B|388:272|396:176,1,160,2|8,0:0|0:0,0:0:0
248,76,143077,1,2,0:0:0
344,104,143452,6,2,B|408:96|464:64,2,120,8|2|8,0:0|0:0|0:0,0:0:0
144,112,144952,6,2,B|60:68,1,80,8|0,0:0|0:0,0:0:0
424,48,145702,1,0,0:0:0
284,88,145889,1,0,0:0:0
216,168,146077,1,0,0:0:0
188,296,146264,1,0,0:0:0
284,324,146452,6,2,B|348:308|380:332|444:292,1,160,8|2,0:0|0:0,0:0:0
112,128,161264,5,0,0:0:0
200,80,161452,6,0,B|224:176|128:224,1,160,2|8,0:0|0:0,0:0:0
32,256,162014,1,0,0:0:0
142,215,162202,2,0,B|216:296,1,80,2|0,0:0|0:0,0:0:0
369,215,162577,1,8,0:0:0
400,128,162764,1,0,0:0:0
312,80,162952,6,0,B|288:176|384:224,1,160,6|8,0:0|0:0,0:0:0
476,256,163514,1,0,0:0:0
369,215,163702,2,0,B|336:288|336:288|256:328,1,160,2|8,0:0|0:0,0:0:0
264,60,164264,1,0,0:0:0
264,60,164358,1,0,0:0:0
264,60,164452,5,0,0:0:0
164,104,164639,1,0,0:0:0
168,269,164827,1,8,0:0:0
312,184,165014,1,0,0:0:0
424,272,165202,1,0,0:0:0
424,272,165295,1,0,0:0:0
424,272,165389,1,0,0:0:0
312,184,165577,1,8,0:0:0
120,184,165764,1,0,0:0:0
224,112,165952,6,0,B|320:80,1,80,2|0,0:0|0:0,0:0:0
288,272,166327,2,0,B|192:304,1,80,8|0,0:0|0:0,0:0:0
376,152,166702,2,0,B|432:224|408:336,1,160,2|8,0:0|0:0,0:0:0
264,320,167264,1,0,0:0:0
264,320,167359,1,0,0:0:0
264,320,167452,5,0,0:0:0
120,264,167639,1,0,0:0:0
168,115,167827,1,8,0:0:0
240,168,168014,1,0,0:0:0
8,56,168202,2,0,B|104:56,1,80,2|0,0:0|0:0,0:0:0
240,168,168577,1,8,0:0:0
152,208,168764,1,0,0:0:0
224,272,168952,6,8,B|320:304,1,80,2|8,0:0|0:0,0:0:0
288,112,169327,2,0,B|192:80,1,80,8|0,0:0|0:0,0:0:0
376,232,169702,2,0,B|416:192|416:144,1,80,6|0,0:0|0:0,0:0:0
304,128,170077,1,8,0:0:0
256,232,170264,1,0,0:0:0
376,232,170452,6,0,B|432:192|408:88,1,120
400,80,170827,2,0,B|356:32|276:44,1,120
244,40,171202,2,0,B|174:71|176:171,1,120
169,167,171577,1,0,0:0:0
116,336,171764,1,0,0:0:0
124,232,171952,6,0,B|140:184|180:160,1,80,2|0,0:0|0:0,0:0:0
252,216,172327,2,0,B|236:264|188:304,1,80,8|0,0:0|0:0,0:0:0
124,232,172702,2,0,B|144:176|194:131,1,120.000004577637,6|8,0:0|0:0,0:0:0
384,264,173264,1,0,0:0:0
414,190,173452,6,0,B|384:264,1,80,2|0,0:0|0:0,0:0:0
328,64,174014,1,0,0:0:0
254,33,174202,6,0,B|328:64,1,80,2|0,0:0|0:0,0:0:0
128,120,174764,1,0,0:0:0
97,193,174952,6,0,B|128:120,1,80,2|0,0:0|0:0,0:0:0
256,192,175327,2,0,B|256:207|256:207|264:215|264:215|248:215|248:215|264:223|264:223|248:223|248:223|256:231|256:231|258:301,1,160,12|6,0:0|0:0,0:0:0
256,48,176452,5,2,0:0:0
256,192,176639,1,2,0:0:0
112,192,176827,1,8,0:0:0
154,293,177014,1,8,0:0:0
357,293,177202,5,2,0:0:0
357,293,177389,1,2,0:0:0
400,192,177577,1,12,0:0:0
400,192,177764,1,8,0:0:0
358,90,177952,2,0,B|322:98|322:98|306:138,1,80,8|0,0:0|0:0,0:0:0
154,90,178327,2,0,B|189:98|189:98|205:138,1,80,8|0,0:0|0:0,0:0:0
256,288,178702,1,0,0:0:0
254,81,179264,1,0,0:0:0
174,91,179452,6,0,B|254:81,1,80,8|0,0:0|0:0,0:0:0
144,193,180014,1,0,0:0:0
151,271,180202,6,0,B|144:192,1,80,8|0,0:0|0:0,0:0:0
257,303,180764,1,0,0:0:0
336,292,180952,6,0,B|257:303,1,80,8|0,0:0|0:0,0:0:0
256,192,181327,2,0,B|254:178|254:178|248:170|248:170|262:169|262:169|247:162|247:162|262:162|262:162|256:154|256:154|257:64,1,160,4|0,0:0|0:0,0:0:0
337,110,182452,5,2,0:0:0
337,273,182827,1,8,0:0:0
210,297,183202,5,2,0:0:0
148,235,183389,1,8,0:0:0
149,146,183577,1,8,0:0:0
212,84,183764,1,8,0:0:0
312,192,183952,1,0,0:0:0
412,272,184140,2,0,B|413:319|413:319|376:360,1,80,0|8,0:0|0:0,0:0:0
412,112,184514,2,0,B|413:65|413:65|376:24,1,80,0|8,0:0|0:0,0:0:0
176,192,185452,5,2,0:0:0
392,192,185827,1,2,0:0:0
304,144,186014,1,8,0:0:0
304,240,186202,1,2,0:0:0
388,92,186389,5,0,0:0:0
228,24,186577,1,0,0:0:0
160,176,186764,1,0,0:0:0
304,144,186952,6,0,B|254:115|189:133|156:182,1,160,2|8,0:0|0:0,0:0:0
133,263,187514,1,0,0:0:0
408,272,187702,2,0,B|356:244|296:244|256:272,1,160,2|8,0:0|0:0,0:0:0
164,312,188264,1,0,0:0:0
408,272,188452,5,0,0:0:0
256,112,188827,1,8,0:0:0
144,196,189202,1,2,0:0:0
256,112,189389,1,8,0:0:0
368,196,189577,1,8,0:0:0
256,112,189764,1,8,0:0:0
112,120,189952,6,0,B|72:160|72:228|120:288,1,160,2|8,0:0|0:0,0:0:0
156,340,190514,1,0,0:0:0
400,264,190702,2,0,B|440:223|440:156|392:96,1,160,2|8,0:0|0:0,0:0:0
356,44,191264,1,0,0:0:0
132,220,191452,6,0,B|220:292,1,80,2|0,0:0|0:0,0:0:0
284,80,191827,2,0,B|176:112,1,80,10|0,0:0|0:0,0:0:0
304,288,192202,1,2,0:0:0
344,200,192389,1,8,0:0:0
208,104,192577,1,8,0:0:0
192,272,192764,1,8,0:0:0
344,200,192952,6,0,B|384:160|384:92|344:32,1,160,2|8,0:0|0:0,0:0:0
344,200,193514,1,0,0:0:0
168,184,193702,2,0,B|128:224|128:292|168:352,1,160,2|8,0:0|0:0,0:0:0
168,184,194264,1,0,0:0:0
256,320,194452,5,2,0:0:0
344,184,194826,1,8,0:0:0
256,320,195202,1,2,0:0:0
100,292,195389,1,8,0:0:0
256,320,195577,1,8,0:0:0
412,292,195764,1,8,0:0:0
256,64,195952,6,0,B|256:224,1,160,2|8,0:0|0:0,0:0:0
352,208,196514,1,0,0:0:0
184,280,196702,2,0,B|256:320|256:320|352:264,1,160,2|8,0:0|0:0,0:0:0
160,208,197264,1,0,0:0:0
256,48,197452,5,2,0:0:0
192,160,197827,1,2,0:0:0
320,160,198202,1,2,0:0:0
256,108,198952,5,2,0:0:0
352,271,199327,1,8,0:0:0
160,271,199702,1,2,0:0:0
