osu file format v10

[General]
AudioFilename: .mp3
AudioLeadIn: 2096
PreviewTime: 50458
Countdown: 1
SampleSet: Normal
StackLeniency: 0.7
Mode: 0
LetterboxInBreaks: 1

[Editor]
Bookmarks: 24952,74452,86452,123952,135952,147952,161452
DistanceSpacing: 0.8
BeatDivisor: 4
GridSize: 8

[Metadata]
Title:Sasha
TitleUnicode:Sasha
Artist:Megpoid GUMI
ArtistUnicode:Megpoid GUMI
Creator:wantuole
Version:Hard
Source:internet
Tags:
BeatmapID:185237
BeatmapSetID:58640

[Difficulty]
HPDrainRate:4
CircleSize:4
OverallDifficulty:5
ApproachRate:7
SliderMultiplier:1.2
SliderTickRate:1

[Events]
//Background and Video events
0,0,"bg.jpg"
//Break Periods
2,50277,61552
2,73902,186052
//Storyboard Layer 0 (Background)
//Storyboard Layer 1 (Fail)
//Storyboard Layer 2 (Pass)
//Storyboard Layer 3 (Foreground)
//Storyboard Sound Samples
//Background Colour Transformations
3,100,163,162,255

[TimingPoints]
952,375,4,1,1,60,1,0
50452,-100,4,1,1,60,0,1
52608,-66.6666666666667,4,1,1,60,0,1
53170,-100,4,1,1,60,0,1
55608,-66.6666666666667,4,1,1,60,0,1
56170,-100,4,1,1,60,0,1
62452,-100,4,1,1,60,0,0
73795,-100,4,2,0,60,0,0
85795,-100,4,1,1,60,0,0
99952,-100,4,1,1,60,0,1
102108,-66.6666666666667,4,1,1,60,0,1
102670,-100,4,1,1,60,0,1
105108,-66.6666666666667,4,1,1,60,0,1
105670,-100,4,1,1,60,0,1
111952,-100,4,1,1,60,0,0
123952,-200,4,1,1,60,0,0
161452,-100,4,1,1,60,0,1
172608,-133.333333333333,4,1,1,60,0,1
173358,-100,4,1,1,60,0,1
179077,-133.333333333333,4,1,1,60,0,1
185452,-100,4,1,1,60,0,0
199608,-100,4,1,1,60,0,0

[Colours]
Combo1 : 242,194,4
Combo2 : 151,55,221
Combo3 : 253,39,34
Combo4 : 19,152,251

[HitObjects]
100,125,952,2,0,B|144:80|208:72,1,120
304,72,1702,2,0,B|368:80|411:125,1,120
420,172,2264,1,0,0:0:0
408,216,2452,1,0,0:0:0
384,308,2827,1,0,0:0:0
408,216,3202,1,0,0:0:0
384,308,3577,1,0,0:0:0
280,324,3952,2,0,B|224:300|152:304,1,120
112,308,4514,1,0,0:0:0
96,212,4702,2,0,B|156:188|224:192,1,120
260,192,5264,1,0,0:0:0
308,200,5452,1,0,0:0:0
396,240,5827,1,0,0:0:0
308,200,6202,1,0,0:0:0
72,280,6952,2,0,B|148:305|148:305|208:304,1,120
324,304,7702,2,0,B|364:305|364:305|440:280,1,120
460,236,8264,1,0,0:0:0
436,192,8452,1,0,0:0:0
440,104,8827,1,0,0:0:0
324,80,9202,1,0,0:0:0
188,80,9952,2,0,B|116:88|116:88|75:112,1,120
196,192,10702,2,0,B|340:192,1,120
360,192,11264,1,0,0:0:0
404,192,11452,1,0,0:0:0
448,280,11827,1,0,0:0:0
352,280,12202,1,0,0:0:0
48,256,12952,2,0,B|88:320|88:320|160:320,1,120
256,336,13702,2,0,B|256:264,2,60
379,320,14452,2,0,B|424:320|424:320|464:256,1,120
420,172,15202,2,0,B|388:236,2,60
308,168,15952,2,0,B|256:136|256:136|204:168,1,120
118,225,16702,1,0,0:0:0
118,225,16889,2,0,B|92:172,1,60
60,76,17452,2,0,B|132:76|132:76|164:140,1,120
256,104,18202,2,0,B|256:40,2,60
358,118,18952,2,0,B|380:76|380:76|452:76,2,120
248,128,20077,1,0,0:0:0
240,184,20264,1,0,0:0:0
192,200,20452,2,0,B|137:150|163:72,1,120
64,72,21202,2,0,B|104:16,2,60
56,120,21764,1,0,0:0:0
48,168,21952,2,0,B|64:232|40:288,1,120
120,336,22702,2,0,B|152:288|152:208,1,120
240,192,23452,2,0,B|272:264,1,60
292,288,23827,1,0,0:0:0
400,284,24014,1,0,0:0:0
336,196,24202,1,0,0:0:0
432,128,24952,2,0,B|316:88,1,120
193,88,25514,1,0,0:0:0
80,128,25702,2,0,B|196:88,1,120
318,88,26264,1,0,0:0:0
184,104,26452,1,0,0:0:0
328,104,26827,1,0,0:0:0
160,128,27202,1,0,0:0:0
352,128,27577,1,0,0:0:0
80,152,27952,2,0,B|196:192,1,120
319,192,28514,1,0,0:0:0
432,152,28702,2,0,B|316:192,1,120
194,192,29264,1,0,0:0:0
328,208,29452,1,0,0:0:0
184,208,29827,1,0,0:0:0
352,232,30202,1,0,0:0:0
160,232,30577,1,0,0:0:0
416,280,30952,2,0,B|352:288|284:324,1,120
256,240,31514,1,0,0:0:0
210,315,31702,2,0,B|160:288|96:280,1,120
256,240,32264,1,0,0:0:0
320,192,32452,1,0,0:0:0
256,72,32827,1,0,0:0:0
192,192,33202,1,0,0:0:0
192,192,33577,1,0,0:0:0
72,224,33952,2,0,B|72:101,1,120
192,72,34702,2,0,B|192:200,1,120
192,240,35264,1,0,0:0:0
192,288,35452,1,0,0:0:0
108,336,35827,1,0,0:0:0
24,288,36202,1,0,0:0:0
224,336,36952,2,0,B|248:280|224:208,1,120
200,184,37514,1,0,0:0:0
156,64,37889,1,0,0:0:0
192,64,38077,2,0,B|264:64,1,60
300,68,38452,2,0,B|276:124|300:196,1,120
336,280,39202,2,0,B|392:312,2,60
296,256,39764,1,0,0:0:0
256,232,39952,2,0,B|224:240|176:232,1,60
264,144,40327,2,0,B|292:136|323:143,1,60
172,152,40702,2,0,B|144:184|100:200,1,60
340,232,41077,2,0,B|368:200|412:184,1,60
256,232,41452,2,0,B|196:232|196:232|144:272,1,120
80,168,42202,2,0,B|140:168|140:168|192:128,1,120
184,48,42764,1,0,0:0:0
184,48,42858,1,0,0:0:0
184,48,42952,2,0,B|320:48,1,120
408,192,43889,2,0,B|468:192,2,60
312,232,44452,2,0,B|344:296|424:296,1,120
208,232,45952,2,0,B|176:296|96:296,1,120
56,176,46702,1,0,0:0:0
128,136,46889,1,0,0:0:0
128,216,47077,1,0,0:0:0
256,192,47452,1,0,0:0:0
328,152,47639,1,0,0:0:0
328,232,47827,1,0,0:0:0
400,200,48014,1,0,0:0:0
392,280,48202,1,0,0:0:0
216,96,48952,2,0,B|132:80,1,60
299,40,49327,2,0,B|360:48,1,60
412,192,49702,1,0,0:0:0
324,148,50077,1,0,0:0:0
76,108,62452,6,0,B|204:88,1,120
317,89,63202,2,0,B|436:108,1,120
472,64,63764,1,0,0:0:0
404,196,63952,1,0,0:0:0
312,192,64327,1,0,0:0:0
436,276,64702,1,0,0:0:0
472,320,65077,1,0,0:0:0
376,316,65452,2,0,B|248:296,1,120
92,220,66202,2,0,B|220:200,1,120
256,192,66764,1,0,0:0:0
304,48,66952,1,0,0:0:0
240,104,67327,1,0,0:0:0
328,136,67702,1,0,0:0:0
84,280,68452,2,0,B|216:324,1,120
256,244,69202,2,0,B|120:196,1,120
60,168,69764,1,0,0:0:0
168,108,69952,1,0,0:0:0
256,72,70327,1,0,0:0:0
240,168,70702,1,0,0:0:0
428,280,71452,2,0,B|296:324,1,120
256,244,72202,2,0,B|392:196,1,120
452,168,72764,1,0,0:0:0
344,104,72952,1,0,0:0:0
256,72,73327,1,0,0:0:0
264,168,73702,1,0,0:0:0
108,116,186952,6,0,B|236:96,1,120
184,200,187702,2,0,B|312:180,1,120
348,172,188264,1,0,0:0:0
464,224,188452,1,0,0:0:0
468,272,188827,1,0,0:0:0
472,320,189202,1,0,0:0:0
472,320,189577,1,0,0:0:0
376,316,189952,2,0,B|248:296,1,120
92,220,190702,2,0,B|220:200,1,120
256,192,191264,1,0,0:0:0
344,104,191452,1,0,0:0:0
256,72,191827,1,0,0:0:0
168,104,192202,1,0,0:0:0
84,280,192952,2,0,B|216:324,1,120
256,244,193702,2,0,B|120:196,1,120
60,168,194264,1,0,0:0:0
168,108,194452,1,0,0:0:0
256,72,194827,1,0,0:0:0
240,168,195202,1,0,0:0:0
428,280,195952,2,0,B|296:324,1,120
256,244,196702,2,0,B|392:196,1,120
452,168,197264,1,0,0:0:0
344,104,197452,1,0,0:0:0
256,72,197827,1,0,0:0:0
264,168,198202,1,0,0:0:0
368,96,198952,1,0,0:0:0
236,47,199327,1,0,0:0:0
248,192,199702,1,0,0:0:0
