osu file format v9

[General]
AudioFilename: Romantic Hero.mp3
AudioLeadIn: 0
PreviewTime: 73566
Countdown: 0
SampleSet: Normal
StackLeniency: 0.7
Mode: 0
LetterboxInBreaks: 0

[Editor]
Bookmarks: 164834,182508
DistanceSpacing: 1.2
BeatDivisor: 4
GridSize: 4

[Metadata]
Title:Romantic Hero
Artist:Megpoid GUMI
Creator:tutuhaha
Version:Spinboxer
Source:Last Note.
Tags:spboxer3 vocaloid vocaloid2 Love Sander-Don

[Difficulty]
HPDrainRate:7
CircleSize:4
OverallDifficulty:7
ApproachRate:8
SliderMultiplier:1.6
SliderTickRate:1

[Events]
//Background and Video events
Video,0,"Romantic Hero.flv"
0,0,"BG.jpg"
//Break Periods
2,13450,27658
2,99345,108500
2,165029,181763
//Storyboard Layer 0 (Background)
//Storyboard Layer 1 (Fail)
//Storyboard Layer 2 (Pass)
//Storyboard Layer 3 (Foreground)
//Storyboard Sound Samples
//Background Colour Transformations
3,100,163,162,255

[TimingPoints]
3145,315.789473684211,4,1,1,55,1,0
13250,-100,4,1,1,70,0,0
28408,-100,4,1,1,55,0,0
32829,-100,4,1,1,70,0,0
33460,-100,4,1,1,50,0,0
43566,-100,4,1,1,60,0,0
53671,-133.333333333333,4,1,1,50,0,0
63776,-100,4,1,1,55,0,0
73881,-100,4,1,1,70,0,1
99145,-100,4,1,1,55,0,0
118723,-100,4,1,1,70,0,0
119355,-133.333333333333,4,1,1,50,0,0
129460,-100,4,1,1,55,0,0
139566,-100,4,1,1,55,0,1
164829,-100,4,1,1,55,0,0
185039,-100,4,1,1,50,0,0
203987,-100,4,1,1,60,0,0
210302,-100,4,1,1,70,0,1
235566,-100,4,1,1,55,0,0

[Colours]
Combo1 : 204,26,0
Combo2 : 90,194,46
Combo3 : 49,96,96
Combo4 : 0,0,170

[HitObjects]
356,100,3145,5,12
447,117,3302,2,0,B|397:190,1,80
352,96,3618,5,8
425,160,3776,2,0,B|345:198,1,80
348,92,4092,5,8
385,187,4250,2,0,B|296:180,1,80
344,88,4566,5,8
260,44,4723,2,0,B|160:44,1,80
200,140,5039,2,0,B|232:176|232:176|240:244|304:252,1,160,8|8
156,100,5671,5,12
65,117,5829,2,0,B|114:190,1,80
160,96,6145,5,8
87,160,6302,2,0,B|166:198,1,80
164,92,6618,5,8
127,187,6776,2,0,B|215:180,1,80
168,88,7092,5,8
256,56,7250,2,0,B|348:28,1,80
400,104,7566,1,8
432,140,7645,1,0
444,184,7723,1,0
432,232,7802,1,0
400,268,7881,1,8
212,312,8197,6,0,B|256:324|287:296,2,80,12|0|0
123,268,8671,2,0,B|91:300|100:341,2,80,8|0|0
207,219,9145,2,0,B|196:175|156:162,2,80,8|0|0
284,164,9618,1,8
364,108,9776,2,0,B|404:92|444:108,1,80
404,196,10092,2,0,B|400:300|284:308,1,160,8|8
256,192,10723,12,4,13250
288,288,28408,6,0,B|336:256|336:256|376:304|456:304,1,160,4|8
488,232,28881,1,0
396,200,29039,2,0,B|332:168|364:108|276:72,1,160,0|8
388,40,29513,2,0,B|224:56,1,160
132,40,29987,6,0,B|64:124,1,80,8|0
124,188,30302,2,0,B|164:272,1,80
96,336,30618,2,0,B|48:240,1,80,8|0
248,304,31092,6,0,B|344:280,2,80,0|8|0
280,216,31566,2,0,B|312:120,2,80,0|0|8
184,232,32039,2,0,B|160:160|80:184|56:96,1,160
40,88,32434,1,0
64,48,32513,2,0,B|160:40,1,80,8|0
240,32,32829,5,0
288,40,32908,1,0
336,48,32987,1,0
384,56,33066,1,0
432,64,33145,1,0
272,168,33460,5,4
360,200,33618,2,0,B|464:240,2,80,0|8|0
344,296,34092,2,0,B|240:256,1,80
184,320,34408,2,0,B|80:320,1,80,8|0
40,248,34723,2,0,B|104:248|104:248|144:240|144:240|208:240,1,160,0|8
136,160,35197,1,0
312,80,35513,2,0,B|144:80,1,160,8|0
328,152,36145,6,0,B|432:152,2,80,0|8|0
256,216,36618,2,0,B|160:176,1,80
88,152,36934,2,0,B|112:264,1,80,8|0
120,328,37250,2,0,B|24:344,2,80,0|0|8
216,352,37723,2,0,B|280:344|280:344|304:352|304:352|392:336,1,160,0|8
440,160,38355,1,0
408,248,38513,6,0,B|296:248,1,80,4|0
240,280,38829,2,0,B|192:256|192:200,1,80,8|0
280,176,39145,2,0,B|281:138|233:114,1,80
144,144,39460,2,0,B|48:144,1,80,8|0
104,232,39776,2,0,B|64:320,2,80,0|0|8
160,312,40250,2,0,B|184:352|224:352|224:352|328:352,2,160,0|8|8
232,248,41039,6,0,B|296:200,1,80,4|0
376,144,41355,2,0,B|385:223,1,80,8|0
400,320,41671,2,0,B|328:288|328:288|304:328|264:336,1,160,0|8
168,335,42145,6,0,B|72:327|24:215,1,160
88,168,42618,2,0,B|144:72,1,80,8|0
216,128,42934,2,0,B|272:144|272:144|392:144,1,160,0|8
448,80,43408,1,8
464,176,43566,6,0,B|464:256,1,80,4|0
376,216,43881,2,0,B|376:296,1,80,8|0
280,288,44197,2,0,B|184:288|184:288|136:304|128:352,1,160,0|8
224,360,44671,2,0,B|48:360,1,160
48,264,45145,2,0,B|24:160,1,80,8|0
200,96,45618,2,0,B|120:96,2,80,0|8|0
248,184,46092,6,0,B|336:136,1,80,4|0
400,96,46408,2,0,B|504:96,1,80,8|0
440,184,46723,2,0,B|464:224|432:272,1,80
352,296,47039,2,0,B|272:336,1,80,8|0
240,248,47355,2,0,B|152:232|112:128,1,160,0|8
119,53,47829,2,0,B|149:137|79:223,1,160
11,255,48302,2,0,B|68:186|178:204,1,160,8|4
240,160,48776,5,0
328,120,48934,2,0,B|416:80,1,80,8|0
448,176,49250,2,0,B|480:264|384:328,1,160,0|8
368,224,49723,1,0
304,296,49881,2,0,B|200:328,2,80,0|0|8
368,224,50355,2,0,B|328:228|328:228|272:228|272:228|192:256,2,160,0|8|0
456,88,51145,6,0,B|288:88,1,160,4|8
360,160,51618,1,0
336,64,51776,2,0,B|176:64,1,160,0|8
88,24,52250,1,0
88,112,52408,6,0,B|64:160|120:208,1,80
192,216,52723,2,0,B|226:242|202:290,1,80,8|0
112,264,53039,2,0,B|304:232,1,160,0|8
368,224,53513,1,0
440,160,53671,6,0,B|464:136|472:96|424:72|424:72|344:72,1,179.999994635582,4|0
368,144,54302,2,0,B|312:144|312:144|280:128|280:128|240:128,1,119.999996423721
120,64,54934,2,0,B|64:96|87:168|87:168|80:232|16:264,1,239.999992847443
296,336,56197,6,0,B|376:320|376:320|384:296|416:264|464:272,1,179.999994635582,4|0
448,344,56829,2,0,B|360:232,1,119.999996423721
288,136,57460,1,0
216,120,57618,2,0,B|144:112|120:56,1,119.999996423721
192,32,58092,2,0,B|48:32,1,119.999996423721
40,176,58723,6,0,B|72:224|72:224|144:264,1,119.999996423721,4|0
72,304,59197,1,0
144,328,59355,2,0,B|212:364|212:364|264:364,1,119.999996423721
392,312,59987,6,0,B|464:288|464:208,1,119.999996423721
320,200,60618,2,0,B|272:200|272:200|240:192|240:192|208:192|208:192|184:176|184:176|149:176|149:176|112:160|96:120,1,239.999992847443,0|4
160,88,61408,2,0,B|280:88,1,119.999996423721
224,40,61881,2,0,B|360:40,1,119.999996423721
416,40,62355,6,0,B|472:144,1,119.999996423721
440,288,62987,2,0,B|384:184,1,119.999996423721
272,280,63618,1,0
248,304,63697,1,0
224,328,63776,6,0,B|184:352|120:336,1,80,4|0
88,264,64092,2,0,B|128:240|192:256,1,80,8|8
240,192,64408,2,0,B|312:192|336:136|336:136|400:136,1,160,0|8
192,72,65039,6,0,B|104:88|64:176,1,160,0|8
16,248,65513,2,0,B|112:248,1,80,8|0
272,328,65987,6,0,B|368:328,1,80,8|8
320,240,66302,2,0,B|400:240|400:240|456:216|448:152,1,160,4|8
392,104,66776,1,8
320,160,66934,2,0,B|208:160|208:160|160:128,1,160,0|8
72,304,67566,6,0,B|136:232,1,80
64,316,67881,2,0,B|148:270,1,80,8|8
52,332,68197,2,0,B|147:317,1,80
40,348,68513,2,0,B|134:367,1,80,8|8
144,364,68750,1,0
168,364,68829,2,0,B|274:364|274:364|341:332,1,160,4|8
296,248,69302,1,8
396,260,69460,2,0,B|488:120,1,160,0|8
328,84,69934,6,0,B|256:84|256:84|220:76|220:76|136:76,2,160,0|8|8
144,144,70881,2,0,B|128:208|64:248|64:248|104:248,1,160
128,336,71355,1,4
192,264,71513,1,0
272,320,71671,1,8
360,280,71829,2,0,B|464:280,2,80,0|0|8
136,96,72460,5,0
136,96,72618,2,0,B|224:56,1,80
304,96,72934,2,0,B|216:136,1,80,8|0
296,200,73250,2,0,B|288:296|200:320,1,160,0|8
16,280,73881,6,0,B|80:224,1,80,4|0
104,320,74197,1,8
176,256,74355,2,0,B|288:256|288:256|352:280|352:280|424:280,1,240,0|8
344,352,74987,6,0,B|288:288|344:200,1,160
432,168,75460,2,0,B|240:168,1,160,8|0
88,104,76092,6,0,B|96:64|144:48,1,80,8|0
192,128,76408,2,0,B|248:208,1,80,4|0
296,272,76723,2,0,B|340:257|348:217,1,80,8|0
440,192,77039,2,0,B|400:192|400:192|360:168|360:168|299:168|280:120,1,160,0|8
360,80,77513,6,0,B|320:168|248:216,1,160
192,272,77987,1,8
144,352,78145,2,0,B|184:368|240:344,1,80
408,320,78618,5,8
416,296,78697,1,0
424,272,78776,1,0
432,248,78855,1,0
440,224,78934,6,0,B|468:139,1,80,4|0
392,80,79250,2,0,B|280:80,1,80,8|0
328,176,79566,2,0,B|264:176|264:176|232:160|232:160|152:160,1,160,0|8
80,120,80039,6,0,B|40:176|88:224|88:224|144:224,1,160
200,296,80513,2,0,B|112:296,1,80,8|0
24,312,80829,2,0,B|24:352|72:368|72:368|168:368,1,160,0|8
248,368,81302,1,0
328,312,81460,6,0,B|408:248,2,80,4|0|8
464,200,81934,2,0,B|389:170,2,80
296,144,82408,1,8
308,223,82566,6,0,B|240:240|240:240|128:240,1,160
128,152,83039,2,0,B|104:64,1,80,8|0
16,40,83355,2,0,B|40:128,1,80
62,210,83671,1,8
72,232,83750,1,0
80,256,83829,1,0
96,272,83908,1,0
112,288,83987,6,0,B|184:320,1,80,4|0
400,288,84302,2,0,B|326:320,1,80,8|0
256,256,84618,1,0
328,192,84776,2,0,B|408:192,1,80,0|8
464,112,85092,6,0,B|456:72|408:64|408:64|328:64,1,160
256,128,85566,2,0,B|192:128|176:72,1,80,8|0
248,24,85881,2,0,B|224:24|224:24|184:8|144:24|144:24|80:24,1,160,0|8
48,216,86513,6,0,B|92:139,1,80,4|0
48,216,86829,2,0,B|124:172,1,80,8|0
48,216,87145,2,0,B|224:216,1,160,0|8
144,288,87618,6,0,B|184:296|208:328|208:328|312:328,1,160
376,280,88092,2,0,B|416:264|456:280,1,80,8|0
416,368,88408,2,0,B|416:192,1,160,0|8
256,96,89039,6,0,B|144:72|144:72|128:56|128:56|104:64,1,160,4|8
16,104,89513,1,0
80,176,89671,2,0,B|128:240|72:336,1,160,0|8
8,264,90145,2,0,B|96:264|96:264|192:288,1,160
248,320,90618,2,0,B|352:320,1,80,8|0
289,231,90934,2,0,B|337:207|385:223|385:223|385:199|385:199|417:143,1,160,0|8
216,144,91566,6,0,B|144:56,1,80,4|0
72,48,91881,1,8
208,152,92039,6,0,B|136:64,1,80
72,128,92355,1,0
200,160,92513,5,8
112,200,92671,2,0,B|96:248|144:280|144:280|240:280,1,160
280,232,93145,2,0,B|368:232,1,80,8|0
408,312,93460,5,0
440,280,93539,1,0
456,232,93618,1,0
440,184,93697,1,0
408,152,93776,1,8
328,96,93934,1,0
248,48,94092,6,0,B|168:72|168:72|64:72,1,160,4|8
24,144,94566,2,0,B|128:152|64:200|176:208,1,160
104,280,95039,2,0,B|200:280,1,80,8|0
272,320,95355,6,0,B|328:320|328:320|376:288|352:208,1,160,0|8
280,168,95829,2,0,B|424:80,2,160,0|8|0
256,192,96618,12,4,99145
184,144,109250,6,0,B|136:136|120:88,1,80,4|0
216,64,109566,2,0,B|304:64,1,80,8|0
384,104,109881,2,0,B|371:142|323:150,1,80
256,216,110197,2,0,B|256:328,1,80,8|0
160,320,110513,6,0,B|64:312|32:200,1,160,0|8
72,320,110987,2,0,B|9:246|66:144,1,160
104,88,111460,2,0,B|208:88,1,80,8|0
280,88,111776,5,4
352,152,111934,2,0,B|416:208,1,80,0|8
368,288,112250,1,0
272,280,112408,2,0,B|272:240|312:208,1,80
464,296,112723,2,0,B|464:336|424:368,1,80,8|0
328,368,113039,2,0,B|256:368|256:368|224:352|224:352|168:352,1,160,0|8
72,352,113513,2,0,B|32:312|64:256|64:256|64:192,1,160
160,216,113987,2,0,B|256:240,1,80,8|0
264,144,114302,5,4
336,208,114460,2,0,B|440:208,2,80,0|8|0
360,112,114934,2,0,B|384:16,1,80
264,144,115250,2,0,B|240:240,1,80,8|0
280,312,115566,2,0,B|208:352|208:352|128:352,1,160,0|8
192,280,116039,2,0,B|128:280|128:280|88:264|88:264|8:264,1,160,0|8
160,120,116671,1,0
248,88,116829,6,0,B|344:88,1,80,4|0
288,176,117145,2,0,B|368:208|464:168,1,160,8|0
296,296,117776,2,0,B|212:360,2,80,8|0|0
296,296,118250,6,0,B|196:296,2,80,0|8|0
384,256,118723,1,0
432,256,118802,1,0
472,224,118881,1,0
480,176,118960,1,0
456,136,119039,1,0
384,72,119197,1,0
288,80,119355,6,0,B|224:80|224:80|144:104|104:48,1,179.999994635582,4|0
176,16,119987,2,0,B|144:152,1,119.999996423721
104,264,120618,2,0,B|160:264|200:312|200:312|288:280,1,179.999994635582
272,360,121250,2,0,B|384:312,1,119.999996423721
464,192,121881,5,4
416,144,122039,2,0,B|376:144|376:144|344:128|344:128|288:128,1,119.999996423721
328,200,122513,2,0,B|200:200,1,119.999996423721
80,264,123145,2,0,B|32:296|40:368,2,89.9999973177911
112,200,123776,2,0,B|136:144|112:80,1,119.999996423721
248,128,124408,6,0,B|312:120,1,59.9999982118607,4|0
440,176,124881,2,0,B|368:184,1,59.9999982118607
248,248,125355,1,0
172,256,125513,1,0
112,304,125671,2,0,B|16:352,2,89.9999973177911
176,336,126302,2,0,B|240:360|320:336,1,119.999996423721
432,304,126934,6,0,B|416:240|480:176,1,119.999996423721,4|0
489,261,127408,2,0,B|360:224,1,119.999996423721
336,168,127881,1,0
288,112,128039,6,0,B|224:80|144:88,1,119.999996423721
40,152,128671,2,0,B|104:184|184:176,1,119.999996423721
152,320,129302,1,0
184,312,129381,1,0
216,304,129460,6,0,B|320:272,1,80,4|0
240,136,129776,2,0,B|215:242,1,80,8|8
376,256,130092,2,0,B|312:200|312:200|352:184|368:144,1,160,0|8
192,64,130723,1,0
112,112,130881,2,0,B|128:208|24:256,1,160,8|8
136,280,131355,2,0,B|224:312|224:312|304:312,1,160,0|8
360,248,131829,1,8
384,240,131908,1,0
408,232,131987,6,0,B|432:184|400:128,1,80,4|0
360,72,132302,2,0,B|272:72,1,80,8|8
192,24,132618,2,0,B|192:80|152:96|152:96|64:96,1,160,0|8
80,288,133250,2,0,B|48:192,1,80
339,176,133566,2,0,B|328:256,1,80,8|8
184,256,133881,2,0,B|168:144,1,80
457,212,134197,2,0,B|432:288,1,80,8|8
424,312,134434,1,0
416,336,134513,6,0,B|328:344|328:344|224:344,1,160,4|8
320,272,134987,1,0
360,364,135145,2,0,B|272:372|272:372|168:372,1,160,0|8
144,288,135618,2,0,B|176:240|152:208|128:184|128:184|136:136,1,160
144,48,136092,1,8
64,96,136250,2,0,B|96:104|96:104|136:128|176:112|176:112|248:120,1,160,0|8
256,304,136881,5,0
328,240,137039,1,4
328,144,137197,1,0
256,304,137355,5,8
336,248,137513,1,0
416,192,137671,2,8,B|496:136,1,80
240,96,138144,5,0
144,96,138302,2,0,B|56:64,1,80
88,160,138618,2,0,B|176:192,1,80,8|0
256,224,138934,2,0,B|280:304|256:304|232:304|256:384,1,160,0|8
400,256,139566,6,0,B|320:328,1,80,4|0
112,256,139881,2,0,B|192:328,1,80,8|0
256,224,140197,2,0,B|255:176|255:176|288:112|368:152,1,160,0|8
432,88,140671,2,0,B|360:64|360:64|272:64,1,160
184,80,141144,2,0,B|104:96|104:96|120:144|80:176,1,160,8|0
48,352,141776,6,0,B|160:328,1,80,8|0
208,384,142092,2,0,B|248:352|232:296,1,80,4|0
160,256,142408,2,0,B|147:217|187:185,1,80,8|0
272,232,142723,2,0,B|376:208|376:208|448:208,1,160,0|8
368,280,143197,2,0,B|312:240|312:176|364:134,1,160
264,104,143671,2,0,B|192:72,1,80,8|0
216,160,143987,2,0,B|128:120|128:120|48:120,1,160,0|8
96,208,144460,1,0
112,256,144539,1,0
128,304,144618,6,0,B|224:328,1,80,4|0
296,304,144934,2,0,B|408:304,1,80,8|0
448,368,145250,2,0,B|488:296|448:240|448:240|448:192,1,160,0|8
288,112,145723,6,0,B|256:112|232:128|216:144|216:144|120:144,1,160
192,64,146197,2,0,B|88:64,2,80,8|0|0
280,192,146671,2,0,B|328:256,1,80,0|8
384,336,146987,1,0
288,336,147144,6,0,B|184:336,1,80,4|0
136,272,147460,1,8
144,368,147618,2,0,B|56:368,1,80
40,272,147934,1,0
88,184,148092,1,8
136,104,148250,2,0,B|192:104|192:104|240:128|240:128|296:128,1,160
251,40,148723,2,0,B|355:40,1,80,8|0
408,96,149039,1,0
448,120,149118,1,0
464,168,149197,1,0
448,216,149276,1,0
408,240,149355,6,0,B|352:240|352:240|304:264|304:264|248:264,1,160,8|4
200,184,149829,1,0
128,240,149987,2,0,B|80:224|48:240,1,80,8|0
88,328,150302,2,0,B|88:152,1,160,0|8
144,88,150776,6,0,B|240:88|240:88|296:56,1,160
336,144,151250,2,0,B|368:224,1,80,8|0
448,264,151566,2,0,B|432:296|408:304|408:304|288:304,1,160,0|8
224,352,152039,1,0
176,272,152197,6,0,B|136:256|96:272,1,80
176,272,152513,2,0,B|152:224|120:216,1,80,8|0
176,272,152829,2,0,B|224:192|176:112,1,160,0|8
88,136,153302,6,0,B|160:136|160:136|208:120|208:120|272:120,1,160
336,80,153776,2,0,B|440:80,2,80,8|0|0
360,176,154250,1,0
360,272,154408,1,8
312,288,154487,1,0
272,264,154566,1,0
224,280,154644,1,0
184,296,154723,6,0,B|80:296,1,80,4|0
7,296,155039,2,0,B|59:205,1,80,8|0
144,224,155355,2,0,B|104:160|104:160|128:120|104:80,1,160,0|8
16,120,155829,2,0,B|192:120,1,160
256,64,156302,2,0,B|352:64,1,80,8|0
416,120,156618,2,0,B|464:200|416:272,1,160,0|8
328,296,157092,1,0
256,234,157250,5,4
180,166,157408,1,0
155,267,157566,1,8
252,164,157723,5,0
220,297,157881,1,0
120,204,158039,2,0,B|65:190|41:142,1,80,0|8
104,80,158355,6,0,B|184:80|184:80|216:96|216:96|280:96,1,160
352,80,158829,2,0,B|440:80,1,80,8|0
448,176,159144,2,0,B|488:216|464:272|464:272|400:272,1,160,0|8
360,288,159539,1,0
312,304,159618,1,0
264,320,159697,1,0
216,336,159776,6,0,B|168:352|136:336,1,80,4|0
80,264,160092,2,0,B|128:248|160:264,1,80,8|0
224,192,160408,2,0,B|266:144|266:144|368:144,1,160,0|8
432,72,160881,1,0
344,72,161039,2,0,B|232:72|232:72|184:56,1,160,0|8
280,24,161513,2,0,B|96:24,2,160,0|8|0
256,192,162302,12,4,164829
256,192,182513,12,0,184723
256,56,185039,5,4
344,104,185197,2,0,B|416:64,2,80,0|8|0
328,200,185671,2,0,B|344:240|312:288,2,80,0|0|8
232,224,186144,2,0,B|416:256,1,160
416,288,186539,1,0
440,328,186618,6,0,B|336:368,1,80,8|0
272,328,186934,1,0
176,328,187092,2,0,B|88:328|88:328|48:304|40:248,1,160,8|0
88,184,187566,1,0
128,96,187723,6,0,B|240:64,1,80,0|8
296,48,188039,1,0
280,144,188197,2,0,B|264:248,2,80,0|0|8
376,120,188671,1,0
416,144,188750,1,0
456,168,188829,2,0,B|480:216|456:264,1,80
384,296,189144,2,0,B|272:296,1,80,8|0
256,312,189381,1,0
208,328,189460,1,0
112,328,189618,2,0,B|80:296|32:288|32:288|32:208,1,160,8|0
96,144,190092,1,0
152,64,190250,6,0,B|264:40,1,80,0|8
208,144,190566,1,0
304,144,190723,2,0,B|392:144,2,80,0|0|8
256,232,191197,1,0
192,304,191355,2,0,B|128:368,1,80
96,336,191592,1,0
56,304,191671,1,8
104,216,191829,2,0,B|128:168|96:128,1,80
24,88,192144,2,0,B|96:160|200:152,1,160,8|0
232,80,192618,6,0,B|272:80|312:48|312:48|416:80,1,160,4|8
352,160,193092,2,0,B|336:256|416:304,1,160
432,208,193566,2,0,B|264:280,1,160,8|0
208,216,194039,1,0
152,288,194197,1,8
232,344,194355,1,0
258,230,194513,5,0
272,319,194671,1,0
176,336,194829,1,8
165,246,194987,2,0,B|120:240|80:192,1,80,0|4
40,128,195302,5,0
136,128,195460,2,0,B|240:104,2,80,8|0|0
208,192,195934,2,0,B|296:192,2,80,0|8|0
272,120,196408,2,0,B|336:112|376:168|368:224|328:248,1,160,0|8
304,304,196881,1,0
256,316,196960,1,0
208,328,197039,2,0,B|112:360,1,80
32,352,197355,2,0,B|56:312|24:264,1,80,8|0
80,192,197671,1,0
72,88,197829,6,0,B|176:64,2,80,0|8|0
56,136,198223,1,0
40,184,198302,2,0,B|8:272,1,80
104,232,198618,2,0,B|136:144,1,80,8|0
224,192,198934,2,0,B|304:192,1,80
336,232,199171,1,0
368,272,199250,2,0,B|472:272,1,80,8|0
472,232,199487,1,0
448,192,199566,2,0,B|352:192,1,80
224,272,199881,2,0,B|304:272,1,80,8|0
256,352,200197,5,4
160,328,200355,2,0,B|128:344|98:344|64:312,2,80,0|8|0
123,238,200829,2,0,B|123:126,1,80
85,68,201144,2,0,B|112:52|156:56|176:80,1,80,8|0
224,136,201460,2,0,B|251:152|295:148|315:124,2,80
256,48,201934,1,0
304,32,202013,1,0
352,16,202092,1,0
408,96,202250,2,0,B|448:184|400:272,1,160,8|0
496,208,202723,6,0,B|428:170|340:210,1,160,4|8
264,264,203197,1,0
224,288,203276,1,0
184,312,203355,2,0,B|128:312|128:312|80:304|80:304|16:304,1,160,0|8
56,112,203987,5,0
111,212,204144,1,0
129,103,204302,1,8
47,185,204460,1,0
157,167,204618,2,0,B|224:208|248:160|320:224,1,160,0|8
152,328,205250,5,4
360,328,205408,1,0
272,80,206197,6,0,B|272:184,1,80,8|0
240,352,206671,2,0,B|240:248,1,80,0|0
64,192,207144,1,0
448,192,207460,1,8
312,56,207776,6,0,B|248:144,1,80,4|0
112,336,208723,6,0,B|176:248,1,80,8|0
352,272,209197,2,0,B|464:272,2,80,0|8|0
256,272,209671,2,0,B|229:256|229:256|216:208|160:200|160:200|112:168,1,160,0|8
88,152,210066,1,0
56,112,210144,1,0
48,64,210223,1,0
96,64,210302,6,0,B|192:64,1,80,4|0
320,112,210618,2,0,B|224:112,1,80,8|0
280,200,210934,2,0,B|248:288|168:312,1,160,0|8
76,305,211408,2,0,B|168:288|228:345,1,160
312,296,211881,2,0,B|408:240,1,80,8|0
352,352,212197,2,0,B|441:301|441:301|456:240,1,160,0|8
476,152,212671,1,0
304,120,212829,6,0,B|224:104,1,80,4|0
128,88,213144,1,8
304,120,213302,6,0,B|234:77,1,80
149,29,213618,1,0
304,120,213776,5,8
232,184,213934,2,0,B|144:216|128:312,1,160
40,336,214408,2,0,B|144:376,1,80,8|0
208,328,214723,1,0
232,320,214802,1,0
256,312,214881,1,0
280,304,214960,1,0
304,296,215039,1,8
328,288,215118,1,0
352,280,215197,1,0
376,272,215276,1,0
397,266,215355,6,0,B|421:218|389:170,1,80,4|0
312,144,215671,2,0,B|216:88,1,80,8|0
160,56,215987,2,0,B|16:176,1,160,0|8
40,64,216460,2,0,B|128:88|120:192,1,160
96,280,216934,2,0,B|176:344,1,80,8|0
184,240,217250,2,0,B|240:248|288:184|288:184|264:248,1,160,0|8
240,304,217723,1,0
328,328,217881,6,0,B|376:232,1,80,4|0
448,304,218197,2,0,B|480:224,1,80,8|0
416,160,218513,2,0,B|328:136|328:136|304:88|256:80,1,160,0|8
368,40,218987,2,0,B|288:96|192:112,1,160
184,192,219460,2,0,B|72:192,1,80,8|0
32,256,219776,2,0,B|32:304|72:320|72:320|176:320,1,160,0|8
248,328,220250,5,0
296,320,220329,1,0
344,312,220408,2,0,B|440:256,1,80,4|0
368,192,220723,2,0,B|272:248,1,80,8|0
248,312,221039,2,0,B|176:352|176:352|88:352,1,160,0|8
160,272,221513,2,0,B|96:272|96:272|64:240|64:240|8:240,1,160
64,160,221987,2,0,B|112:88,1,80,8|0
192,144,222302,2,0,B|296:160|264:136|368:152,1,160,0|8
368,240,222776,1,0
384,336,222934,6,0,B|288:320,2,80,4|0|8
368,240,223408,2,0,B|429:164,2,80,0|0|0
456,280,223881,1,8
368,312,224039,2,0,B|304:312|304:312|272:304|272:304|200:304,1,160
160,216,224513,2,0,B|112:144,1,80,8|0
184,80,224829,1,0
208,64,224908,1,0
232,56,224987,1,0
256,64,225066,1,0
280,80,225144,2,0,B|368:80,1,80,8|0
408,160,225460,6,0,B|408:216|368:240|368:240|272:240,1,160,4|8
360,320,225934,2,0,B|284:320|284:320|256:312|256:312|200:312,1,160
136,240,226408,1,8
88,160,226566,1,0
48,72,226723,2,0,B|168:71|168:71|200:104,1,160,0|8
127,31,227197,2,0,B|295:31,1,160,0|8
392,192,227829,1,0
328,264,227987,6,0,B|216:328|216:328|256:272,1,160,4|8
48,248,228618,2,0,B|120:248|120:248|208:208,1,160,0|8
136,144,229092,2,0,B|320:144,1,160,0|8
464,56,229723,2,0,B|352:56,1,80
288,96,230039,1,0
192,56,230197,1,8
144,40,230276,1,0
96,32,230355,1,0
48,40,230434,1,0
8,64,230513,6,0,B|8:168,1,80,4|0
344,272,230829,2,0,B|344:160,1,80,8|0
168,192,231144,2,0,B|168:272,1,80
504,144,231460,2,0,B|504:64,1,80,8|0
352,104,231776,2,0,B|240:96|176:48,1,160,0|8
313,62,232250,2,0,B|272:96|160:104,1,160,0|8
256,184,232881,6,0,B|256:264,2,80,0|4|0
99,273,233355,2,0,B|168:232,1,80,8|0
412,273,233671,2,0,B|344:232,1,80
256,104,233987,2,0,B|256:16,1,80,8|0
256,192,234302,12,4,235566
