osu file format v9

[General]
AudioFilename: Romantic Hero.mp3
AudioLeadIn: 0
PreviewTime: 73566
Countdown: 0
SampleSet: Normal
StackLeniency: 0.7
Mode: 0
LetterboxInBreaks: 0

[Editor]
Bookmarks: 109250,164834,182508
DistanceSpacing: 0.8
BeatDivisor: 4
GridSize: 4

[Metadata]
Title:Romantic Hero
Artist:Megpoid GUMI
Creator:tutuhaha
Version:Normal
Source:Last Note.
Tags:spboxer3 vocaloid vocaloid2 Love Sander-Don

[Difficulty]
HPDrainRate:3
CircleSize:3
OverallDifficulty:3
ApproachRate:5
SliderMultiplier:1.2
SliderTickRate:1

[Events]
//Background and Video events
Video,0,"Romantic Hero.flv"
0,0,"BG.jpg"
//Break Periods
2,13450,27208
2,99345,108050
2,165029,181313
//Storyboard Layer 0 (Background)
//Storyboard Layer 1 (Fail)
//Storyboard Layer 2 (Pass)
//Storyboard Layer 3 (Foreground)
//Storyboard Sound Samples
//Background Colour Transformations
3,100,163,162,255

[TimingPoints]
3145,315.789473684211,4,1,1,55,1,0
33460,-100,4,1,2,50,0,0
35276,-100,4,1,1,50,0,0
35434,-100,4,1,2,50,0,0
43566,-100,4,1,2,60,0,0
45381,-100,4,1,1,60,0,0
45539,-100,4,1,2,60,0,0
47908,-100,4,1,1,60,0,0
48066,-100,4,1,2,60,0,0
50434,-100,4,1,1,60,0,0
50592,-100,4,1,2,60,0,0
53671,-100,4,1,1,50,0,0
63776,-100,4,1,2,55,0,0
69381,-100,4,1,1,55,0,0
69539,-100,4,1,2,55,0,0
73881,-100,4,1,2,70,0,1
74434,-100,4,1,1,70,0,1
74592,-100,4,1,2,70,0,1
74987,-100,4,1,1,70,0,1
77276,-100,4,1,2,70,0,1
77434,-100,4,1,1,70,0,1
79802,-100,4,1,2,70,0,1
79960,-100,4,1,1,70,0,1
86513,-100,4,1,2,70,0,1
92118,-100,4,1,1,70,0,1
92276,-100,4,1,2,70,0,1
95908,-100,4,1,1,70,0,1
96066,-100,4,1,2,70,0,1
99145,-100,4,1,1,55,0,0
110750,-100,4,1,2,55,0,0
110908,-100,4,1,1,55,0,0
113276,-100,4,1,2,55,0,0
113434,-100,4,1,1,55,0,0
115566,-100,4,1,2,55,0,0
119355,-100,4,1,1,50,0,0
129460,-100,4,1,2,50,0,0
130013,-100,4,1,1,50,0,0
130171,-100,4,1,2,50,0,0
131276,-100,4,1,1,50,0,0
131434,-100,4,1,2,50,0,0
133802,-100,4,1,1,50,0,0
133960,-100,4,1,2,50,0,0
136329,-100,4,1,1,50,0,0
136487,-100,4,1,2,50,0,0
138145,-100,4,1,1,50,0,0
139566,-100,4,1,2,70,0,1
140118,-100,4,1,1,70,0,1
142960,-100,4,1,2,70,0,1
143118,-100,4,1,1,70,0,1
145487,-100,4,1,2,70,0,1
145645,-100,4,1,1,70,0,1
152197,-100,4,1,2,70,0,1
157802,-100,4,1,1,70,0,1
157960,-100,4,1,2,70,0,1
161592,-100,4,1,1,70,0,1
161750,-100,4,1,2,70,0,1
164829,-100,4,1,1,55,0,0
185039,-100,4,1,2,50,0,0
191908,-100,4,1,1,50,0,0
192066,-100,4,1,2,50,0,0
193171,-100,4,1,1,50,0,0
193329,-100,4,1,2,50,0,0
202723,-100,4,1,1,50,0,0
203987,-100,4,1,1,60,0,0
210302,-100,4,1,2,70,0,1
211408,-100,4,1,1,70,0,1
214723,-100,4,1,2,70,0,1
221592,-100,4,1,1,70,0,1
221750,-100,4,1,2,70,0,1
222934,-100,4,1,1,70,0,1
224592,-100,4,1,2,70,0,1
230513,-100,4,1,1,70,0,1
235566,-100,4,1,1,55,0,0

[Colours]
Combo1 : 204,26,0
Combo2 : 90,194,46
Combo3 : 49,96,96
Combo4 : 0,0,170

[HitObjects]
144,64,3145,2,0,B|48:108|40:220,3,180,4|8|0|8
180,244,5039,2,0,B|300:244,1,120,0|8
360,320,5671,6,0,B|456:276|464:164,3,180,4|8|0|8
340,104,7566,2,0,B|340:32,2,60,0|0|8
244,96,8197,6,0,B|228:152|164:188,1,120,4|0
124,208,8671,2,0,B|140:268|208:308,1,120,8|0
236,328,9145,2,0,B|436:328,2,180,0|8|0
256,236,10408,1,8
168,196,10723,6,0,B|208:136|276:124,1,120,4|0
296,92,11197,2,0,B|320:152|392:172,1,120,8|0
432,172,11671,2,0,B|432:360,2,180,0|8|0
348,220,12934,1,8
268,272,13250,1,4
176,68,28408,6,0,B|300:68,1,120,4|8
372,124,29039,2,0,B|276:148|240:260,2,180,0|0|8
396,216,30302,1,0
360,304,30618,5,8
360,304,30776,2,0,B|296:232|172:240,1,180,4|8
108,204,31566,2,0,B|108:84,1,120,0|8
196,40,32197,2,0,B|196:176,1,120,0|8
292,180,32829,2,0,B|356:152|380:76,1,120,0|8
440,164,33460,6,0,B|396:252|292:272,1,180,4|0
276,312,34092,2,0,B|152:312,1,120,0|8
96,236,34723,2,0,B|96:168|96:168|108:152|108:152|108:60,2,180,0|0|8
180,192,35987,6,0,B|312:192,1,120,4|8
332,104,36618,2,0,B|452:104,1,120,0|8
460,200,37250,2,0,B|444:296|344:340,1,180
272,284,38039,2,0,B|152:284,1,120,0|0
84,212,38671,6,0,B|84:152,1,60,0|8
148,80,39145,2,0,B|200:40|268:40,1,120,0|8
232,132,39776,2,0,B|272:220|380:236,1,180
428,156,40566,2,0,B|468:92,2,60,0|8|0
408,200,41039,6,0,B|512:272,1,120,4|8
440,340,41671,2,0,B|288:236,1,180
224,168,42460,2,0,B|156:168,1,60,0|8
88,224,42934,2,0,B|100:292|168:324,2,120,0|8|4
184,220,43881,5,8
280,220,44197,2,0,B|420:220,1,120,0|8
440,132,44829,2,0,B|260:132,2,180,0|0|8
468,224,46092,6,0,B|468:352,1,120,4|8
380,304,46723,2,0,B|380:176,1,120,0|8
284,192,47355,2,0,B|192:144|188:40,2,180,0|0|8
200,240,48618,6,0,B|132:240,2,60,4|0|8
292,260,49250,2,0,B|352:232|376:164,1,120,0|8
304,108,49881,2,0,B|348:76|348:76|476:76,2,180,0|0|8
256,192,51145,12,4,53671
172,84,54145,6,0,B|96:84,1,60
80,176,54618,1,0
108,268,54934,2,0,B|164:232|232:248|232:248|232:300|232:300|288:324,1,240
444,212,56197,6,0,B|388:248|320:232|320:232|320:180|320:180|264:156,2,240,4|0|0
404,72,57934,2,0,B|332:72,1,60
256,116,58408,1,0
164,148,58723,6,0,B|92:160|60:224|60:224|112:248|60:320,1,240,4|0
256,292,59987,2,0,B|328:280|360:216|360:216|308:192|360:120,2,240,0|0|4
188,168,61723,2,0,B|128:168,1,60
72,248,62197,6,0,B|72:312,1,60
160,348,62671,2,0,B|212:288|288:288,2,120
152,252,63618,5,0
152,252,63776,2,0,B|152:120,1,120,4|8
232,76,64408,2,0,B|232:196,1,120,0|8
312,144,65039,2,0,B|348:276|492:292,1,240
412,356,65987,6,0,B|348:356,2,60,8|0|4
482,290,66618,1,8
484,196,66934,2,0,B|484:68,1,120,0|8
388,56,67566,5,0
292,60,67881,1,8
248,144,68197,1,0
164,188,68513,1,8
140,280,68829,6,0,B|195:359|295:355,2,180,4|0|8
108,192,70092,2,0,B|228:192,1,120,0|8
300,128,70723,2,0,B|424:128,1,120,0|8
376,40,71355,6,0,B|268:16|192:84,1,180,4|0
172,112,71987,2,0,B|148:204|36:248,1,180
136,292,72776,2,0,B|200:292,1,60,0|8
232,260,73092,2,0,B|308:260,1,60
360,192,73566,1,8
360,192,73881,6,0,B|332:104|224:64,2,180,4|0|8
320,220,74987,2,0,B|224:236|172:324,1,180,0|8
100,256,75776,2,0,B|100:124,1,120,0|8
164,64,76408,6,0,B|292:64,1,120,4|8
312,156,77039,2,0,B|408:136|444:32,2,180,0|0|8
256,236,78302,2,0,B|256:320,2,60,0|0|8
172,192,78934,6,0,B|108:168|88:100,1,120,4|8
160,40,79566,2,0,B|28:172,2,180,0|0|8
240,80,80829,2,0,B|312:80,2,60,0|0|8
192,164,81460,6,0,B|216:228|292:252,1,120,4|8
292,292,81934,2,0,B|304:228|360:188,1,120
404,188,82408,1,8
452,180,82566,6,0,B|452:80|452:80|424:40|364:64,1,180,0|8
284,44,83355,2,0,B|204:136,1,120,0|8
116,96,83987,5,4
64,176,84302,1,8
116,256,84618,1,0
200,304,84934,2,0,B|268:304,1,60,8|0
328,236,85408,2,0,B|388:236,1,60,0|8
444,156,85881,2,0,B|428:92|364:60,1,120,0|8
276,56,86513,6,0,B|240:140|128:164,1,180,4|0
100,188,87145,2,0,B|112:288|212:336,1,180
256,252,87934,2,0,B|256:184,1,60,0|8
352,188,88408,2,0,B|484:188,1,120,0|8
428,104,89039,6,0,B|296:104,1,120,4|8
228,48,89671,2,0,B|132:80|104:188,1,180
108,268,90460,2,0,B|40:268,1,60,0|8
88,356,90934,2,0,B|216:356,1,120,0|8
256,272,91566,6,0,B|344:264|412:184,2,180,4|0|8
232,232,92671,2,0,B|232:104,1,120
204,72,93145,2,0,B|140:80|88:140,2,120,8|0|8
188,168,94092,6,0,B|100:224|96:328,1,180,4|0
192,316,94881,2,0,B|264:316,1,60,0|8
284,224,95355,2,0,B|324:132|436:112,2,180,0|0|8
256,192,96618,12,4,99145
88,64,109250,6,0,B|88:200,1,120,4|8
172,136,109881,2,0,B|172:256,1,120,0|8
256,304,110513,2,0,B|256:232|256:232|312:212|320:148,2,180,0|0|8
352,324,111776,6,0,B|424:324,2,60,4|0|8
388,236,112408,2,0,B|456:236,2,60,0|0|8
416,144,113039,2,0,B|344:144|344:144|320:132|288:104|324:40,2,180
412,48,114302,5,4
416,144,114618,1,8
340,204,114934,1,0
328,300,115250,1,8
248,244,115566,6,0,B|152:244|152:244|108:264|108:264|68:264,1,180
92,168,116355,2,0,B|92:104,1,60,0|8
172,56,116829,6,0,B|248:64|272:136,1,120,4|8
260,216,117460,2,0,B|360:212|400:112,1,180
468,184,118250,2,0,B|468:252,1,60,0|8
400,312,118723,2,0,B|264:312,1,120,0|8
188,320,119355,6,0,B|112:288|140:220|140:220|136:156|56:144,2,240,4|0|0
256,252,120934,2,0,B|256:184,2,60
324,320,121566,1,0
324,320,121881,6,0,B|400:288|372:220|372:220|376:156|456:144,2,240,4|0|0
256,252,123460,1,0
224,160,123776,1,0
136,116,124092,1,0
216,64,124408,6,0,B|304:32|408:48,1,180,4|0
440,64,125039,2,0,B|368:120|360:224,1,180
320,248,125671,2,0,B|244:340,1,120
184,264,126302,2,0,B|108:356,1,120
56,276,126934,6,0,B|120:200|120:200|120:148|164:120,2,180,4|0|0
24,240,128039,2,0,B|24:112,1,120
92,52,128671,2,0,B|228:52,1,120
256,136,129302,5,0
256,136,129460,2,0,B|236:216|144:276,2,180,4|8|8
312,56,130723,2,0,B|392:56|392:56|412:64|412:64|496:64,2,180,0|8|8
340,148,131987,5,4
424,192,132302,1,8
360,264,132618,2,0,B|296:264,1,60
276,308,132934,2,0,B|204:308,1,60,8|0
168,304,133250,2,0,B|124:220|24:192,2,180,0|8|8
208,216,134513,6,0,B|208:168|208:168|220:136|220:136|220:76,1,120,4|8
300,152,135145,2,0,B|300:104|300:104|312:72|312:72|312:12,1,120,0|8
396,80,135776,2,0,B|396:148|396:148|408:180|408:180|408:268,2,180,0|8|8
304,112,137039,6,0,B|304:176,1,60,4|0
284,264,137513,2,0,B|184:360,1,120,8|0
104,320,138144,2,0,B|28:272|28:156,1,180,8|8
108,112,138934,1,0
152,192,139250,1,8
152,192,139566,6,0,B|180:280|288:320,2,180,4|0|8
192,164,140671,2,0,B|288:148|340:60,1,180,0|8
412,128,141460,2,0,B|412:260,1,120,0|8
348,320,142092,6,0,B|220:320,1,120,4|8
200,228,142723,2,0,B|104:248|68:352,2,180,0|0|8
256,148,143987,2,0,B|256:64,2,60,0|0|8
340,192,144618,6,0,B|404:216|424:284,1,120,4|8
352,344,145250,2,0,B|484:212,2,180,0|0|8
272,304,146513,2,0,B|200:304,2,60,0|0|8
320,220,147144,6,0,B|296:156|220:132,1,120,4|8
220,92,147618,2,0,B|208:156|152:196,1,120
108,196,148092,1,8
60,204,148250,6,0,B|60:304|60:304|88:344|148:320,1,180,0|8
228,340,149039,2,0,B|308:248,1,120,0|8
404,292,149671,5,4
448,208,149987,1,8
396,128,150302,1,0
312,80,150618,2,0,B|244:80,1,60,8|0
184,148,151092,2,0,B|124:148,1,60,0|8
68,228,151566,2,0,B|84:292|148:324,1,120,0|8
236,328,152197,6,0,B|272:244|384:220,1,180,4|0
412,196,152829,2,0,B|400:96|300:48,1,180
256,132,153618,2,0,B|256:200,1,60,0|8
160,196,154092,2,0,B|28:196,1,120,0|8
84,280,154723,6,0,B|216:280,1,120,4|8
284,336,155355,2,0,B|380:304|408:196,1,180
404,116,156144,2,0,B|472:116,1,60,0|8
424,28,156618,2,0,B|296:28,1,120,0|8
256,112,157250,6,0,B|168:120|100:200,2,180,0|0|8
280,152,158355,2,0,B|280:280,1,120
308,312,158829,2,0,B|372:304|424:244,2,120,8|0|8
324,216,159776,6,0,B|412:160|416:56,1,180,4|0
320,68,160566,2,0,B|248:68,1,60,0|8
228,160,161039,2,0,B|188:252|76:272,2,180,0|0|8
256,192,162302,12,4,164829
256,192,182513,12,0,184408
400,152,185039,22,0,B|272:152,1,120,4|8
256,60,185671,2,0,B|124:60,1,120,0|8
92,144,186302,2,0,B|92:272,1,120,0|8
180,304,186934,2,0,B|180:212|180:212|224:192|236:144,1,180
308,84,187723,6,0,B|372:84,1,60,0|8
440,148,188197,2,0,B|440:212|376:264,2,120,0|8|0
344,160,189144,1,8
256,196,189460,2,0,B|256:288|256:288|212:308|200:356,1,180
148,272,190250,6,0,B|148:208,1,60,0|8
60,172,190723,2,0,B|88:116|164:88,1,120,0|8
240,64,191355,2,0,B|288:156|400:160,2,180,0|0|8
176,136,192618,6,0,B|128:228|16:232,2,180,4|0|8
240,208,193881,1,0
240,208,194197,1,8
300,280,194513,2,0,B|432:280,1,120,0|8
408,184,195144,6,0,B|404:100|332:56|332:56|312:112|264:120,1,240,4|0
192,68,196092,1,8
100,96,196408,2,0,B|84:168|132:220,1,120,0|8
84,296,197039,2,0,B|160:344|264:324,1,180
348,288,197829,6,0,B|380:224,1,60,0|8
284,196,198302,2,0,B|288:112|360:68|360:68|380:124|428:132,2,240,0|0|0
240,216,199723,2,0,B|204:280|140:300,1,120,8|0
124,204,200355,6,0,B|80:160,1,60,0|8
148,92,200829,1,0
244,72,201144,2,0,B|372:72,2,120,8|0|8
204,160,202092,2,0,B|304:160|304:160|328:196|388:200,1,180
408,168,202723,6,0,B|410:211|446:235|446:235|446:335,2,180,4|8|8
376,76,203987,2,0,B|252:76,1,120,0|8
164,104,204618,2,0,B|164:164,2,60,0|0|8
68,108,205250,6,0,B|68:204|68:204|72:264|116:276,1,180,4|0
228,192,206197,1,8
228,192,206355,2,0,B|324:192|324:192|384:188|396:144,1,180
436,68,207144,1,0
340,52,207460,1,8
256,96,207776,6,0,B|216:44|152:44|152:44|152:80|152:80|116:112|68:104,1,240,4|0
120,188,208723,2,0,B|184:188,1,60,8|0
188,284,209197,2,0,B|248:284,1,60,0|0
344,272,209671,2,0,B|344:136,1,120,0|8
340,56,210302,6,0,B|208:52|120:172,1,240,4|0
100,248,211250,1,8
100,248,211408,2,0,B|196:272|248:356,1,180,0|8
316,288,212197,2,0,B|316:156,1,120,0|8
352,80,212829,6,0,B|404:36|468:56|468:56|448:100|464:124,2,180,4|8|8
308,96,213934,2,0,B|168:96|168:96|124:120,1,180,0|8
44,152,214723,2,0,B|52:224|120:228|120:228|120:272|120:272|184:280|196:328,1,240,0|4
256,240,215671,5,8
325,306,215987,2,0,B|328:280|392:272|392:272|392:228|392:228|460:224|468:152,1,240
404,84,216934,1,8
324,32,217250,2,0,B|200:60|156:200,1,240,0|4
112,272,218197,5,8
204,300,218513,2,0,B|272:240|380:236,1,180
432,164,219302,2,0,B|432:96,1,60,0|8
348,60,219776,2,0,B|260:60|260:60|244:72|244:72|104:72,1,240,0|4
64,156,220723,5,8
104,244,221039,2,0,B|184:244|184:244|200:236|200:236|300:236,2,180,0|0|8
136,336,222302,2,0,B|272:336,1,120,0|8
344,296,222934,6,0,B|416:236|416:128,2,180,4|8|8
296,280,224039,2,0,B|296:192|296:192|288:152|256:136|224:152|216:192|216:192|216:280,1,300
152,352,225144,1,8
136,256,225460,6,0,B|136:172|136:172|144:120|200:80,1,180,4|0
272,40,226250,2,0,B|344:40,1,60,0|8
424,64,226723,2,0,B|424:148|424:148|416:200|360:240,1,180,4|0
288,192,227513,2,0,B|224:192,1,60,0|8
164,120,227987,6,0,B|80:160|60:252|60:252|100:252|112:292,1,240,4|0
200,328,228934,2,0,B|264:328,1,60,8|0
336,268,229408,2,0,B|408:268,1,60,0|8
436,180,229881,2,0,B|316:180,1,120,0|8
264,100,230513,6,0,B|216:104|192:52|192:52|156:48|112:84,2,180,4|8|8
200,172,231776,2,0,B|152:168|128:220|128:220|92:224|48:188,2,180,0|8|8
256,192,233039,12,4,235566
