osu file format v9

[General]
AudioFilename: Romantic Hero.mp3
AudioLeadIn: 0
PreviewTime: 73566
Countdown: 0
SampleSet: Normal
StackLeniency: 1
Mode: 1
LetterboxInBreaks: 0

[Editor]
Bookmarks: 3145,73881,139566,210302
DistanceSpacing: 1
BeatDivisor: 4
GridSize: 32

[Metadata]
Title:Romantic Hero
Artist:Megpoid GUMI
Creator:tutuhaha
Version:Love-Don Taiko
Source:Last Note.
Tags:spboxer3 vocaloid vocaloid2 Love Sander-Don

[Difficulty]
HPDrainRate:5
CircleSize:5
OverallDifficulty:5
ApproachRate:5
SliderMultiplier:1.4
SliderTickRate:1

[Events]
//Background and Video events
Video,0,"Romantic Hero.flv"
0,0,"Taiko BG.png"
//Break Periods
//Storyboard Layer 0 (Background)
//Storyboard Layer 1 (Fail)
//Storyboard Layer 2 (Pass)
//Storyboard Layer 3 (Foreground)
//Storyboard Sound Samples
//Background Colour Transformations
3,100,163,162,255

[TimingPoints]
3145,315.789473684211,4,1,0,100,1,0
73881,-100,4,1,0,100,0,1
99145,-100,4,1,0,100,0,0
99223,-200,4,1,0,100,0,0
108618,-100,4,1,0,100,0,0
139566,-100,4,1,0,100,0,1
164829,-100,4,1,0,100,0,0
210302,-100,4,1,0,100,0,1
235566,-100,4,1,0,100,0,0

[Colours]
Combo1 : 204,26,0
Combo2 : 90,194,46
Combo3 : 49,96,96
Combo4 : 0,0,170

[HitObjects]
320,256,3145,1,4
256,256,3618,1,12
320,256,4092,1,4
256,256,4566,1,12
320,192,4881,1,0
256,256,5039,1,12
256,256,5355,1,12
320,256,5671,1,4
256,256,6144,1,12
320,256,6618,1,4
256,256,7092,1,12
320,192,7408,1,0
256,192,7566,1,8
256,192,7645,1,8
320,192,7723,1,0
320,192,7802,1,0
320,192,7881,1,0
320,192,7960,1,0
320,192,8039,1,0
320,256,8197,1,4
256,256,8670,1,12
320,256,9144,1,4
256,256,9618,1,12
320,192,9933,1,0
256,256,10091,1,12
256,256,10407,1,12
256,256,10723,1,12
320,256,11197,1,4
256,256,11671,1,12
320,256,12145,1,4
320,192,12460,1,0
256,192,12618,1,8
256,192,12697,1,8
256,192,12776,1,8
256,192,12855,1,8
256,192,12934,1,8
256,192,13013,1,8
256,192,13092,1,8
256,192,13171,1,8
320,192,13250,1,0
320,192,13408,1,0
256,192,13566,1,8
320,192,13723,1,0
320,192,13802,1,0
320,192,13881,1,0
320,192,14039,1,0
256,192,14197,1,8
320,256,14355,1,4
320,192,14671,1,0
320,192,14750,1,0
256,192,14829,1,8
256,192,14987,1,8
320,192,15145,1,0
320,192,15223,1,0
320,192,15302,1,0
256,192,15460,1,8
320,256,15618,1,4
320,192,15934,1,0
256,192,16092,1,8
320,192,16250,1,0
256,192,16329,1,8
320,192,16408,1,0
320,192,16566,1,0
256,192,16723,1,8
320,256,16881,1,4
320,192,17197,1,0
256,192,17355,1,8
320,256,17513,1,4
320,192,17829,1,0
256,192,17987,1,8
320,192,18066,1,0
320,192,18145,1,0
320,256,18302,1,4
320,192,18460,1,0
256,192,18618,1,8
320,192,18775,1,0
320,192,18854,1,0
320,192,18933,1,0
320,192,19091,1,0
256,192,19249,1,8
320,256,19407,1,4
320,192,19723,1,0
320,192,19802,1,0
256,192,19881,1,8
256,192,20039,1,8
320,192,20197,1,0
320,192,20275,1,0
320,192,20354,1,0
256,192,20512,1,8
320,256,20670,1,4
320,192,20986,1,0
256,192,21144,1,8
320,192,21302,1,0
256,192,21381,1,8
320,192,21460,1,0
320,192,21618,1,0
256,192,21775,1,8
320,256,21933,1,4
320,192,22250,1,0
320,192,22329,1,0
256,192,22408,1,8
320,192,22566,1,0
256,192,22723,1,8
256,192,22960,1,8
256,192,23197,1,8
320,256,23355,1,4
320,192,23513,1,0
256,192,23671,1,8
320,192,23828,1,0
320,192,23907,1,0
320,192,23986,1,0
320,192,24144,1,0
256,192,24302,1,8
320,256,24460,1,4
320,192,24776,1,0
320,192,24855,1,0
256,192,24934,1,8
256,192,25092,1,8
320,192,25250,1,0
320,192,25328,1,0
320,192,25407,1,0
256,192,25565,1,8
320,256,25723,1,4
320,192,26039,1,0
256,192,26197,1,8
320,192,26355,1,0
256,192,26434,1,8
320,192,26513,1,0
320,192,26671,1,0
256,192,26828,1,8
320,256,26986,1,4
320,192,27302,1,0
256,192,27460,1,8
320,256,27618,1,4
320,192,27776,1,0
320,192,27934,1,0
256,192,28092,1,8
320,192,28171,1,0
320,192,28250,1,0
320,256,28407,1,4
320,192,28566,1,0
256,192,28724,1,8
320,192,28881,1,0
320,192,28960,1,0
320,192,29039,1,0
320,192,29197,1,0
256,192,29355,1,8
320,256,29513,1,4
320,192,29829,1,0
320,192,29908,1,0
256,192,29987,1,8
256,192,30145,1,8
320,192,30303,1,0
320,192,30381,1,0
320,192,30460,1,0
256,192,30618,1,8
256,256,30776,1,12
320,192,31092,1,0
256,192,31250,1,8
320,192,31408,1,0
256,192,31487,1,8
320,192,31566,1,0
320,192,31724,1,0
256,192,31881,1,8
320,256,32039,1,4
320,192,32355,1,0
320,192,32434,1,0
256,192,32513,1,8
320,192,32671,1,0
256,192,32829,1,8
256,192,32908,1,8
256,192,32987,1,8
256,192,33066,1,8
256,192,33145,1,8
256,192,33223,1,8
256,192,33302,1,8
256,192,33381,1,8
320,192,33460,1,0
320,192,33618,1,0
256,192,33776,1,8
320,192,33934,1,0
320,192,34250,1,0
256,192,34408,1,8
320,192,34566,1,0
320,192,34645,1,0
320,192,34723,1,0
320,192,34881,1,0
256,192,35039,1,8
320,192,35197,1,0
320,192,35513,1,0
256,192,35671,1,8
320,192,35829,1,0
320,192,35908,1,0
320,192,35987,1,0
320,192,36145,1,0
256,192,36302,1,8
320,192,36460,1,0
320,192,36776,1,0
256,192,36934,1,8
320,192,37092,1,0
320,192,37171,1,0
320,192,37250,1,0
320,192,37407,1,0
256,192,37565,1,8
320,192,37723,1,0
320,192,38039,1,0
256,192,38197,1,8
256,192,38355,1,8
320,256,38513,1,4
320,192,38671,1,0
256,192,38828,1,8
320,192,38986,1,0
320,192,39302,1,0
256,192,39460,1,8
320,192,39618,1,0
256,192,39697,1,8
320,192,39776,1,0
320,192,39933,1,0
256,192,40091,1,8
320,192,40249,1,0
320,192,40565,1,0
256,192,40723,1,8
320,192,40881,1,0
320,192,40960,1,0
320,192,41039,1,0
320,192,41197,1,0
256,192,41354,1,8
320,192,41512,1,0
320,192,41829,1,0
256,192,41987,1,8
320,192,42145,1,0
320,192,42460,1,0
256,192,42618,1,8
320,192,42776,1,0
320,256,42934,1,4
320,192,43092,1,0
256,192,43250,1,8
320,192,43408,1,0
320,256,43566,1,4
320,192,43723,1,0
256,192,43881,1,8
256,192,44039,1,8
320,192,44197,1,0
320,192,44355,1,0
256,192,44513,1,8
320,192,44671,1,0
320,192,44829,1,0
320,192,44987,1,0
256,192,45145,1,8
320,192,45302,1,0
320,192,45381,1,0
320,192,45460,1,0
320,192,45618,1,0
256,192,45776,1,8
320,192,45934,1,0
256,192,46013,1,8
320,192,46092,1,0
256,192,46408,1,8
256,192,46566,1,8
320,192,46724,1,0
320,192,46882,1,0
256,192,47040,1,8
320,192,47198,1,0
320,192,47356,1,0
320,192,47514,1,0
320,192,47592,1,0
256,192,47672,1,8
256,192,47829,1,8
320,192,47987,1,0
320,192,48145,1,0
256,192,48303,1,8
320,192,48461,1,0
256,192,48540,1,8
320,192,48619,1,0
256,192,48934,1,8
256,192,49092,1,8
320,192,49250,1,0
320,192,49408,1,0
256,192,49566,1,8
320,192,49724,1,0
320,192,49882,1,0
320,192,50040,1,0
256,192,50198,1,8
320,192,50355,1,0
320,192,50434,1,0
320,192,50513,1,0
256,192,50592,1,8
320,192,50671,1,0
256,192,50829,1,8
320,192,50987,1,0
256,192,51066,1,8
320,192,51145,1,0
320,192,51302,1,0
256,192,51460,1,8
256,192,51618,1,8
320,192,51776,1,0
320,192,51934,1,0
256,192,52092,1,8
320,192,52250,1,0
256,192,52408,1,8
256,192,52566,1,8
320,192,52723,1,0
320,192,52881,1,0
256,192,53039,1,8
256,192,53197,1,8
256,192,53276,1,8
256,192,53355,1,8
320,192,53434,1,0
320,192,53513,1,0
320,192,53671,1,0
320,192,53829,1,0
320,192,54145,1,0
320,192,54223,1,0
256,192,54302,1,8
256,192,54776,1,8
320,192,54934,1,0
320,192,55092,1,0
320,192,55408,1,0
320,192,55487,1,0
256,192,55566,1,8
320,256,56197,1,4
320,192,56355,1,0
320,192,56671,1,0
320,192,56750,1,0
256,192,56829,1,8
320,256,57460,1,4
320,192,57618,1,0
320,192,57934,1,0
320,192,58013,1,0
256,192,58092,1,8
256,192,58566,1,8
320,192,58723,1,0
320,192,58881,1,0
320,192,59197,1,0
320,192,59276,1,0
256,192,59355,1,8
256,192,59829,1,8
320,192,59987,1,0
320,192,60145,1,0
320,192,60460,1,0
320,192,60539,1,0
256,192,60618,1,8
320,256,61250,1,4
320,192,61408,1,0
320,192,61723,1,0
320,192,61802,1,0
256,192,61881,1,8
256,192,62197,1,8
256,192,62355,1,8
320,192,62513,1,0
320,192,62671,1,0
320,192,62987,1,0
320,192,63066,1,0
256,192,63145,1,8
320,192,63302,1,0
320,192,63381,1,0
256,192,63460,1,8
256,192,63539,1,8
256,192,63618,1,8
256,192,63697,1,8
320,192,63776,1,0
320,192,63934,1,0
256,192,64092,1,8
256,192,64250,1,8
320,192,64408,1,0
320,192,64487,1,0
320,192,64566,1,0
256,192,64723,1,8
320,192,64881,1,0
320,256,65039,1,4
320,192,65197,1,0
256,192,65355,1,8
256,192,65513,1,8
320,192,65671,1,0
320,192,65750,1,0
320,192,65829,1,0
256,192,65987,1,8
320,192,66145,1,0
256,192,66223,1,8
320,192,66302,1,0
320,192,66460,1,0
256,192,66618,1,8
256,192,66776,1,8
320,192,66934,1,0
320,192,67013,1,0
320,192,67092,1,0
256,192,67250,1,8
320,256,67566,1,4
320,192,67723,1,0
256,192,67881,1,8
256,192,68039,1,8
320,192,68197,1,0
320,192,68355,1,0
256,192,68513,1,8
256,192,68592,1,8
256,192,68671,1,8
256,192,68750,1,8
320,192,68829,1,0
320,192,68987,1,0
256,192,69145,1,8
256,192,69302,1,8
320,192,69460,1,0
320,192,69539,1,0
320,192,69618,1,0
256,192,69776,1,8
320,192,69934,1,0
320,256,70092,1,4
320,192,70250,1,0
256,192,70408,1,8
256,192,70566,1,8
320,192,70723,1,0
320,192,70881,1,0
256,192,71039,1,8
320,192,71197,1,0
256,192,71276,1,8
320,192,71355,1,0
320,192,71513,1,0
256,192,71671,1,8
256,192,71829,1,8
320,192,71987,1,0
320,192,72145,1,0
256,192,72302,1,8
320,192,72460,1,0
320,256,72618,1,4
320,256,72776,1,4
320,256,72934,1,4
320,256,73092,1,4
320,256,73250,1,4
256,256,73566,1,12
256,192,73881,5,12
256,192,74039,1,0
256,192,74197,1,8
256,192,74355,1,0
256,192,74513,1,8
256,192,74671,1,0
256,192,74829,1,8
256,192,74987,1,0
256,192,75145,1,8
256,192,75302,1,0
256,192,75460,1,8
256,192,75618,1,0
256,192,75776,1,8
256,192,75855,1,0
256,192,76013,1,0
256,192,76092,1,8
256,192,76250,1,8
256,192,76408,1,12
256,192,76566,1,0
256,192,76723,1,8
256,192,76881,1,0
256,192,77039,1,8
256,192,77197,1,0
256,192,77355,1,8
256,192,77513,1,0
256,192,77671,1,8
256,192,77829,1,0
256,192,77987,1,8
256,192,78145,1,0
256,192,78302,1,8
256,192,78381,1,8
256,192,78460,1,0
256,192,78539,1,0
256,192,78618,1,8
256,192,78776,1,8
256,192,78934,1,12
256,192,79092,1,0
256,192,79250,1,8
256,192,79408,1,0
256,192,79566,1,8
256,192,79723,1,0
256,192,79802,1,0
256,192,79881,1,8
256,192,80039,1,0
256,192,80197,1,8
256,192,80355,1,0
256,192,80513,1,8
256,192,80671,1,0
256,192,80829,1,8
256,192,80908,1,0
256,192,81066,1,0
256,192,81145,1,8
256,192,81302,1,0
256,192,81460,1,12
256,192,81618,1,0
256,192,81776,1,0
256,192,81934,1,12
256,192,82092,1,0
256,192,82250,1,0
256,192,82408,1,12
256,192,82566,1,0
256,192,82881,1,0
256,192,83039,1,8
256,192,83197,1,0
256,192,83355,1,0
256,192,83434,1,0
256,192,83513,1,0
256,192,83592,1,0
256,192,83671,1,8
256,192,83750,1,8
256,192,83829,1,8
256,192,83987,1,4
256,192,84145,1,0
256,192,84302,1,8
256,192,84460,1,0
256,192,84618,1,8
256,192,84776,1,0
256,192,84934,1,8
256,192,85092,1,0
256,192,85250,1,8
256,192,85408,1,0
256,192,85566,1,8
256,192,85723,1,0
256,192,85881,1,8
256,192,85960,1,0
256,192,86118,1,0
256,192,86197,1,8
256,192,86355,1,8
256,192,86513,1,12
256,192,86671,1,0
256,192,86829,1,8
256,192,86987,1,0
256,192,87145,1,8
256,192,87302,1,0
256,192,87460,1,8
256,192,87618,1,0
256,192,87776,1,8
256,192,87934,1,0
256,192,88092,1,8
256,192,88250,1,0
256,192,88408,1,8
256,192,88487,1,8
256,192,88566,1,0
256,192,88645,1,0
256,192,88723,1,8
256,192,88881,1,8
256,192,89039,1,12
256,192,89197,1,0
256,192,89355,1,8
256,192,89513,1,0
256,192,89671,1,8
256,192,89750,1,0
256,192,89908,1,0
256,192,89987,1,8
256,192,90145,1,8
256,192,90302,1,0
256,192,90460,1,0
256,192,90618,1,8
256,192,90776,1,0
256,192,90934,1,8
256,192,91013,1,8
256,192,91092,1,0
256,192,91171,1,0
256,192,91250,1,8
256,192,91329,1,8
256,192,91408,1,8
256,192,91566,1,12
256,192,91723,1,0
256,192,91881,1,0
256,192,92039,1,12
256,192,92197,1,0
256,192,92355,1,0
256,192,92513,1,12
256,192,92671,1,0
256,192,92987,1,0
256,192,93145,1,8
256,192,93302,1,0
256,192,93460,1,0
256,192,93539,1,0
256,192,93618,1,0
256,192,93697,1,0
256,192,93776,1,8
256,192,93855,1,8
256,192,93934,1,8
256,192,94013,1,8
256,192,94092,1,0
256,192,94250,1,0
256,192,94408,1,8
256,192,94566,1,0
256,192,94645,1,0
256,192,94802,1,0
256,192,94881,1,0
256,192,95039,1,8
256,192,95197,1,0
256,192,95355,1,0
256,192,95434,1,0
256,192,95513,1,0
256,192,95671,1,8
256,192,95829,1,0
256,192,95908,1,0
256,192,96066,1,8
256,192,96145,1,0
256,192,96302,1,8
256,192,96381,1,8
256,192,96460,1,0
256,192,96539,1,8
256,192,96618,1,0
256,192,96776,1,0
256,192,96934,1,8
256,192,97092,1,0
256,192,97171,1,0
256,192,97250,1,8
256,192,97408,1,4
256,192,97566,1,8
256,192,97723,1,4
256,192,97881,1,8
256,192,98039,1,0
256,192,98197,1,8
256,192,98355,1,0
256,192,98513,1,0
256,192,98592,1,0
256,192,98671,1,0
256,192,98750,1,0
256,192,98829,1,8
256,192,98908,1,8
256,192,98987,1,8
256,188,99145,1,4
256,192,99776,1,8
256,192,100250,1,0
256,192,100566,1,8
256,188,100723,1,0
256,192,101039,1,8
256,192,101197,1,0
256,192,101513,1,0
256,192,101671,1,0
256,188,102302,1,8
256,192,102776,1,0
256,192,103092,1,0
256,192,103250,1,0
256,188,103566,1,8
248,160,103723,1,0
248,160,104197,1,0
248,160,104355,1,0
248,160,104829,1,8
248,160,105302,1,0
248,160,105460,1,0
248,160,105618,1,8
248,160,105776,1,0
248,160,106092,1,8
248,160,106250,1,0
248,160,106566,1,0
248,160,106723,1,0
248,160,107355,1,8
248,160,107829,1,0
248,160,108145,1,0
248,160,108302,1,0
248,160,108618,1,8
256,192,108776,1,0
256,192,108855,1,0
256,192,108934,1,8
256,192,109013,1,8
256,192,109092,1,8
256,192,109250,1,4
256,192,109408,1,0
256,192,109566,1,8
256,192,109723,1,0
256,192,109881,1,0
256,192,110039,1,0
256,192,110197,1,8
256,192,110355,1,0
256,192,110513,1,0
256,192,110592,1,0
256,192,110671,1,0
256,192,110829,1,8
256,192,110987,1,0
256,192,111066,1,0
256,192,111223,1,8
256,192,111302,1,0
256,192,111460,1,8
256,192,111618,1,0
256,192,111697,1,0
256,192,111776,1,0
256,192,111934,1,0
256,192,112092,1,8
256,192,112250,1,0
256,192,112408,1,0
256,192,112487,1,0
256,192,112566,1,0
256,192,112723,1,8
256,192,112881,1,0
256,192,113039,1,0
256,192,113197,1,0
256,192,113355,1,8
256,192,113513,1,0
256,192,113592,1,0
256,192,113750,1,8
256,192,113829,1,0
256,192,113987,1,8
256,192,114066,1,8
256,192,114145,1,0
256,192,114223,1,8
256,192,114302,1,0
256,192,114460,1,0
256,192,114618,1,8
256,192,114776,1,0
256,192,114855,1,0
256,192,115013,1,0
256,192,115092,1,0
256,192,115171,1,0
256,192,115250,1,8
256,192,115408,1,0
256,192,115487,1,0
256,192,115566,1,0
256,192,115723,1,0
256,192,115881,1,8
256,192,116039,1,0
256,192,116118,1,0
256,192,116276,1,8
256,192,116355,1,0
256,192,116434,1,0
256,192,116513,1,8
256,192,116671,1,0
256,192,116750,1,8
256,192,116829,1,0
256,192,116987,1,0
256,192,117066,1,0
256,192,117145,1,8
256,192,117302,1,0
256,192,117381,1,0
256,192,117539,1,0
256,192,117618,1,0
256,192,117776,1,8
256,192,117934,1,0
236,160,118092,1,4
236,160,118250,1,8
236,160,118408,1,0
236,160,118566,1,0
236,160,118723,1,8
236,160,118802,1,8
236,160,118881,1,0
236,160,118960,1,0
236,160,119039,1,8
236,160,119118,1,8
236,160,119197,1,0
236,160,119355,1,4
236,160,119513,1,0
236,160,119829,1,0
236,160,119908,1,0
236,160,119987,1,8
236,160,120460,1,8
236,160,120618,1,0
236,160,120776,1,0
236,160,121092,1,0
236,160,121171,1,0
236,160,121250,1,8
236,160,121881,1,0
236,160,122039,1,0
236,160,122355,1,0
236,160,122434,1,0
236,160,122513,1,8
236,160,122987,1,8
236,160,123145,1,0
236,160,123302,1,8
236,160,123618,1,0
236,160,123697,1,0
236,160,123776,1,8
236,160,124092,1,0
236,160,124250,1,8
236,160,124408,1,4
236,160,124566,1,0
236,160,124881,1,0
236,160,124960,1,0
236,160,125039,1,8
236,160,125513,1,8
236,160,125671,1,0
236,160,125829,1,0
236,160,126145,1,0
236,160,126223,1,0
236,160,126302,1,8
236,160,126934,1,0
236,160,127092,1,0
236,160,127408,1,0
236,160,127487,1,0
236,160,127566,1,8
236,160,128197,1,0
236,160,128355,1,0
236,160,128671,1,0
236,160,128750,1,0
236,160,128829,1,8
236,160,128987,1,0
236,160,129066,1,0
236,160,129145,1,8
236,160,129223,1,8
236,160,129302,1,8
236,160,129381,1,8
236,160,129460,1,0
236,160,129618,1,0
236,160,129776,1,8
236,160,129934,1,8
236,160,130092,1,0
236,160,130250,1,0
236,160,130408,1,8
236,160,130566,1,0
236,160,130723,1,0
236,160,130881,1,0
236,160,131039,1,8
236,160,131197,1,8
236,160,131355,1,0
236,160,131513,1,0
236,160,131671,1,8
236,160,131829,1,0
236,160,131987,1,0
236,160,132145,1,0
236,160,132302,1,8
236,160,132460,1,8
236,160,132618,1,0
236,160,132776,1,0
236,160,132934,1,8
236,160,133092,1,0
236,160,133250,1,0
236,160,133408,1,0
236,160,133566,1,8
236,160,133723,1,8
236,160,133881,1,0
236,160,133960,1,0
236,160,134039,1,0
236,160,134118,1,0
236,160,134197,1,8
236,160,134276,1,8
236,160,134355,1,8
236,160,134434,1,8
236,160,134513,1,0
236,160,134671,1,0
236,160,134829,1,8
236,160,134987,1,8
236,160,135145,1,0
236,160,135302,1,0
236,160,135460,1,8
236,160,135618,1,0
236,160,135776,1,0
236,160,135934,1,0
236,160,136092,1,8
236,160,136250,1,8
236,160,136408,1,0
236,160,136566,1,0
236,160,136723,1,8
236,160,136881,1,0
236,160,136960,1,0
236,160,137039,1,0
236,160,137197,1,0
236,160,137355,1,8
236,160,137513,1,8
236,160,137671,1,0
236,160,137829,1,0
236,160,137987,1,8
236,160,138145,1,0
236,160,138302,1,12
236,160,138460,1,12
236,160,138618,1,12
236,160,138776,1,4
236,160,138934,1,12
236,160,139250,1,8
236,160,139566,1,4
320,192,139723,5,0
320,192,139802,1,0
256,192,139881,1,8
320,192,140039,1,0
256,192,140197,1,8
320,192,140355,1,0
320,192,140434,1,0
256,192,140513,1,8
320,192,140671,1,0
256,192,140829,1,8
320,192,140987,1,0
320,192,141066,1,0
256,192,141145,1,8
320,192,141302,1,0
256,192,141460,1,8
320,192,141618,1,0
320,192,141697,1,0
256,192,141776,1,8
256,192,141934,1,8
320,256,142092,1,4
320,192,142250,1,0
320,192,142329,1,0
256,192,142408,1,8
320,192,142566,1,0
256,192,142724,1,8
320,192,142882,1,0
320,192,142961,1,0
256,192,143040,1,8
320,192,143198,1,0
256,192,143356,1,8
320,192,143435,1,0
320,192,143593,1,0
256,192,143672,1,8
320,192,143829,1,0
256,192,143987,1,8
320,192,144145,1,0
320,192,144224,1,0
256,192,144303,1,8
256,192,144461,1,8
320,256,144619,1,4
320,192,144776,1,0
320,192,144855,1,0
256,192,144934,1,8
320,192,145092,1,0
256,192,145250,1,8
320,192,145408,1,0
320,192,145487,1,0
256,192,145566,1,8
320,192,145723,1,0
256,192,145881,1,8
320,192,145960,1,0
320,192,146118,1,0
256,192,146197,1,8
320,192,146355,1,0
256,192,146513,1,8
256,192,146592,1,8
320,192,146671,1,0
256,192,146829,1,8
320,192,146987,1,0
256,256,147145,1,12
320,192,147302,1,0
320,192,147460,1,0
256,256,147618,1,12
320,192,147775,1,0
320,192,147933,1,0
256,192,148092,1,8
320,256,148250,1,4
320,192,148566,1,0
320,192,148645,1,0
256,192,148723,1,8
256,192,148881,1,8
320,192,149039,1,0
320,192,149118,1,0
320,192,149197,1,0
320,192,149276,1,0
256,192,149355,1,8
256,192,149434,1,8
256,192,149513,1,8
256,192,149592,1,8
320,192,149671,1,0
320,192,149829,5,0
320,192,149908,1,0
256,192,149987,1,8
320,192,150145,1,0
256,192,150303,1,8
320,192,150461,1,0
320,192,150540,1,0
256,192,150619,1,8
320,192,150777,1,0
256,192,150935,1,8
320,192,151093,1,0
320,192,151172,1,0
256,192,151251,1,8
320,192,151408,1,0
256,192,151566,1,8
320,192,151724,1,0
320,192,151803,1,0
256,192,151882,1,8
256,192,152040,1,8
320,256,152198,1,4
320,192,152356,1,0
320,192,152435,1,0
256,192,152514,1,8
320,192,152672,1,0
256,192,152830,1,8
320,192,152988,1,0
320,192,153067,1,0
256,192,153146,1,8
320,192,153302,1,0
256,192,153460,1,8
320,192,153539,1,0
320,192,153697,1,0
256,192,153776,1,8
320,192,153935,1,0
256,192,154093,1,8
320,192,154251,1,0
320,192,154330,1,0
256,192,154409,1,8
256,192,154567,1,8
320,256,154723,1,4
320,192,154882,1,0
320,192,154961,1,0
256,192,155040,1,8
320,192,155198,1,0
256,192,155356,1,8
320,192,155514,1,0
320,192,155593,1,0
256,192,155672,1,8
320,192,155829,1,0
256,192,155987,1,8
320,192,156066,1,0
320,192,156224,1,0
256,192,156303,1,8
320,192,156461,1,0
256,192,156619,1,8
256,192,156698,1,8
320,192,156777,1,0
256,192,156935,1,8
320,192,157093,1,0
256,256,157251,1,12
320,192,157408,1,0
320,192,157566,1,0
256,256,157724,1,12
320,192,157881,1,0
320,192,158039,1,0
256,192,158198,1,8
320,256,158356,1,4
320,192,158672,1,0
320,192,158751,1,0
256,192,158829,1,8
256,192,158987,1,8
320,192,159145,1,0
320,192,159224,1,0
320,192,159303,1,0
320,192,159382,1,0
256,192,159461,1,8
256,192,159540,1,8
256,192,159619,1,8
256,192,159698,1,8
320,192,159777,1,0
320,192,159934,1,0
256,192,160092,1,8
320,192,160250,1,0
256,192,160329,1,8
320,192,160408,1,0
320,192,160566,1,0
256,192,160723,1,8
320,192,160881,1,0
320,256,161039,1,4
256,192,161355,1,8
320,192,161513,1,0
256,192,161592,1,8
320,192,161671,1,0
320,192,161829,1,0
256,192,161987,1,8
320,192,162145,1,0
320,256,162302,1,4
320,192,162460,1,0
320,192,162539,1,0
256,192,162618,1,8
320,192,162776,1,0
256,192,162934,1,8
320,192,163092,1,0
320,192,163171,1,0
256,192,163250,1,8
320,256,163408,1,4
320,192,163723,1,0
320,192,163802,1,0
256,192,163881,1,8
320,192,164039,1,0
256,192,164197,1,8
320,192,164355,1,0
320,192,164434,1,0
256,192,164513,1,8
256,192,164592,1,8
256,192,164671,1,8
256,192,164750,1,8
256,192,164829,1,8
256,192,164987,1,8
320,192,165145,1,0
320,192,165302,1,0
256,192,165460,1,8
320,192,165618,1,0
32,32,165934,2,0,B|192:32,1,140
256,192,166408,1,8
320,192,166566,1,0
256,192,166723,1,8
256,192,166881,1,8
32,32,167197,2,0,B|192:32,1,140
256,192,167671,1,8
320,192,167829,1,0
320,192,167908,1,0
256,192,167987,1,8
320,192,168145,1,0
320,192,168223,1,0
320,192,168302,1,0
320,192,168460,1,0
256,192,168618,1,8
320,192,168776,1,0
256,192,168934,1,8
32,32,169092,2,0,B|192:32,1,140
256,192,169566,1,8
320,192,169645,1,0
320,192,169723,1,0
320,192,169802,1,0
320,192,169881,1,0
320,192,170039,1,0
256,192,170197,1,8
320,192,170355,1,0
256,192,170513,1,8
320,192,170671,1,0
256,192,170829,1,8
32,32,170987,2,0,B|192:32,1,140
256,192,171460,1,8
320,192,171539,1,0
320,192,171618,1,0
320,192,171697,1,0
256,192,171776,1,8
320,192,171934,1,0
320,192,172013,1,0
256,192,172092,1,8
320,192,172250,1,0
320,192,172408,1,0
256,192,172723,1,8
320,192,172881,1,0
320,192,173197,1,0
256,192,173355,1,8
320,192,173513,1,0
320,192,173592,1,0
256,192,173671,1,8
256,192,173750,1,8
320,192,173829,1,0
320,192,173908,1,0
320,192,173987,1,0
256,192,174145,1,8
320,192,174302,1,0
256,192,174381,1,8
256,192,174460,1,8
320,192,174539,1,0
256,192,174618,1,8
256,192,174697,1,8
320,192,174776,1,0
256,192,174855,1,8
320,192,174934,1,0
320,192,175092,1,0
320,192,175171,1,0
256,192,175250,1,8
320,192,175408,1,0
320,192,175487,1,0
256,192,175566,1,8
320,192,175723,1,0
320,192,175802,1,0
256,192,175881,1,8
320,256,176039,1,4
320,192,176355,1,0
320,192,176434,1,0
256,192,176513,1,8
320,192,176671,1,0
320,192,176750,1,0
256,192,176829,1,8
320,192,176987,1,0
320,192,177066,1,0
256,192,177145,1,8
256,256,177302,1,12
320,192,177618,1,0
256,256,177776,1,12
320,192,177934,1,0
256,256,178092,1,12
320,192,178250,1,0
256,256,178408,1,12
320,256,178566,1,4
320,192,178881,1,0
320,192,178960,1,0
256,192,179039,1,8
320,192,179197,1,0
256,192,179355,1,8
320,192,179513,1,0
320,192,179592,1,0
256,192,179671,1,8
256,192,179750,1,8
256,192,179829,1,8
256,192,179908,1,8
320,192,179987,1,0
256,192,180303,1,8
320,192,180461,1,0
320,192,180540,1,0
256,192,180619,1,8
320,192,180776,1,0
320,192,180855,1,0
256,192,180934,1,8
320,256,181092,1,4
320,192,181408,1,0
320,192,181487,1,0
256,192,181566,1,8
320,192,181724,1,0
320,192,181803,1,0
256,192,181882,1,8
320,192,182040,1,0
320,192,182119,1,0
256,192,182198,1,8
256,256,182355,1,12
320,192,182671,1,0
256,256,182829,1,12
320,192,182987,1,0
256,256,183145,1,12
320,192,183303,1,0
256,256,183461,1,12
320,256,183619,1,4
320,192,183934,1,0
320,192,184013,1,0
256,192,184092,1,8
320,192,184250,1,0
320,192,184408,1,0
320,192,184487,1,0
320,192,184566,1,0
320,192,184645,1,0
256,192,184724,1,8
256,192,184803,1,8
256,192,184882,1,8
256,192,184961,1,8
320,192,185040,1,0
320,192,185197,1,0
256,192,185355,1,8
320,192,185513,1,0
256,192,185592,1,8
320,192,185671,1,0
320,192,185829,1,0
256,192,185987,1,8
320,192,186145,1,0
320,192,186223,1,0
320,192,186302,1,0
320,192,186460,1,0
256,192,186618,1,8
320,192,186776,1,0
256,192,186855,1,8
320,192,186934,1,0
320,192,187092,1,0
256,192,187250,1,8
320,192,187408,1,0
320,256,187566,1,4
256,192,187881,1,8
320,192,188039,1,0
256,192,188118,1,8
320,192,188197,1,0
320,192,188355,1,0
256,192,188513,1,8
320,192,188671,1,0
320,192,188749,1,0
320,192,188828,1,0
320,192,188987,1,0
256,192,189145,1,8
320,192,189223,1,0
320,192,189303,1,0
256,192,189382,1,8
320,192,189461,1,0
320,192,189619,1,0
256,192,189777,1,8
320,192,189935,1,0
320,256,190092,1,4
256,192,190408,1,8
320,192,190566,1,0
256,192,190645,1,8
320,192,190724,1,0
320,192,190882,1,0
256,192,191040,1,8
320,192,191198,1,0
320,192,191276,1,0
320,192,191355,1,0
320,192,191513,1,0
256,192,191671,1,8
320,192,191829,1,0
256,192,191908,1,8
320,192,191987,1,0
320,192,192066,1,0
320,192,192145,1,0
256,192,192303,1,8
320,192,192461,1,0
320,256,192618,1,4
256,192,192934,1,8
320,192,193092,1,0
256,192,193171,1,8
320,192,193250,1,0
320,192,193408,1,0
256,192,193566,1,8
320,192,193724,1,0
320,192,193802,1,0
320,192,193881,1,0
320,192,194039,1,0
256,192,194197,1,8
320,192,194355,1,0
256,192,194434,1,8
320,192,194513,1,0
320,192,194671,1,0
256,192,194829,1,8
320,192,194987,1,0
320,192,195065,1,0
320,192,195144,1,0
256,192,195460,1,8
320,192,195618,1,0
256,192,195697,1,8
320,192,195776,1,0
320,192,195934,1,0
256,192,196092,1,8
320,192,196250,1,0
320,192,196328,1,0
320,192,196407,1,0
320,192,196565,1,0
256,192,196723,1,8
320,192,196881,1,0
256,192,196960,1,8
320,192,197039,1,0
320,192,197197,1,0
256,192,197355,1,8
320,192,197513,1,0
320,256,197671,1,4
256,192,197986,1,8
320,192,198144,1,0
256,192,198223,1,8
320,192,198302,1,0
320,192,198460,1,0
256,192,198618,1,8
320,192,198776,1,0
320,192,198854,1,0
320,192,198933,1,0
320,192,199092,1,0
256,192,199250,1,8
320,192,199328,1,0
320,192,199408,1,0
256,192,199487,1,8
320,192,199566,1,0
320,192,199724,1,0
256,192,199882,1,8
320,192,200040,1,0
320,256,200197,1,4
256,192,200513,1,8
320,192,200671,1,0
256,192,200750,1,8
320,192,200829,1,0
320,192,200987,1,0
256,192,201145,1,8
320,192,201303,1,0
320,192,201381,1,0
320,192,201460,1,0
320,192,201618,1,0
256,192,201776,1,8
320,192,201934,1,0
256,192,202013,1,8
320,192,202092,1,0
320,192,202171,1,0
320,192,202250,1,0
256,192,202408,1,8
320,192,202566,1,0
320,256,202723,1,4
256,192,203039,1,8
320,192,203197,1,0
256,192,203276,1,8
320,192,203355,1,0
320,192,203513,1,0
256,192,203671,1,8
320,192,203750,1,0
320,192,203829,1,0
320,256,203987,1,4
320,256,204145,1,4
320,256,204302,1,4
320,256,204460,1,4
320,256,204618,1,4
256,192,204934,1,8
256,256,205250,1,12
256,256,205408,1,12
256,256,206197,1,12
320,256,206355,1,4
320,256,206671,1,4
256,256,207460,1,12
256,256,207776,1,12
256,256,207934,1,12
256,256,208723,1,12
256,256,208881,1,12
256,256,209197,1,12
320,192,209671,1,0
320,192,209750,1,0
320,192,209829,1,0
320,192,209908,1,0
256,192,209987,1,8
256,192,210066,1,8
256,192,210145,1,8
256,192,210302,5,4
256,192,210460,1,0
256,192,210618,1,8
256,192,210776,1,0
256,192,210934,1,8
256,192,211092,1,0
256,192,211250,1,8
256,192,211408,1,0
256,192,211566,1,8
256,192,211723,1,0
256,192,211881,1,8
256,192,212039,1,0
256,192,212197,1,8
256,192,212276,1,0
256,192,212434,1,0
256,192,212513,1,8
256,192,212671,1,8
256,192,212829,1,12
256,192,212987,1,0
256,192,213145,1,0
256,192,213302,1,12
256,192,213460,1,0
256,192,213618,1,0
256,192,213776,1,12
256,192,213934,1,0
256,192,214250,1,0
256,192,214408,1,8
256,192,214566,1,0
256,192,214723,1,0
256,192,214802,1,0
256,192,214881,1,0
256,192,214960,1,0
256,192,215039,1,8
256,192,215118,1,8
256,192,215197,1,8
256,192,215355,1,4
256,192,215513,1,0
256,192,215671,1,8
256,192,215829,1,0
256,192,215987,1,8
256,192,216145,1,0
256,192,216302,1,8
256,192,216460,1,0
256,192,216618,1,8
256,192,216776,1,0
256,192,216934,1,8
256,192,217092,1,0
256,192,217250,1,8
256,192,217329,1,0
256,192,217487,1,0
256,192,217566,1,8
256,192,217723,1,8
256,192,217881,1,12
256,192,218039,1,0
256,192,218197,1,8
256,192,218355,1,0
256,192,218513,1,8
256,192,218671,1,0
256,192,218829,1,8
256,192,218987,1,0
256,192,219145,1,8
256,192,219302,1,0
256,192,219460,1,8
256,192,219618,1,0
256,192,219776,1,8
256,192,219855,1,8
256,192,219934,1,0
256,192,220013,1,0
256,192,220092,1,8
256,192,220171,1,8
256,192,220250,1,8
256,192,220329,1,8
256,192,220408,1,0
256,192,220566,1,0
256,192,220723,1,8
256,192,220881,1,0
256,192,221039,1,8
256,192,221197,1,0
256,192,221355,1,8
256,192,221513,1,0
256,192,221671,1,8
256,192,221829,1,0
256,192,221987,1,8
256,192,222145,1,0
256,192,222302,1,0
256,192,222381,1,0
256,192,222460,1,0
256,192,222539,1,0
256,192,222618,1,8
256,192,222697,1,8
256,192,222776,1,8
244,192,222934,5,12
244,192,223092,1,0
244,192,223250,1,0
244,192,223408,1,12
244,192,223566,1,0
244,192,223723,1,0
244,192,223881,1,12
244,192,224039,1,0
244,192,224355,1,0
244,192,224513,1,8
244,192,224671,1,0
244,192,224829,1,0
244,192,224908,1,0
244,192,224987,1,0
244,192,225066,1,0
244,192,225145,1,8
244,192,225223,1,8
244,192,225302,1,8
244,192,225381,1,8
244,192,225460,1,0
244,192,225618,1,0
244,192,225776,1,8
244,192,225934,1,0
244,192,226013,1,0
244,192,226171,1,0
244,192,226250,1,0
244,192,226408,1,8
244,192,226566,1,0
244,192,226723,1,0
244,192,226802,1,0
244,192,226881,1,0
244,192,227039,1,8
244,192,227197,1,0
244,192,227276,1,0
244,192,227434,1,8
244,192,227513,1,0
244,192,227671,1,8
244,192,227829,1,0
244,192,227987,1,0
244,192,228066,1,0
244,192,228145,1,0
244,192,228223,1,0
244,192,228302,1,8
244,192,228460,1,0
244,192,228618,1,8
244,192,228776,1,4
244,192,228934,1,8
244,192,229092,1,4
244,192,229408,1,0
244,192,229566,1,8
244,192,229723,1,0
244,192,229881,1,8
244,192,230039,1,0
244,192,230197,1,8
244,192,230276,1,8
244,192,230355,1,8
244,192,230434,1,8
244,192,230513,1,0
244,192,230671,1,0
244,192,230829,1,8
244,192,230987,1,0
244,192,231066,1,0
244,192,231223,1,8
244,192,231302,1,0
244,192,231381,1,0
244,192,231460,1,8
244,192,231618,1,0
244,192,231776,1,0
244,192,231855,1,0
244,192,231934,1,0
244,192,232092,1,8
244,192,232250,1,0
244,192,232329,1,0
244,192,232487,1,8
244,192,232566,1,0
244,192,232645,1,0
244,192,232723,1,8
244,192,232802,1,0
244,192,232881,1,8
244,192,232960,1,8
244,192,233039,1,0
244,192,233197,1,0
244,192,233355,1,8
244,192,233513,1,0
248,176,233671,1,12
248,176,233829,1,12
248,176,233987,1,12
248,176,234145,1,4
248,176,234618,1,8
248,176,234934,1,8
248,176,235250,1,8
248,176,235329,1,8
248,176,235408,1,8
248,176,235566,1,4
