osu file format v9

[General]
AudioFilename: Romantic Hero.mp3
AudioLeadIn: 0
PreviewTime: 73566
Countdown: 0
SampleSet: Normal
StackLeniency: 0.7
Mode: 0
LetterboxInBreaks: 0

[Editor]
Bookmarks: 164834,182508
DistanceSpacing: 1
BeatDivisor: 4
GridSize: 8

[Metadata]
Title:Romantic Hero
Artist:Megpoid GUMI
Creator:tutuhaha
Version:Hero
Source:Last Note.
Tags:spboxer3 vocaloid vocaloid2 Love Sander-Don

[Difficulty]
HPDrainRate:7
CircleSize:4
OverallDifficulty:7
ApproachRate:9
SliderMultiplier:2
SliderTickRate:1

[Events]
//Background and Video events
Video,0,"Romantic Hero.flv"
0,0,"BG.jpg"
//Break Periods
2,13460,27808
2,99345,108650
2,165029,181913
//Storyboard Layer 0 (Background)
//Storyboard Layer 1 (Fail)
//Storyboard Layer 2 (Pass)
//Storyboard Layer 3 (Foreground)
//Storyboard Sound Samples
//Background Colour Transformations
3,100,163,162,255

[TimingPoints]
3145,315.789473684211,4,1,1,55,1,0
13250,-100,4,1,1,70,0,0
28408,-100,4,1,1,55,0,0
32829,-100,4,1,1,70,0,0
33460,-100,4,1,1,50,0,0
43566,-100,4,1,1,60,0,0
53671,-200,4,1,1,50,0,0
63776,-100,4,1,1,55,0,0
73881,-100,4,1,1,70,0,1
99145,-100,4,1,1,55,0,0
118723,-100,4,1,1,70,0,0
119355,-200,4,1,1,50,0,0
129460,-100,4,1,1,55,0,0
139566,-100,4,1,1,55,0,1
164829,-100,4,1,1,55,0,0
185039,-100,4,1,1,50,0,0
203987,-100,4,1,1,60,0,0
210302,-100,4,1,1,70,0,1
235566,-100,4,1,1,55,0,0

[Colours]
Combo1 : 204,26,0
Combo2 : 90,194,46
Combo3 : 49,96,96
Combo4 : 0,0,170

[HitObjects]
80,88,3145,1,12
288,256,3460,2,0,B|188:256,1,100,0|8
392,84,3934,1,0
392,84,4092,1,8
137,181,4408,2,0,B|148:136|192:100,1,100,0|8
256,344,4881,5,0
256,344,5039,2,0,B|300:308|312:256,1,100,8|0
419,316,5355,2,0,B|425:259|400:220,1,100,8|0
312,172,5671,5,12
88,60,5987,2,0,B|188:60,1,100,0|8
424,324,6460,2,0,B|324:324,1,100,0|8
256,248,6776,1,0
164,208,6934,1,0
164,208,7092,2,0,B|56:232|32:352,1,200,8|0
128,308,7566,6,0,B|112:256|52:224,1,100,8|0
56,132,7881,1,0
68,84,7960,1,0
112,60,8039,1,0
160,68,8118,1,0
188,112,8197,6,0,B|296:148|376:52,1,200,12|0
268,44,8671,2,0,B|318:145|443:134,1,200,8|0
368,60,9145,2,0,B|332:168|428:247,1,200,8|0
432,136,9618,2,0,B|330:186|341:311,1,200,8|0
244,272,10092,6,0,B|140:272,1,100,8|0
4,180,10408,2,0,B|104:180,1,100,8|0
176,48,10723,6,0,B|288:80|316:204,1,200,12|0
228,124,11197,2,0,B|284:225|216:333,1,200,8|0
208,216,11671,2,0,B|176:328|52:356,1,200,8|0
43,184,12145,2,0,B|76:72|176:48,1,200,8|0
268,192,12618,1,8
384,68,12776,1,0
268,192,12934,5,8
312,220,13013,1,0
324,268,13092,1,0
312,316,13171,1,0
272,344,13250,1,4
256,112,28408,5,4
332,48,28566,1,0
432,60,28723,2,0,B|432:160,1,100,8|0
364,236,29039,1,0
268,208,29197,1,0
268,208,29276,1,0
268,208,29355,1,8
180,160,29513,6,0,B|180:216|128:248|128:248|68:240|40:296,1,200
84,320,29908,1,0
124,352,29987,1,8
256,280,30145,1,0
388,352,30302,2,0,B|388:248,1,100
436,108,30618,1,8
304,36,30776,6,0,B|240:44|220:104|220:104|184:140|128:120,1,200
84,40,31250,1,8
40,132,31408,1,0
60,232,31566,1,0
144,284,31723,1,0
244,280,31881,1,8
60,232,32039,6,0,B|110:192|167:220|167:220|218:220|243:166,1,200
268,136,32434,1,0
296,96,32513,1,8
444,68,32671,1,0
420,216,32829,5,0
372,212,32908,1,0
332,240,32987,1,0
304,280,33066,1,0
256,300,33145,1,0
208,280,33223,1,0
180,240,33302,1,0
140,212,33381,1,0
92,216,33460,6,0,B|44:184|32:132,1,100,4|0
65,17,33776,2,0,B|113:49|124:96,1,100,8|0
184,176,34092,1,0
256,104,34250,1,0
328,176,34408,1,8
256,248,34566,1,0
320,320,34723,6,0,B|432:320,1,100
192,296,35039,1,8
192,296,35197,2,0,B|-8:296,2,200
68,196,35987,6,0,B|168:196,1,100,0|0
308,104,36302,2,0,B|208:104,1,100,8|0
252,348,36618,2,0,B|252:248,1,100
392,88,36934,2,0,B|392:188,1,100,8|0
256,132,37250,6,0,B|240:92|172:88|172:88|128:136|60:112,1,200,0|8
20,36,37723,1,0
20,188,37881,1,0
160,248,38039,1,0
256,132,38197,1,8
112,168,38355,2,0,B|64:272,1,100,0|4
256,320,38671,6,0,B|256:216,2,100,0|8|0
352,104,39145,2,0,B|352:204,2,100,0|0|8
256,132,39618,1,0
188,60,39776,5,0
132,144,39934,1,0
64,68,40092,1,8
120,260,40250,2,0,B|180:256|212:208|212:208|252:224|264:284,2,200
132,144,41039,6,0,B|168:40,1,100
308,192,41355,2,0,B|275:286,1,100,8|0
232,140,41671,2,0,B|264:88|320:88|320:88|368:76|392:20,1,200,0|8
280,244,42145,6,0,B|248:296|192:296|192:296|144:308|120:364,1,200
52,288,42618,2,0,B|52:176,1,100,8|0
92,96,42934,1,0
92,96,43013,1,0
92,96,43092,1,0
188,28,43250,2,0,B|188:128,1,100,8|8
371,160,43566,6,0,B|344:116|288:112,1,100,4|0
140,223,43881,2,0,B|168:268|224:272,1,100,8|0
373,212,44197,2,0,B|367:160|318:133,1,100
138,171,44513,2,0,B|144:223|193:250,1,100,8|0
354,260,44829,6,0,B|370:210|337:165,1,100
157,123,45145,2,0,B|141:173|174:218,1,100
256,156,45460,1,0
116,300,45618,1,0
256,156,45776,1,8
396,300,45934,5,0
396,300,46013,1,0
396,300,46092,2,0,B|464:216,1,100,4|0
388,36,46408,2,0,B|320:120,1,100,8|0
116,300,46723,2,0,B|48:216,1,100
124,36,47039,2,0,B|192:120,1,100,8|0
216,248,47355,6,0,B|192:280|216:328|256:344|296:328|320:280|296:248,1,200
256,156,47829,1,0
60,312,48145,1,0
108,172,48302,1,8
256,156,48460,1,0
256,156,48539,1,0
256,156,48618,1,4
352,124,48776,6,0,B|352:20,2,100,0|8|0
428,192,49250,2,0,B|428:92|428:92|484:96|504:152,1,200,0|8
504,248,49723,1,0
408,272,49881,6,0,B|332:344,1,100
95,300,50197,2,0,B|168:232,1,100,8|0
340,175,50513,2,0,B|268:244,1,100
28,204,50829,2,0,B|100:135,1,100,8|0
100,134,51066,1,0
100,134,51145,1,4
388,48,51460,5,8
280,152,51618,1,0
256,300,51776,2,0,B|188:288|160:216|160:216|100:268,1,200,0|8
216,152,52250,2,0,B|284:164|312:236|312:236|372:184,2,200
100,56,53039,5,8
60,88,53118,1,0
36,132,53197,1,0
76,160,53276,1,0
116,192,53355,1,0
140,236,53434,1,0
164,280,53513,1,0
136,320,53592,1,0
100,356,53671,6,0,B|8:328|12:224,1,150,4|0
100,200,54302,2,0,B|184:188|224:96,1,150
288,44,54934,2,0,B|332:108|304:188,1,150
284,284,55566,2,0,B|368:272|408:180,1,150
208,252,56197,6,0,B|128:284|104:368,1,150,4|0
128,260,56829,2,0,B|107:187|27:155,1,150,0|0
128,172,57460,2,0,B|200:151|232:71,1,150,0|0
208,172,58092,2,0,B|228:244|308:276,1,150,0|0
400,232,58723,5,4
168,44,59197,2,0,B|216:76,1,50
344,340,59829,2,0,B|296:308,1,50
404,104,60460,2,0,B|372:152,1,50
108,280,61092,1,0
108,280,61250,2,0,B|180:136,1,150,4|0
272,120,61881,5,0
344,188,62039,1,0
444,184,62197,1,0
368,116,62355,2,0,B|332:224,1,100
144,268,62987,2,0,B|180:160,1,100
160,76,63460,1,0
208,56,63539,1,0
256,36,63618,1,0
300,60,63697,1,0
340,92,63776,6,0,B|424:160,1,100,4|0
392,252,64092,1,8
312,192,64250,1,8
172,92,64408,2,0,B|88:160,1,100
120,252,64723,1,8
200,192,64881,1,8
256,272,65039,6,0,B|256:376,2,100,0|0|8
200,192,65513,1,0
312,192,65671,1,0
148,104,65829,1,8
364,104,65987,1,8
256,208,66145,5,0
256,208,66223,1,0
256,208,66302,2,0,B|292:160|256:116|256:116|216:72|256:24|256:24,1,200,4|8
148,104,66776,1,0
48,172,66934,2,0,B|48:276,1,100
200,384,67250,2,0,B|200:284,1,100,8|0
220,132,67566,5,0
348,56,67723,1,0
232,152,67881,1,8
380,120,68039,1,0
240,172,68197,1,0
388,192,68355,1,0
236,192,68513,5,8
280,216,68592,1,0
324,236,68671,1,0
368,256,68750,1,0
416,276,68829,6,0,B|400:332|348:360,1,100,4|0
96,276,69145,2,0,B|112:332|164:360,1,100,8|0
8,216,69460,2,0,B|24:161|67:139,1,100
176,92,69776,2,0,B|127:81|99:33,1,100,8|0
336,92,70092,6,0,B|385:81|413:33,1,100,0|0
256,60,70408,1,8
256,212,70566,1,8
268,112,70723,1,0
244,260,70881,1,0
276,164,71039,1,8
236,308,71197,1,8
120,212,71355,5,4
120,212,71513,1,0
180,72,71671,1,8
180,72,71829,1,0
392,212,71987,1,0
392,212,72145,1,0
332,72,72302,1,8
332,72,72460,2,0,B|312:132|256:136|256:136|204:168|224:232,1,200
132,168,72934,5,8
296,280,73092,1,8
112,360,73250,1,8
332,72,73566,5,0
356,72,73645,1,0
380,72,73723,1,0
420,164,73881,6,0,B|448:272,1,100,4|0
380,336,74197,1,8
296,280,74355,2,0,B|252:184|104:172,1,200
76,256,74829,1,8
172,80,74987,6,0,B|376:80,1,200
504,176,75460,2,0,B|404:176,1,100,8|0
304,192,75776,1,0
256,336,75934,1,0
208,192,76092,1,8
256,280,76250,5,0
156,168,76408,1,4
256,56,76566,1,0
356,168,76723,1,8
256,280,76881,1,0
55,149,77039,2,0,B|76:180|48:208|48:208|64:272|160:260,1,200,0|8
172,112,77513,2,0,B|224:104|224:104|232:128|256:144|280:128|288:104|288:104|344:112,1,200
456,149,77987,2,0,B|436:180|464:208|464:208|448:272|352:260,1,200,8|0
304,168,78460,5,0
392,352,78618,1,8
192,328,78776,1,8
304,168,78934,6,0,B|304:56,1,100,4|0
192,272,79250,2,0,B|192:172,1,100,8|0
92,60,79566,2,0,B|44:100|64:156|64:156|104:192|72:248,1,200,0|8
192,328,80039,6,0,B|192:228,1,100
304,124,80355,2,0,B|304:224,1,100,0|8
224,164,80671,1,0
300,36,80829,1,0
380,164,80987,1,0
308,296,81145,6,0,B|420:296,1,100,8|0
212,260,81460,1,4
184,112,81618,1,0
324,164,81776,1,8
128,196,81934,5,0
280,68,82092,1,0
316,264,82250,1,0
184,112,82408,1,8
212,260,82566,2,0,B|212:320|268:348|268:348|320:340|360:360,1,200
420,180,83039,2,0,B|420:280,1,100,8|0
332,88,83355,5,0
256,260,83513,1,0
180,88,83671,1,8
256,260,83829,1,8
88,156,83987,6,0,B|88:56,1,100,4|0
256,340,84302,2,0,B|256:236,1,100,8|0
424,156,84618,2,0,B|424:52|424:52|368:44|332:104,1,200,0|8
376,236,85092,6,0,B|376:340|376:340|432:348|468:288,1,200
256,144,85566,2,0,B|256:260,1,100,8|0
136,148,85881,2,0,B|136:44|136:44|80:36|44:96,1,200,0|8
12,228,86355,1,0
152,284,86513,6,0,B|184:332|236:344,1,100,4|0
256,144,86829,2,0,B|224:96|172:84,1,100,8|0
332,228,87145,2,0,B|404:224|424:172|424:172|408:120|456:92,1,200,0|8
180,228,87618,6,0,B|108:224|88:172|88:172|104:120|56:92,1,200,0|8
256,244,88092,2,0,B|256:132,1,100,8|0
328,72,88408,1,0
160,180,88566,1,0
356,212,88723,1,8
188,320,88881,1,0
204,120,89039,6,0,B|324:120,1,100,4|0
468,256,89355,2,0,B|368:256,1,100,8|0
164,320,89671,2,0,B|264:320,1,100
152,216,89987,1,8
4,192,90145,6,0,B|32:140|96:140|96:140|128:108|128:36,1,200
256,132,90618,2,0,B|256:252,1,100,8|0
392,296,90934,1,0
404,148,91092,1,0
256,132,91250,1,8
236,280,91408,1,0
192,192,91566,6,0,B|92:192,1,100,4|0
356,48,91881,2,0,B|256:48,1,100,8|0
420,192,92197,2,0,B|320:192,1,100
156,336,92513,1,8
156,336,92671,2,0,B|364:336,1,200
348,236,93145,1,8
168,148,93302,1,0
344,52,93460,5,0
256,232,93618,1,0
72,312,93776,1,8
220,176,93934,1,0
80,180,94092,6,0,B|72:136|100:88|100:88|152:52|208:68,1,200,4|8
396,100,94566,2,0,B|404:144|376:192|376:192|324:228|268:212,1,200
140,308,95039,2,0,B|240:308,1,100,8|0
184,168,95355,5,0
52,100,95513,1,0
52,100,95592,1,0
52,100,95671,2,0,B|112:88|136:40,1,100,8|0
460,284,96145,5,0
392,152,96302,1,8
296,268,96460,1,0
236,132,96618,2,0,B|192:36|64:40,1,200,4|8
128,180,97092,1,0
276,252,97250,2,0,B|320:348|448:344,1,200,0|8
420,192,97723,1,0
256,192,97802,12,4,99145
256,72,109250,5,4
116,132,109408,2,0,B|116:232,1,100,0|8
184,304,109723,1,0
264,244,109881,2,0,B|384:244,1,100
400,96,110197,2,0,B|504:96,1,100,8|0
304,144,110513,6,0,B|88:144,1,200,0|8
260,56,110987,2,0,B|216:100|216:208|272:252,1,200
220,332,111460,1,8
304,144,111618,1,0
356,144,111697,1,0
408,144,111776,1,4
360,288,111934,5,0
216,248,112092,2,0,B|168:216|164:164,1,100,8|0
240,36,112408,2,0,B|288:68|292:120,1,100
360,192,112723,1,8
180,108,112881,1,0
180,308,113039,6,0,B|140:300|136:264|136:264|108:248|80:276|32:236|32:236|56:200,1,200,0|8
84,124,113513,1,0
180,108,113671,1,0
256,172,113829,1,0
276,272,113987,2,0,B|324:296,3,50,8|0|0|0
276,272,114302,6,0,B|172:224,1,100,4|0
84,124,114618,1,8
228,80,114776,1,0
444,192,114934,1,0
300,148,115092,1,0
88,264,115250,1,8
232,220,115408,1,0
372,76,115566,6,0,B|372:184,2,100,0|0|8
272,92,116039,2,0,B|216:132|156:100|156:100|176:60|212:48,1,200
104,156,116513,2,0,B|104:264,1,100,8|8
132,296,116750,1,0
164,332,116829,6,0,B|220:336|264:280,1,100,4|0
348,192,117145,2,0,B|292:196|248:140,1,100,8|0
344,104,117460,2,0,B|408:104|448:144|448:144|432:204|480:224|476:224,1,200,0|8
392,280,117934,6,0,B|280:280,1,100
120,148,118250,2,0,B|220:148,1,100,0|8
328,44,118566,1,0
304,192,118723,5,0
260,216,118802,1,0
224,252,118881,1,0
208,300,118960,1,0
168,328,119039,1,0
120,320,119118,1,0
88,280,119197,1,0
44,260,119276,1,0
40,212,119355,6,0,B|120:168|132:80,1,150,4|0
216,44,119987,2,0,B|276:44,1,50
320,128,120302,2,0,B|380:128,1,50
472,172,120618,2,0,B|392:216|380:304,1,150,0|0
296,340,121250,2,0,B|236:340,1,50
192,256,121566,2,0,B|132:256,1,50
48,196,121881,6,0,B|120:160|152:64,1,150,4|0
228,32,122513,2,0,B|304:64|328:152,1,150
244,204,123145,2,0,B|208:312,1,100,0|0
312,320,123618,1,0
344,224,123776,2,0,B|396:208|424:156,1,100
324,132,124250,1,0
132,76,124408,6,0,B|144:156|220:196,1,150,4|0
176,284,125039,2,0,B|224:296|280:260,1,100
340,192,125513,1,0
440,176,125671,2,0,B|428:96|352:56,1,150
268,104,126302,2,0,B|108:104,1,150
44,172,126934,6,0,B|92:196,1,50,4|0
168,256,127250,2,0,B|188:304,1,50
288,300,127566,2,0,B|340:196,1,100
264,136,128039,5,0
68,88,128355,1,0
124,280,128671,1,0
264,136,128987,1,0
336,64,129145,1,0
348,112,129223,1,0
396,128,129302,1,0
436,100,129381,1,0
472,136,129460,6,0,B|472:240,1,100,4|0
272,332,129776,2,0,B|272:232,1,100,8|8
40,148,130092,2,0,B|40:248,1,100
240,152,130408,2,0,B|240:52,1,100,8|8
156,176,130723,5,0
116,320,130881,1,0
180,184,131039,1,8
180,336,131197,1,8
204,188,131355,1,0
248,332,131513,1,0
228,184,131671,5,8
256,228,131750,1,0
284,272,131829,1,0
312,312,131908,1,0
360,296,131987,6,0,B|380:240|432:220,1,100,4|0
344,40,132302,2,0,B|324:96|272:116,1,100,8|8
394,242,132618,2,0,B|388:183|427:142,1,100
271,17,132934,2,0,B|277:76|238:116,1,100,8|8
178,305,133250,6,0,B|162:247|112:222,1,100
216,52,133566,2,0,B|231:109|281:134,1,100,8|8
148,249,133881,2,0,B|158:190|123:147,1,100
290,35,134197,2,0,B|279:93|314:136,1,100,8|8
120,228,134513,6,0,B|116:288|168:316|168:316|216:296|264:348,1,200,4|8
256,192,134987,1,8
392,156,135145,2,0,B|396:96|344:68|344:68|296:88|248:36,1,200,0|8
128,120,135618,6,0,B|48:200,1,100,8|4
77,382,135934,2,0,B|148:312,1,100,0|8
160,212,136250,2,0,B|216:192|208:128|208:128|248:88|304:108,1,200
468,172,136723,2,0,B|368:172,1,100,8|8
156,272,137039,6,0,B|256:272,1,100,4|0
56,48,137513,2,0,B|72:100|136:116|136:116|152:60|204:44,1,200
256,128,137987,1,8
456,48,138144,2,0,B|440:100|376:116|376:116|360:60|308:44,1,200
152,160,138618,5,8
256,332,138776,1,0
360,160,138934,1,8
180,312,139250,5,0
156,312,139329,1,0
132,312,139408,1,0
92,220,139566,6,0,B|64:112,1,100,4|0
132,48,139881,1,8
216,104,140039,2,0,B|260:200|408:212,1,200
436,128,140513,1,8
340,304,140671,6,0,B|136:304,1,200
8,208,141144,2,0,B|108:208,1,100,8|0
208,192,141460,1,0
256,48,141618,1,0
304,192,141776,1,8
256,104,141934,5,0
356,216,142092,1,4
256,328,142250,1,0
156,216,142408,1,8
256,104,142566,1,0
457,235,142723,2,0,B|436:204|464:176|464:176|448:112|352:124,1,200,0|8
340,272,143197,2,0,B|288:280|288:280|280:256|256:240|232:256|224:280|224:280|168:272,1,200
56,235,143671,2,0,B|76:204|48:176|48:176|64:112|160:124,1,200,8|0
208,216,144144,5,0
120,32,144302,1,8
320,56,144460,1,8
208,216,144618,6,0,B|208:328,1,100,4|0
320,112,144934,2,0,B|320:212,1,100,8|0
420,324,145250,2,0,B|468:284|448:228|448:228|408:192|440:136,1,200,0|8
320,56,145723,6,0,B|320:156,1,100
208,260,146039,2,0,B|208:160,1,100,0|8
288,220,146355,1,0
212,348,146513,1,0
132,220,146671,1,0
204,88,146829,6,0,B|92:88,1,100,8|0
300,124,147144,1,4
328,272,147302,1,0
188,220,147460,1,8
384,188,147618,5,0
232,316,147776,1,0
196,120,147934,1,0
328,272,148092,1,8
300,124,148250,2,0,B|300:64|244:36|244:36|192:44|152:24,1,200
92,204,148723,2,0,B|92:104,1,100,8|0
180,296,149039,5,0
256,124,149197,1,0
332,296,149355,1,8
256,124,149513,1,8
424,228,149671,6,0,B|424:328,1,100,4|0
256,44,149987,2,0,B|256:148,1,100,8|0
88,228,150302,2,0,B|88:332|88:332|144:340|180:280,1,200,0|8
136,148,150776,6,0,B|136:44|136:44|80:36|44:96,1,200
256,240,151250,2,0,B|256:124,1,100,8|0
376,236,151566,2,0,B|376:340|376:340|432:348|468:288,1,200,0|8
500,156,152039,1,0
360,100,152197,6,0,B|328:52|276:40,1,100,4|0
256,240,152513,2,0,B|288:288|340:300,1,100,8|0
180,156,152829,2,0,B|108:160|88:212|88:212|104:264|56:292,1,200,0|8
332,156,153302,6,0,B|404:160|424:212|424:212|408:264|456:292,1,200,0|8
256,140,153776,2,0,B|256:252,1,100,8|0
184,312,154092,1,0
352,204,154250,1,0
156,172,154408,1,8
324,64,154566,1,0
308,264,154723,6,0,B|188:264,1,100,4|0
44,128,155039,2,0,B|144:128,1,100,8|0
348,64,155355,2,0,B|248:64,1,100
360,168,155671,1,8
508,192,155829,6,0,B|480:244|416:244|416:244|384:276|384:348,1,200
256,252,156302,2,0,B|256:132,1,100,8|0
120,88,156618,1,0
108,236,156776,1,0
256,252,156934,1,8
276,104,157092,1,0
320,192,157250,6,0,B|420:192,1,100,4|0
156,336,157566,2,0,B|256:336,1,100,8|0
92,192,157881,2,0,B|192:192,1,100
356,48,158197,1,8
356,48,158355,2,0,B|148:48,1,200
164,148,158829,1,8
344,236,158987,1,0
168,332,159144,5,0
256,152,159302,1,0
440,72,159460,1,8
292,208,159618,1,0
432,204,159776,6,0,B|440:248|412:296|412:296|360:332|304:316,1,200,4|8
116,284,160250,2,0,B|108:240|136:192|136:192|188:156|244:172,1,200
372,76,160723,2,0,B|272:76,1,100,8|0
328,216,161039,5,0
460,284,161197,1,0
460,284,161276,1,0
460,284,161355,2,0,B|400:296|376:344,1,100,8|0
52,100,161829,5,0
120,232,161987,1,8
216,116,162144,1,0
276,252,162302,2,0,B|320:348|448:344,1,200,4|8
384,204,162776,1,0
236,132,162934,2,0,B|192:36|64:40,1,200,0|8
52,240,163408,6,0,B|52:344,1,100,0|4
188,272,163723,2,0,B|188:168,1,100,0|8
460,240,164039,6,0,B|460:344,1,100,8|0
324,272,164355,2,0,B|324:168,1,100,0|8
304,124,164592,1,0
256,104,164671,1,8
208,124,164750,1,0
188,172,164829,1,4
256,192,182513,12,0,184723
256,56,185039,5,4
116,112,185197,1,0
212,136,185355,1,8
92,226,185513,1,0
288,180,185671,5,0
428,236,185829,1,0
332,260,185987,1,8
452,350,186144,1,0
256,320,186302,6,0,B|144:320,1,100
112,292,186539,1,0
72,260,186618,2,0,B|48:232|48:232|48:216|48:216|36:208|36:208|16:172,1,100,8|0
20,128,186855,1,0
20,76,186934,2,0,B|64:36|112:40|112:40|148:80|220:68,1,200,0|8
292,28,187408,1,8
132,148,187566,6,0,B|132:256,1,100
280,336,187881,2,0,B|280:236,1,100,8|0
125,204,188197,2,0,B|170:302,1,100
338,312,188513,2,0,B|296:221,1,100,8|0
276,176,188750,1,0
260,132,188829,6,0,B|295:122|295:122|304:109|304:109|319:110|319:110|356:92,1,100
388,64,189066,1,0
428,92,189144,2,0,B|472:116|484:172,1,100,8|0
460,216,189381,1,0
412,204,189460,2,0,B|396:272|340:272|340:272|280:248|236:308,1,200,0|8
172,348,189934,1,8
276,176,190092,5,0
152,92,190250,1,0
132,240,190408,1,8
276,176,190566,1,0
376,348,190723,5,0
316,156,190881,1,0
324,304,191039,1,8
424,192,191197,1,0
356,60,191355,6,0,B|312:32|252:32,1,100
236,76,191592,1,0
208,116,191671,2,0,B|176:160|120:176,1,100,8|0
84,196,191908,1,0
52,236,191987,1,0
52,236,192144,6,0,B|108:336|220:344,1,200,8|0
414,306,192618,2,0,B|359:207|256:200,1,200,4|8
29,170,193092,2,0,B|132:163|188:64,1,200
288,60,193566,1,8
288,60,193723,1,8
288,60,193881,5,0
224,324,194197,1,8
388,224,194513,1,0
124,160,194829,1,8
256,192,194987,1,0
88,300,195144,6,0,B|36:208,1,100,4|0
216,116,195460,2,0,B|164:24,1,100,8|0
424,300,195776,6,0,B|476:208,1,100
296,116,196092,2,0,B|348:24,1,100,8|0
136,176,196408,6,0,B|185:263,1,100
376,176,196723,2,0,B|326:263,1,100,8|0
292,300,196960,1,0
256,336,197039,2,0,B|256:132,1,200,0|8
156,124,197513,1,8
356,124,197671,6,0,B|356:72|304:28,1,100
156,124,197987,2,0,B|119:87|51:92,1,100,8|0
356,260,198302,6,0,B|356:312|304:356,1,100
156,260,198618,2,0,B|119:296|51:291,1,100,8|0
180,192,198934,6,0,B|284:152|316:40,1,200,0|8
384,120,199408,1,0
372,168,199487,1,0
332,192,199566,2,0,B|228:232|196:344,1,200,0|8
104,300,200039,1,8
372,340,200197,6,0,B|264:340,1,100
36,192,200513,2,0,B|136:192,1,100,8|0
392,312,200829,6,0,B|284:312,1,100
56,164,201144,2,0,B|156:164,1,100,8|0
256,52,201460,5,0
256,204,201618,1,0
292,108,201776,1,8
224,244,201934,1,0
256,280,202013,1,0
292,316,202092,1,0
200,356,202250,2,0,B|168:308|104:304|104:304|124:256|72:220,1,200,8|8
156,100,202723,6,0,B|204:48|256:44|256:44|256:132,1,200,4|8
356,284,203197,2,0,B|308:336|256:340|256:340|256:252,1,200
16,204,203671,2,0,B|116:204,1,100,8|0
184,68,203987,5,4
384,88,204144,1,0
356,284,204302,1,0
156,268,204460,1,0
184,68,204618,1,8
272,192,204934,6,0,B|260:204|260:204|280:212|280:212|260:224|260:224|280:232|280:232|260:240|260:240|280:248|280:248,1,100
136,160,205250,1,8
16,68,205408,1,0
112,184,205566,1,0
260,164,205723,2,0,B|292:100|324:80|324:80|372:96|424:40,1,200
344,192,206197,1,8
196,224,206355,6,0,B|164:288|132:308|132:308|84:292|32:348,1,200,0|0
36,184,206829,1,0
148,84,206987,1,0
196,224,207144,1,0
444,56,207460,5,8
444,56,207618,1,0
360,208,207776,2,0,B|360:108,2,100,0|0|0
68,128,208408,1,0
292,328,208723,1,8
292,328,208881,6,0,B|240:280|240:280|264:240|232:192|232:192|176:208,1,200
224,28,209355,2,0,B|164:108,1,100,8|0
87,335,209671,2,0,B|148:256,1,100
68,196,209987,1,8
256,136,210144,1,8
444,196,210302,6,0,B|432:252|384:296,1,100,4|0
256,136,210618,2,0,B|268:80|316:36,1,100,8|0
348,192,210934,2,0,B|284:208|288:264|288:264|248:316|176:276,1,200,0|8
24,234,211408,6,0,B|85:219|81:163|81:163|121:111|168:140,2,200,0|8|0
164,288,212197,1,0
256,108,212355,1,0
348,288,212513,2,0,B|452:288,1,100,8|0
368,160,212829,5,4
144,160,212987,1,0
256,348,213144,1,8
256,108,213302,5,0
144,296,213460,1,0
368,296,213618,1,0
144,160,213776,1,8
368,160,213934,6,0,B|432:128|444:72|444:72|352:72,1,200
256,280,214408,2,0,B|256:180,1,100,8|0
120,32,214723,2,0,B|120:140,1,100
256,280,215039,1,8
256,280,215118,1,0
256,280,215197,1,0
372,116,215355,6,0,B|348:64|280:56,1,100,4|0
140,268,215671,2,0,B|164:320|232:328,1,100,8|0
236,168,215987,2,0,B|216:112|152:104|152:104|116:136|64:108,1,200,0|8
276,216,216460,2,0,B|296:272|360:280|360:280|396:248|448:276,2,200,0|8|0
368,72,217250,2,0,B|368:172,1,100
144,312,217566,2,0,B|144:212,1,100,8|0
44,100,217881,5,4
184,48,218039,1,0
256,180,218197,1,8
328,48,218355,1,0
468,100,218513,2,0,B|468:204|468:204|464:256|404:272,1,200,0|8
216,328,218987,6,0,B|216:224|216:224|220:172|280:156,1,200
97,71,219460,2,0,B|152:72|184:112,1,100,8|0
216,328,219776,2,0,B|161:327|129:287,2,100,0|0|8
256,132,220250,1,8
296,328,220408,6,0,B|351:327|383:287,2,100,4|0|8
256,236,220881,1,0
256,236,221039,2,0,B|324:224|336:168|336:168|360:112|412:116,1,200,0|8
256,236,221513,2,0,B|188:224|176:168|176:168|152:112|100:116,2,200,0|8|0
256,84,222302,1,0
92,200,222460,1,0
256,312,222618,1,8
420,200,222776,1,8
176,140,222934,6,0,B|68:140,1,100,4|0
336,244,223250,2,0,B|444:244,1,100,8|0
205,111,223566,2,0,B|107:65,1,100
306,272,223881,2,0,B|404:318,1,100,8|0
124,192,224355,5,0
204,112,224513,2,0,B|284:32,1,100,8|0
308,272,224829,2,0,B|228:352,2,100,0|0|8
388,192,225302,1,0
196,256,225460,6,0,B|132:288|100:268|100:268|104:232|104:232|80:200|40:192,1,200,4|8
204,112,225934,2,0,B|268:80|300:100|300:100|296:136|296:136|320:168|360:176,1,200
440,304,226408,2,0,B|440:204,2,100,8|0|0
192,324,227039,5,8
224,288,227118,1,0
256,252,227197,1,0
72,104,227513,1,8
416,40,227829,2,0,B|312:40,1,100,0|4
256,192,228066,12,0,230197
144,284,230513,6,0,B|144:168,1,100,4|0
368,100,230829,2,0,B|368:216,1,100,8|0
115,228,231144,2,0,B|164:122,1,100
396,155,231460,2,0,B|347:261,1,100,8|0
260,68,231776,6,0,B|200:36|148:80|148:80|132:128|72:132,1,200,0|8
252,316,232250,2,0,B|312:348|364:304|364:304|380:256|440:252,1,200
120,264,232881,1,8
188,192,233039,6,0,B|400:192,1,200,0|8
256,44,233671,2,0,B|148:44,1,100
108,64,233908,1,0
80,108,233987,1,8
52,152,234066,1,0
28,196,234144,1,8
256,192,234223,12,4,235566
