osu file format v9

[General]
AudioFilename: Romantic Hero.mp3
AudioLeadIn: 0
PreviewTime: 73566
Countdown: 0
SampleSet: Normal
StackLeniency: 0.7
Mode: 0
LetterboxInBreaks: 0

[Editor]
Bookmarks: 164834,182508
DistanceSpacing: 1.1
BeatDivisor: 4
GridSize: 4

[Metadata]
Title:Romantic Hero
Artist:Megpoid GUMI
Creator:tutuhaha
Version:Hard
Source:Last Note.
Tags:spboxer3 vocaloid vocaloid2 Love Sander-Don

[Difficulty]
HPDrainRate:5
CircleSize:4
OverallDifficulty:5
ApproachRate:7
SliderMultiplier:1.4
SliderTickRate:1

[Events]
//Background and Video events
Video,0,"Romantic Hero.flv"
0,0,"BG.jpg"
//Break Periods
2,13450,27508
2,99345,108350
2,165029,181613
//Storyboard Layer 0 (Background)
//Storyboard Layer 1 (Fail)
//Storyboard Layer 2 (Pass)
//Storyboard Layer 3 (Foreground)
//Storyboard Sound Samples
//Background Colour Transformations
3,100,163,162,255

[TimingPoints]
3145,315.789473684211,4,1,1,55,1,0
13250,-100,4,1,1,70,0,0
28408,-100,4,1,1,55,0,0
32829,-100,4,1,1,70,0,0
33460,-100,4,1,1,50,0,0
43566,-100,4,1,1,60,0,0
53671,-100,4,1,1,50,0,0
63776,-100,4,1,1,55,0,0
73881,-100,4,1,1,70,0,1
99145,-100,4,1,1,55,0,0
118723,-100,4,1,1,70,0,0
119355,-100,4,1,1,50,0,0
129460,-100,4,1,1,55,0,0
139566,-100,4,1,1,55,0,1
164829,-100,4,1,1,55,0,0
185039,-100,4,1,1,50,0,0
203987,-100,4,1,1,60,0,0
210302,-100,4,1,1,70,0,1
235566,-100,4,1,1,55,0,0

[Colours]
Combo1 : 204,26,0
Combo2 : 90,194,46
Combo3 : 49,96,96
Combo4 : 0,0,170

[HitObjects]
100,104,3145,1,4
232,292,3618,1,8
256,64,4092,2,0,B|244:132|168:188,1,140,8|0
112,212,4566,2,0,B|108:288|172:336,1,140,8|0
232,292,5039,2,0,B|260:228|352:200,1,140,8|8
444,96,5671,5,4
296,56,5987,1,0
296,56,6145,1,8
188,168,6460,1,0
188,168,6618,2,0,B|160:244|72:280,1,140,8|0
24,244,7092,2,0,B|100:260|132:336,1,140,8|0
204,336,7566,2,0,B|284:336,1,70,8|0
362,264,7881,2,0,B|292:264,1,70,8|0
352,188,8197,6,0,B|420:156|440:76,1,140,4|0
360,76,8671,2,0,B|200:76,1,140,8|0
148,108,9145,1,8
148,108,9302,1,0
40,216,9618,2,0,B|40:296|120:344,1,140,8|8
156,276,10092,2,0,B|200:216,1,70,8|0
295,173,10408,2,0,B|272:240,1,70,8|0
344,272,10723,6,0,B|460:248|492:128,2,210,4|8|8
280,312,11829,1,0
160,216,12145,2,0,B|96:172|88:84,1,140,8|8
28,56,12618,2,0,B|56:80|96:72,1,70,8|0
164,104,12934,2,0,B|188:140,2,35,8|0|0
208,40,13250,1,4
288,52,28408,5,4
356,92,28566,1,0
428,112,28723,1,8
448,188,28881,1,0
372,172,29039,2,0,B|312:208|292:296,1,140,0|8
356,332,29513,2,0,B|300:276|212:288,1,140
156,260,29987,2,0,B|120:200,1,70,8|0
160,74,30302,2,0,B|172:144,1,70
236,188,30618,1,8
236,188,30776,6,0,B|312:168|344:84,1,140
396,52,31250,2,0,B|448:108,1,70,8|0
456,180,31566,1,0
416,248,31723,1,0
372,308,31881,1,8
296,324,32039,2,0,B|272:240|196:208,1,140
139,324,32513,2,0,B|172:320|200:292,1,70,8|0
132,248,32829,2,0,B|100:180|16:160,1,140,0|0
164,76,33460,5,4
256,200,33776,1,8
348,76,34092,2,0,B|424:76,1,70
436,152,34408,2,0,B|364:152,1,70,8|0
340,224,34723,2,0,B|368:296|444:320,1,140,0|8
448,240,35197,2,0,B|448:304|368:372,2,140,0|8|0
388,100,36145,6,0,B|388:32,1,70,0|8
256,108,36618,1,0
180,108,36776,1,0
148,180,36934,1,8
72,180,37092,1,0
108,248,37250,2,0,B|136:328|216:344,1,140,0|8
280,352,37723,1,0
256,208,38039,2,0,B|256:288,2,70,0|8|0
272,132,38513,6,0,B|340:88,1,70,4|0
442,99,38829,2,0,B|388:144,1,70,8|0
440,200,39145,2,0,B|440:292,1,70
364,342,39460,2,0,B|364:272,1,70,8|0
312,216,39776,2,0,B|232:228|200:304,1,140,0|8
248,360,40250,2,0,B|208:300|120:292,1,140
76,236,40723,2,0,B|36:168,1,70,8|8
72,104,41039,5,4
72,104,41355,1,8
216,48,41671,2,0,B|200:128|256:176,1,140,0|8
240,252,42145,2,0,B|276:176|360:148,1,140
396,108,42618,2,0,B|468:108,2,70,8|0|0
452,252,43250,1,8
452,252,43408,1,8
452,252,43566,6,0,B|408:304|304:336,1,140,4|8
260,336,44039,1,0
188,312,44197,2,0,B|140:248,1,70
176,127,44513,2,0,B|192:196,1,70,8|0
260,232,44829,2,0,B|328:216|360:132,1,140,0|8
320,72,45302,1,0
440,168,45618,1,8
320,72,45934,2,0,B|228:72,1,70,0|4
176,52,46250,5,0
160,128,46408,2,0,B|96:192,1,70,8|0
48,224,46723,2,0,B|80:300|168:324,1,140,0|8
224,316,47197,1,0
252,244,47355,2,0,B|280:172|368:152,1,140,0|8
368,80,47829,1,0
452,208,48145,1,0
424,136,48302,2,0,B|496:100,2,70,8|0|4
376,284,48934,5,8
228,324,49250,1,0
100,236,49566,2,0,B|100:152,1,70,8|0
164,124,49881,2,0,B|284:44,1,140,0|8
416,42,50355,2,0,B|300:120,1,140
256,184,50829,2,0,B|256:268,2,70,8|0|4
408,192,51460,5,8
408,192,51618,1,0
408,268,51776,2,0,B|368:332|276:348,1,140,0|8
216,344,52250,2,0,B|176:284|84:256,1,140
56,204,52723,2,0,B|56:128,1,70,8|0
92,64,53039,1,0
168,44,53197,1,0
244,56,53355,1,8
304,104,53513,1,8
304,180,53671,6,0,B|336:224|392:216|392:216|400:184|428:152|488:160,1,210,4|0
464,236,54302,2,0,B|456:284|384:308|384:308|284:272,1,210
240,220,54934,2,0,B|180:196|120:264|144:320|144:320|112:344,1,210
56,292,55566,2,0,B|64:212|128:164,1,140
268,132,56197,6,0,B|348:128|408:72,2,140,4|0|0
140,48,57145,2,0,B|140:128,1,70
196,172,57460,2,0,B|224:224|288:220|288:220|360:204|360:204|408:216,1,210
376,288,58092,2,0,B|356:280|356:280|296:308|220:288,1,140
92,328,58723,6,0,B|120:264|80:208|80:208|60:200|60:200|56:164|24:132,1,210,4|0
56,68,59355,2,0,B|108:100|120:148|120:148|148:164|148:164|200:152|212:120,1,210
244,56,59987,2,0,B|400:56,1,140
372,132,60460,1,0
372,132,60618,2,0,B|284:132|284:132|280:168|280:168|260:212|196:232,1,210
240,300,61250,6,0,B|308:288|352:216,2,140,4|0|0
96,248,62197,1,0
96,248,62355,1,0
72,96,62671,1,0
216,152,62987,1,0
344,64,63302,2,0,B|424:64,2,70
300,128,63776,6,0,B|368:160|376:248,1,140,4|8
316,292,64250,1,8
244,320,64408,2,0,B|176:280|168:200,1,140,0|8
130,49,65039,2,0,B|144:128|216:152,2,140,0|8|0
64,188,65987,1,8
64,264,66145,1,8
108,328,66302,6,0,B|184:324|240:248,1,140,4|8
256,192,66776,1,0
292,124,66934,2,0,B|340:56,1,70
451,44,67250,2,0,B|404:96,1,70,8|0
440,164,67566,1,0
452,316,67881,1,8
312,248,68197,1,0
440,164,68513,1,8
408,236,68671,1,8
372,304,68829,6,0,B|324:352|228:348,1,140,4|8
224,272,69302,1,0
204,196,69460,2,0,B|123:192|75:240,1,140,0|8
104,312,69934,2,0,B|80:236|0:200,2,140,0|8|0
204,196,70881,2,0,B|276:172|312:92,1,140,0|8
372,64,71355,6,0,B|412:136,1,70,4|0
472,164,71671,2,0,B|472:256,1,70,8|0
412,284,71987,1,0
412,284,72145,2,0,B|368:232|268:224,1,140,8|0
148,160,72776,2,0,B|148:84,1,70,0|8
256,44,73092,2,0,B|256:128,1,70
388,192,73566,1,8
256,272,73881,6,0,B|256:352,2,70,4|0|8
180,284,74355,2,0,B|152:212|64:184,1,140
48,120,74829,1,8
124,124,74987,2,0,B|176:64|256:52,1,140
316,76,75460,1,8
416,192,75776,1,0
324,316,76092,2,0,B|252:316,1,70,8|0
184,280,76408,5,4
124,232,76566,1,0
104,160,76723,1,8
112,84,76881,1,0
184,112,77039,2,0,B|228:180|320:172,1,140,0|8
364,128,77513,2,0,B|304:168|296:244,2,140,0|0|8
432,160,78302,2,0,B|432:236,2,70,0|0|8
336,40,78934,6,0,B|176:40,1,140,4|8
132,84,79408,1,0
200,120,79566,2,0,B|272:120|272:120|288:152|248:184,1,140,0|8
232,252,80039,2,0,B|160:252|160:252|144:220|184:188,2,140,0|0|8
308,236,80829,2,0,B|388:236,1,70
482,168,81145,2,0,B|412:168,1,70,8|0
340,140,81460,5,4
288,84,81618,1,0
228,32,81776,1,8
136,104,81934,6,0,B|136:188,1,70
212,262,82250,2,0,B|212:192,1,70,0|8
292,276,82566,6,0,B|292:352|292:352|324:368|364:352,1,140
368,280,83039,1,8
368,280,83197,1,0
440,256,83355,2,0,B|424:216|384:208,1,70
332,158,83671,2,0,B|356:132|396:132,1,70,8|0
256,168,83987,6,0,B|172:168|136:88,2,140,4|8|0
148,280,84934,1,8
148,280,85092,2,0,B|232:280|268:360,2,140,0|0|8
80,244,85881,2,0,B|80:168,2,70,0|0|8
172,120,86513,6,0,B|328:120,1,140,4|8
364,60,86987,1,0
432,96,87145,2,0,B|512:96,2,70,0|0|8
380,152,87618,2,0,B|372:232|300:276,1,140
352,336,88092,2,0,B|316:264|228:260,1,140,8|0
188,204,88566,2,0,B|188:132,2,70,0|8|0
136,264,89039,5,4
52,132,89355,1,8
180,48,89671,1,0
280,164,89987,1,8
280,164,90145,2,0,B|360:144|404:64,1,140
468,84,90618,2,0,B|468:156,1,70,8|0
444,228,90934,2,0,B|364:248|320:328,1,140,0|8
180,328,91566,6,0,B|100:328,2,70,4|0|8
256,240,92039,1,0
184,120,92197,2,0,B|104:120,2,70,0|0|8
272,72,92671,6,0,B|412:72,1,140
432,148,93145,2,0,B|352:148,1,70,8|0
352,224,93460,2,0,B|432:224|432:224|460:240|456:284,1,140,0|8
384,304,93934,1,0
308,288,94092,6,0,B|240:256|232:172,2,140,4|8|0
264,352,94881,2,0,B|180:352,1,70,0|8
164,280,95197,1,0
144,208,95355,2,0,B|128:136|36:108,1,140,0|8
32,188,95829,2,0,B|88:144|84:56,1,140,0|8
240,68,96460,1,0
240,68,96618,1,4
256,192,96697,12,4,99145
256,52,109250,6,0,B|344:56|396:112,1,140,4|8
388,176,109723,2,0,B|388:252,2,70
316,204,110197,2,0,B|316:276,1,70,8|0
272,336,110513,2,0,B|200:332|152:256,1,140,0|8
80,272,110987,2,0,B|160:256|192:188,2,140,0|8|0
60,196,111776,6,0,B|60:120,1,70,4|0
136,38,112092,2,0,B|136:108,1,70,8|0
212,48,112408,2,0,B|212:120|212:120|252:132|264:176,1,140,0|8
256,240,112881,1,0
280,312,113039,2,0,B|316:296|324:263|324:263|396:263,1,140,0|8
420,188,113513,2,0,B|348:188|348:188|324:168|336:120,2,140,0|8|0
416,112,114302,6,0,B|426:68|402:48|402:48|330:48,1,140,4|8
256,184,114934,2,0,B|256:264,1,70
159,327,115250,2,0,B|180:260,2,70,8|0|0
88,300,115723,1,0
48,232,115881,1,8
60,156,116039,2,0,B|128:128|144:48,2,140,0|8|0
120,208,116829,6,0,B|196:208,1,70,4|0
216,136,117145,2,0,B|288:136,1,70,8|0
316,208,117460,2,0,B|384:184|408:96,1,140,0|8
356,48,117934,6,0,B|400:112|496:116,1,140
476,192,118408,2,0,B|476:264,1,70,8|0
400,280,118723,1,0
352,340,118881,1,0
276,360,119039,1,0
208,320,119197,1,0
172,252,119355,6,0,B|144:208|64:212|64:212|40:196|40:196|16:156|40:120,1,210,4|0
88,88,119987,2,0,B|108:120|100:144|100:144|184:148|240:216,1,210
304,176,120618,2,0,B|268:116|192:88,2,140
408,60,121566,1,0
452,124,121723,1,0
388,164,121881,6,0,B|388:220|348:252|348:252|308:256|292:288,2,140,4|0|0
452,304,122829,1,0
380,328,122987,1,0
304,344,123145,2,0,B|240:332|232:264|232:264|216:232|216:232|176:188,1,210
112,228,123776,2,0,B|92:184|112:144|112:144|112:112|112:112|84:80,1,140
244,44,124408,6,0,B|300:60|320:124|320:124|308:180|344:216,1,210,4|0
396,156,125039,2,0,B|428:204|420:248|388:272|388:272|352:312|352:312|292:312,1,210
264,260,125671,2,0,B|248:200|168:164|168:164|160:208|128:228,1,210
92,160,126302,2,0,B|100:124|72:72|72:72|100:52|136:64,1,140
188,92,126776,1,0
260,116,126934,6,0,B|324:112|360:52|360:52|392:56|392:56|424:72|432:108,1,210,4|0
464,164,127566,1,0
392,300,127881,1,0
392,300,128039,1,0
256,224,128355,1,0
120,300,128671,1,0
72,152,128987,2,0,B|72:72,2,70
136,192,129460,6,0,B|196:136,1,70,4|0
285,102,129776,2,0,B|260:168,1,70,8|8
360,120,130092,2,0,B|360:40,2,70,0|0|8
424,164,130566,1,8
448,236,130723,2,0,B|416:304|332:312,1,140,0|8
300,244,131197,1,0
224,248,131355,2,0,B|196:176|100:164,1,140,0|8
76,232,131829,1,0
24,172,131987,6,0,B|24:24,1,140,4|8
172,72,132618,2,0,B|244:72,1,70
346,140,132934,2,0,B|276:140,1,70,8|0
376,212,133250,2,0,B|452:188|472:112,2,140,0|8|0
256,312,134197,1,8
104,284,134513,6,0,B|36:256|24:156,1,140,4|8
76,116,134987,1,8
128,60,135145,2,0,B|284:60,1,140,0|8
344,48,135618,2,0,B|384:112|464:128,1,140,8|0
444,280,136250,1,0
304,344,136566,2,0,B|280:272|184:244,1,140,8|8
140,208,137039,6,0,B|140:132,1,70,4|0
260,40,137513,2,0,B|348:40|400:104,2,140,0|8|0
360,156,138460,2,0,B|360:232,1,70,0|8
256,280,138776,2,0,B|256:196,1,70
124,192,139250,1,8
256,112,139566,6,0,B|256:32,2,70,4|0|8
332,100,140039,2,0,B|360:172|448:200,1,140
464,264,140513,1,8
388,260,140671,2,0,B|336:320|256:332,1,140
196,308,141144,1,8
96,192,141460,1,0
188,68,141776,2,0,B|260:68,1,70,8|0
328,104,142092,5,4
388,152,142250,1,0
408,224,142408,1,8
400,300,142566,1,0
328,272,142723,2,0,B|284:204|192:212,1,140,0|8
148,256,143197,2,0,B|208:216|216:140,2,140,0|0|8
80,224,143987,2,0,B|80:148,2,70,0|0|8
176,344,144618,6,0,B|336:344,1,140,4|8
380,300,145092,1,0
312,264,145250,2,0,B|240:264|240:264|224:232|264:200,1,140,0|8
280,132,145723,2,0,B|352:132|352:132|368:164|328:196,2,140,0|0|8
204,148,146513,2,0,B|124:148,1,70
30,216,146829,2,0,B|100:216,1,70,8|0
172,244,147144,5,4
224,300,147302,1,0
284,352,147460,1,8
376,280,147618,6,0,B|376:196,1,70
300,122,147934,2,0,B|300:192,1,70,0|8
220,108,148250,6,0,B|220:32|220:32|188:16|148:32,1,140
144,104,148723,1,8
144,104,148881,1,0
72,128,149039,2,0,B|88:168|128:176,1,70
179,225,149355,2,0,B|156:256|116:252,1,70,8|0
256,216,149671,6,0,B|340:216|376:296,2,140,4|8|0
364,104,150618,1,8
364,104,150776,2,0,B|280:104|244:24,2,140,0|0|8
432,140,151566,2,0,B|432:216,2,70,0|0|8
340,264,152197,6,0,B|184:264,1,140,4|8
148,324,152671,1,0
80,288,152829,2,0,B|0:288,2,70,0|0|8
132,232,153302,2,0,B|140:152|212:108,1,140
160,48,153776,2,0,B|196:120|284:124,1,140,8|0
324,180,154250,2,0,B|324:252,2,70,0|8|0
376,120,154723,5,4
460,252,155039,1,8
332,336,155355,1,0
232,220,155671,1,8
232,220,155829,2,0,B|152:240|108:320,1,140
44,300,156302,2,0,B|44:228,1,70,8|0
68,156,156618,2,0,B|148:136|192:56,1,140,0|8
332,56,157250,6,0,B|412:56,2,70,4|0|8
256,144,157723,1,0
328,264,157881,2,0,B|408:264,2,70,0|0|8
240,312,158355,6,0,B|100:312,1,140
80,236,158829,2,0,B|160:236,1,70,8|0
160,160,159144,2,0,B|80:160|80:160|52:144|56:100,1,140,0|8
128,80,159618,1,0
204,96,159776,6,0,B|272:128|280:212,2,140,4|8|0
248,32,160566,2,0,B|332:32,1,70,0|8
348,104,160881,1,0
368,176,161039,2,0,B|384:248|476:276,1,140,0|8
480,196,161513,2,0,B|424:240|428:328,1,140,0|8
280,272,162144,5,0
280,272,162302,2,0,B|124:272,1,140,4|8
96,336,162776,1,0
96,336,162934,2,0,B|136:312|136:228|84:200,1,140,0|8
104,136,163408,6,0,B|120:88|192:64|192:64|196:92,2,140,0|8|0
176,160,164197,1,0
248,184,164355,1,0
320,208,164513,1,8
420,96,164829,1,4
256,192,182513,12,0,184408
256,192,184723,6,0,B|256:120,1,70,8|0
180,38,185039,2,0,B|180:108,1,70,4|0
104,124,185355,2,0,B|120:168|152:180,1,70,8|0
192,240,185671,2,0,B|160:312|68:336,1,140,0|8
48,264,186144,1,0
116,228,186302,6,0,B|196:216|252:260,1,140,0|8
304,312,186776,1,0
356,256,186934,1,0
356,256,187092,2,0,B|356:104,2,140,8|0|0
404,316,187881,6,0,B|432:288|432:252,1,70,8|0
488,130,188197,2,0,B|488:200,2,70,0|0|8
428,80,188671,1,0
360,40,188829,2,0,B|280:44|240:104,1,140,0|8
204,172,189302,1,0
180,244,189460,1,0
180,244,189618,2,0,B|108:224|76:148,1,140,8|0
188,48,190250,5,0
308,144,190566,1,0
368,192,190723,2,0,B|440:192,1,70
358,268,191039,2,0,B|428:268,1,70,8|0
292,228,191355,2,0,B|248:264|260:336|260:336|216:304,1,140,0|8
184,272,191829,1,0
128,220,191987,1,0
128,220,192144,2,0,B|172:184|160:112|160:112|204:144,1,140,8|0
228,68,192618,5,4
344,172,192934,1,8
344,172,193092,2,0,B|368:252|468:260,1,140
472,184,193566,2,0,B|472:328,1,140,8|0
320,340,194197,1,8
196,248,194513,1,0
84,144,194829,2,0,B|160:144,1,70,8|0
224,172,195144,5,4
224,172,195302,2,0,B|300:144|312:60,1,140,0|8
384,88,195776,2,0,B|384:168,1,70
460,246,196092,2,0,B|460:176,1,70,8|0
384,268,196408,2,0,B|304:272|260:344,1,140,0|8
192,348,196881,1,0
128,304,197039,1,0
128,304,197197,2,0,B|112:224|32:196,1,140,8|0
76,128,197671,6,0,B|220:128,1,140,4|8
256,60,198144,1,0
324,96,198302,2,0,B|324:176,1,70
400,234,198618,2,0,B|400:164,1,70,8|0
328,260,198934,2,0,B|328:332|328:332|304:352|256:332,1,140,0|8
248,260,199408,1,0
180,228,199566,1,0
112,196,199723,2,0,B|112:344,1,140,8|0
248,260,200355,6,0,B|248:192,1,70,0|8
224,116,200671,1,0
156,80,200829,2,0,B|88:36,2,70,0|0|8
224,116,201302,1,0
300,104,201460,1,0
276,176,201618,1,0
328,232,201776,2,0,B|408:232,1,70,8|0
456,180,202092,1,0
456,180,202250,2,0,B|440:104|340:72,1,140,8|0
296,52,202723,6,0,B|268:100|268:100|232:64|152:64|132:108,1,210,4|0
76,332,203671,1,8
268,248,203987,6,0,B|348:248,1,70,4|0
244,136,204302,2,0,B|164:136,1,70,8|0
280,36,204618,1,0
452,192,204934,1,8
280,348,205250,5,4
216,304,205408,1,0
152,260,205566,2,0,B|96:272|72:304,1,70
156,68,206197,5,0
216,116,206355,2,0,B|244:192|324:208,1,140
380,94,206829,2,0,B|380:164,2,70,0|0|0
472,220,207460,5,8
352,316,207776,2,0,B|264:316,1,70,4|0
224,264,208092,2,0,B|144:264,1,70,0|0
136,188,208408,2,0,B|112:124|32:104,1,140,0|8
68,36,208881,2,0,B|148:48|192:124,1,140
256,206,209355,2,0,B|256:136,2,70
332,192,209829,1,0
348,116,209987,2,0,B|348:64,2,35,8|0|0
424,132,210302,6,0,B|480:180|484:264,1,140,4|8
428,308,210776,1,0
392,240,210934,2,0,B|312:260|288:328,1,140,0|8
212,344,211408,2,0,B|212:268|212:268|204:252|204:252|204:200,1,140
132,180,211881,2,0,B|132:108,1,70,8|0
196,68,212197,1,0
272,48,212355,1,0
348,64,212513,1,8
436,192,212829,6,0,B|360:192,1,70,4|0
336,264,213144,1,8
208,204,213302,2,0,B|138:204,2,70
188,280,213776,1,8
220,124,213934,6,0,B|256:56|348:48,1,140
380,112,214408,2,0,B|380:180,1,70,8|0
452,204,214723,1,0
452,280,214881,1,0
452,356,215039,1,8
242,292,215355,6,0,B|312:292,1,70,4|0
196,232,215671,2,0,B|120:232,1,70,8|0
56,200,215987,2,0,B|68:128|148:96,1,140,0|8
184,32,216460,2,0,B|180:116|256:152,1,140
308,100,216934,2,0,B|376:100,1,70,8|0
448,132,217250,1,0
388,276,217566,1,8
244,216,217881,5,4
200,280,218039,1,0
144,332,218197,1,8
68,336,218355,1,0
72,260,218513,2,0,B|140:248|148:188|148:188|180:172,1,140,0|8
136,108,218987,2,0,B|68:120|60:180|60:180|28:196,2,140,0|8|0
200,64,219776,2,0,B|276:64,2,70,0|0|8
280,196,220408,5,4
352,168,220566,1,0
392,104,220723,2,0,B|424:132|428:172,1,70,8|0
488,212,221039,2,0,B|420:244|400:328,1,140,0|8
332,352,221513,2,0,B|260:344|212:256,1,140
184,204,221987,2,0,B|104:204,1,70,8|0
56,152,222302,1,0
176,52,222618,1,8
316,120,222934,5,4
392,120,223092,1,0
468,120,223250,1,8
420,224,223408,2,0,B|352:224,1,70
292,324,223723,2,0,B|212:324,1,70,0|8
132,252,224039,6,0,B|132:176|56:132,1,140
44,64,224513,2,0,B|40:100|12:132,2,70,8|0|0
270,72,225144,2,0,B|200:72,1,70,8|0
300,144,225460,6,0,B|368:144|400:72|400:72|424:72,2,140,4|8|0
256,208,226250,2,0,B|256:288,2,70,0|8|0
196,160,226723,6,0,B|120:160|76:240,1,140,0|8
108,304,227197,2,0,B|88:228|4:212,1,140
84,76,227829,1,8
84,76,227987,1,0
256,192,228066,12,0,229881
256,144,230197,6,0,B|256:60,1,70,8|0
332,88,230513,2,0,B|408:96|448:160,1,140,4|8
376,192,230987,2,0,B|300:204|268:280,1,140
138,316,231460,2,0,B|208:316,2,70,8|0|0
128,184,232092,5,8
128,184,232250,1,0
220,60,232566,1,0
324,172,232881,1,8
324,172,233039,2,0,B|356:236|448:260,1,140,4|8
396,324,233513,1,0
324,292,233671,2,0,B|240:292|192:356,1,140,0|8
132,308,234144,1,0
256,192,234223,12,4,235566
