osu file format v9

[General]
AudioFilename: Romantic Hero.mp3
AudioLeadIn: 0
PreviewTime: 73566
Countdown: 0
SampleSet: Normal
StackLeniency: 0.7
Mode: 0
LetterboxInBreaks: 0

[Editor]
Bookmarks: 28408,109250,164834,182508
DistanceSpacing: 1
BeatDivisor: 4
GridSize: 4

[Metadata]
Title:Romantic Hero
Artist:Megpoid GUMI
Creator:tutuhaha
Version:Easy
Source:Last Note.
Tags:spboxer3 vocaloid vocaloid2 Love Sander-Don

[Difficulty]
HPDrainRate:2
CircleSize:3
OverallDifficulty:2
ApproachRate:4
SliderMultiplier:0.9
SliderTickRate:1

[Events]
//Background and Video events
Video,0,"Romantic Hero.flv"
0,0,"BG.jpg"
//Break Periods
2,13450,27088
2,99345,107930
2,165029,181193
//Storyboard Layer 0 (Background)
//Storyboard Layer 1 (Fail)
//Storyboard Layer 2 (Pass)
//Storyboard Layer 3 (Foreground)
//Storyboard Sound Samples
//Background Colour Transformations
3,100,163,162,255

[TimingPoints]
3145,315.789473684211,4,1,1,55,1,0
28408,-100,4,1,2,55,0,0
28960,-100,4,1,1,55,0,0
29118,-100,4,1,2,55,0,0
33460,-100,4,1,2,50,0,0
37802,-100,4,1,1,50,0,0
37960,-100,4,1,2,50,0,0
42223,-100,4,1,1,50,0,0
42381,-100,4,1,2,50,0,0
43566,-100,4,1,2,60,0,0
45381,-100,4,1,1,60,0,0
47592,-100,4,1,2,60,0,0
47750,-100,4,1,1,60,0,0
49881,-100,4,1,2,60,0,0
52329,-100,4,1,1,60,0,0
52487,-100,4,1,2,60,0,0
53671,-100,4,1,1,50,0,0
63776,-100,4,1,2,55,0,0
73881,-100,4,1,2,70,0,1
76960,-100,4,1,1,70,0,1
77118,-100,4,1,2,70,0,1
82013,-100,4,1,1,70,0,1
82171,-100,4,1,2,70,0,1
85171,-100,4,1,1,70,0,1
85329,-100,4,1,2,70,0,1
92118,-100,4,1,1,70,0,1
92276,-100,4,1,2,70,0,1
99145,-100,4,1,1,55,0,0
109250,-100,4,1,2,60,0,0
112329,-100,4,1,1,60,0,0
112487,-100,4,1,2,60,0,0
114618,-100,4,1,1,60,0,0
116829,-100,4,1,2,60,0,0
117381,-100,4,1,1,60,0,0
117539,-100,4,1,2,60,0,0
119355,-100,4,1,1,50,0,0
129460,-100,4,1,2,55,0,0
133171,-100,4,1,1,55,0,0
133329,-100,4,1,2,55,0,0
139566,-100,4,1,2,70,0,1
142645,-100,4,1,1,70,0,1
142802,-100,4,1,2,70,0,1
147697,-100,4,1,1,70,0,1
147855,-100,4,1,2,70,0,1
150855,-100,4,1,1,70,0,1
151013,-100,4,1,2,70,0,1
157802,-100,4,1,1,70,0,1
157960,-100,4,1,2,70,0,1
164829,-100,4,1,1,55,0,0
185039,-100,4,1,2,50,0,0
185592,-100,4,1,1,50,0,0
185750,-100,4,1,2,50,0,0
189381,-100,4,1,1,50,0,0
189539,-100,4,1,2,50,0,0
191908,-100,4,1,1,50,0,0
192066,-100,4,1,2,50,0,0
195460,-100,4,1,1,50,0,0
196645,-100,4,1,2,50,0,0
196802,-100,4,1,1,50,0,0
199171,-100,4,1,2,50,0,0
199329,-100,4,1,1,50,0,0
200197,-100,4,1,2,50,0,0
202645,-100,4,1,1,50,0,0
202802,-100,4,1,2,50,0,0
203987,-100,4,1,1,60,0,0
210302,-100,4,1,2,70,0,1
211487,-100,4,1,1,70,0,1
211645,-100,4,1,2,70,0,1
213381,-100,4,1,1,70,0,1
214171,-100,4,1,2,70,0,1
218434,-100,4,1,1,70,0,1
218592,-100,4,1,2,70,0,1
223566,-100,4,1,1,70,0,1
224829,-100,4,1,2,70,0,1
227908,-100,4,1,1,70,0,1
230513,-100,4,1,2,70,0,1
232250,-100,4,1,1,70,0,1
235566,-100,4,1,1,55,0,0

[Colours]
Combo1 : 204,26,0
Combo2 : 90,194,46
Combo3 : 49,96,96
Combo4 : 0,0,170

[HitObjects]
256,88,3145,2,0,B|232:160|148:176|148:176|76:168|40:240,1,270,4|8
104,300,4408,2,0,B|196:300,1,90
256,236,5039,2,0,B|348:236,1,90,0|8
436,252,5671,6,0,B|440:180|380:148|380:148|296:136|264:44,1,270,4|8
184,76,6934,2,0,B|88:88|36:180,1,180
100,240,7881,1,8
112,328,8197,6,0,B|176:320|208:252|208:252|216:168|296:156,1,270,4|8
296,248,9460,2,0,B|368:308,2,90
372,200,10408,1,8
256,192,10723,12,4,13250
260,64,28408,6,0,B|332:64|368:140|368:140|336:180|336:180|348:224|396:248,1,270,4|8
320,304,29671,2,0,B|272:276|248:192|248:192|264:136,2,180
248,356,31250,1,8
160,344,31566,2,0,B|136:284|60:260|60:260|40:200,2,180
156,164,33460,6,0,B|184:104|260:64|260:64|280:92,1,180,4|0
308,180,34408,1,8
352,260,34723,2,0,B|380:320|456:360|456:360|476:332,2,180,0|0|4
400,184,36302,6,0,B|400:84,2,90,8|0|8
308,180,37250,2,0,B|240:176|204:240|204:240|192:268|192:268|140:300|76:264,1,270,0|8
52,184,38513,6,0,B|104:184|136:200|136:200|148:160|196:124,1,180,4|0
256,60,39460,1,8
319,126,39776,2,0,B|364:160|376:200|376:200|408:184|460:184,2,180,0|0|4
256,192,41355,5,8
188,248,41671,2,0,B|124:232|80:280|80:280|4:232|20:140,1,270,0|8
84,88,42934,2,0,B|112:120|108:176,1,90,0|8
196,160,43566,6,0,B|212:108|256:80,1,90,4|8
312,148,44197,2,0,B|272:180|264:240|264:240|308:244|328:280,1,180
388,212,45145,2,0,B|428:180|436:120|436:120|392:116|372:80,2,180,8|8|8
325,276,46723,5,0
256,332,47039,1,8
186,276,47355,2,0,B|152:232|80:228|80:228|40:200|24:132|72:88,1,270,0|8
136,152,48618,6,0,B|164:108|164:56,1,90,4|8
248,40,49250,2,0,B|296:60|320:112,1,90,0|8
252,168,49881,2,0,B|300:204|376:176|376:176|404:132,2,180,0|0|4
196,236,51460,5,8
276,276,51776,2,0,B|356:300|432:252|432:252|488:160,1,270,0|8
432,88,53039,2,0,B|432:32,2,45,0|0|8
364,148,53671,6,0,B|344:84|280:56|280:56|240:104|240:104|196:120|144:92,1,270,4|0
116,176,54934,2,0,B|180:208|264:192|264:192|256:248|192:296,1,270
272,344,56197,6,0,B|312:312|336:260,1,90,4|0
360,188,56829,2,0,B|416:216|424:284|424:284|476:252,2,180
308,112,58408,1,0
252,40,58723,6,0,B|208:80|216:144|216:144|176:180|116:176|88:108,1,270,4|0
40,188,59987,2,0,B|60:248|144:272|216:256|216:256|188:332,1,270
284,328,61250,2,0,B|316:236,1,90,4|0
404,236,61881,6,0,B|404:180|344:160|344:160|316:140|328:56|408:36,1,270
448,116,63145,2,0,B|484:144|492:196,1,90
484,284,63776,6,0,B|452:324|404:328,1,90,4|8
320,340,64408,2,0,B|288:296|232:288,1,90,0|8
156,280,65039,2,0,B|168:216|224:196|224:196|224:152|176:128,1,180
124,84,65987,1,8
208,52,66302,6,0,B|272:80|296:136|296:136|324:136|344:96,1,180,4|0
412,48,67250,1,8
416,140,67566,2,0,B|400:188|352:208,1,90,0|8
272,224,68197,2,0,B|232:252|220:300,1,90,0|8
132,304,68829,6,0,B|136:240|180:192|180:192|168:172|168:172|180:136,1,180,4|0
132,64,69776,1,8
224,64,70092,2,0,B|264:96|264:136|264:136|300:144|344:92,2,180,0|0|4
256,192,71513,12,0,73250
256,68,73881,6,0,B|312:68|348:120|348:120|340:160|376:180,1,180,4|0
336,260,74829,2,0,B|292:236|272:188,1,90,8|0
200,144,75460,2,0,B|160:108|160:60,1,90,8|0
76,92,76092,1,8
100,180,76408,6,0,B|128:228|184:244|184:244|184:272|184:272|252:296|280:368,1,270,4|8
360,328,77671,2,0,B|344:280|296:240,1,90,0|8
244,196,78302,2,0,B|276:164|332:160,1,90,0|8
408,196,78934,6,0,B|424:144|392:96|392:96|360:76|312:72,1,180,4|0
232,60,79881,1,8
144,68,80197,2,0,B|152:116|192:144,1,90,0|8
116,192,80829,2,0,B|156:228|208:232,1,90,0|8
176,320,81460,6,0,B|240:328|276:280|276:280|276:232|276:232|304:192|376:192,1,270,4|8
356,104,82723,2,0,B|292:104|248:136|248:136|216:120|212:80,1,180
124,76,83671,2,0,B|124:136|160:168,1,90,8|4
152,248,84302,5,8
104,324,84618,2,0,B|164:344|212:324|212:324|228:284|228:284|288:276|328:200,1,270,0|8
380,284,85881,2,0,B|416:248|416:188,1,90,0|8
356,136,86513,6,0,B|296:132|236:72|236:72|196:88,2,180,4|0|0
404,60,88092,2,0,B|352:56|312:20,2,90,8|0|8
444,140,89039,6,0,B|432:216|360:228|360:228|300:212,1,180,4|0
224,208,89987,1,8
200,296,90302,2,0,B|140:272|132:208|132:208|76:252,1,180
32,172,91250,1,8
104,120,91566,6,0,B|180:68|180:68|272:80|312:184,1,270,4|8
376,116,92829,2,0,B|360:68|312:36,2,90,0|8|0
392,204,93776,1,8
316,252,94092,6,0,B|248:260|212:324|212:324|160:296,1,180,4|0
112,232,95039,1,8
36,184,95355,2,0,B|72:144|120:140|120:140|156:128|168:68,1,180
256,64,96302,1,8
256,192,96618,12,4,99145
80,68,109250,6,0,B|64:140|88:192|88:192|132:176|156:196,1,180,4|0
164,100,110197,1,8
228,164,110513,2,0,B|244:232|188:272|188:272|180:296|204:324,1,180
288,292,111460,2,0,B|316:260|316:204,1,90,8|4
304,120,112092,6,0,B|364:88|424:116|424:116|444:88|444:88|484:128|480:208,1,270,8|0
392,196,113355,2,0,B|400:248|444:272,1,90,8|0
376,336,113987,2,0,B|328:312|308:264,1,90,8|4
272,196,114618,6,0,B|236:152|160:144|160:144|128:120|132:88,2,180,8|8|8
204,252,116197,2,0,B|168:224|104:228,1,90,0|8
140,316,116829,6,0,B|184:352|248:336|248:336|288:312|300:276|300:276|372:240,1,270,4|8
456,260,118092,2,0,B|460:208|428:172,1,90,0|8
424,84,118723,2,0,B|376:92|348:136,1,90,0|8
280,76,119355,6,0,B|244:144|172:160|172:160|140:120|92:112|92:112|72:144,1,270,4|0
112,224,120618,2,0,B|168:260|168:260|280:244|340:160,1,270
368,76,121881,6,0,B|428:104|428:176|428:176|392:232,2,180,4|0|0
200,144,123776,2,0,B|180:96|116:84,1,90
48,112,124408,6,0,B|60:160|112:176|112:176|120:216|176:252|236:244|264:200,1,270,4|0
296,292,125671,2,0,B|256:328|172:340|108:296,2,180,0|0|4
340,212,127250,2,0,B|368:172|420:156,1,90
376,76,127881,2,0,B|304:96|268:156|268:156|224:176|164:156|152:108,1,270
64,120,129145,6,0,B|72:168|112:200,1,90,0|4
96,284,129776,2,0,B|144:288|180:252,1,90,8|0
256,300,130408,1,8
332,348,130723,6,0,B|356:292|328:248|328:248|408:204,1,180
424,124,131671,1,8
336,136,131987,2,0,B|252:188,1,90,4|8
208,260,132618,6,0,B|156:224|168:160|168:160|144:84|48:56,1,270,0|8
16,140,133881,2,0,B|52:172|56:220,1,90,0|8
108,292,134513,6,0,B|160:352|240:356|240:356|268:332,2,180,4|0|0
136,208,136092,2,0,B|160:148|208:128,1,90,8|0
256,192,136723,2,0,B|312:172|332:128,1,90,8|0
256,192,137197,12,0,138934
256,316,139566,6,0,B|200:316|164:264|164:264|172:224|136:204,1,180,4|0
176,124,140513,2,0,B|220:148|240:196,1,90,8|0
312,240,141144,2,0,B|352:276|352:324,1,90,8|0
436,292,141776,1,8
412,204,142092,6,0,B|384:156|328:140|328:140|328:112|328:112|260:88|232:16,1,270,4|8
152,56,143355,2,0,B|168:104|216:144,1,90,0|8
268,188,143987,2,0,B|236:220|180:224,1,90,0|8
104,188,144618,6,0,B|88:240|120:288|120:288|152:308|200:312,1,180,4|0
280,324,145566,1,8
368,316,145881,2,0,B|360:268|320:240,1,90,0|8
396,192,146513,2,0,B|356:156|304:152,1,90,0|8
336,64,147144,6,0,B|272:56|236:104|236:104|236:152|236:152|208:192|136:192,1,270,4|8
156,280,148408,2,0,B|220:280|264:248|264:248|296:264|300:304,1,180
388,308,149355,2,0,B|388:248|352:216,1,90,8|4
360,136,149987,5,8
408,60,150302,2,0,B|348:40|300:60|300:60|284:100|284:100|224:108|184:184,1,270,0|8
132,100,151566,2,0,B|96:136|96:196,1,90,0|8
156,248,152197,6,0,B|216:252|276:312|276:312|316:296,2,180,4|0|0
108,324,153776,2,0,B|160:328|200:364,2,90,8|0|8
68,244,154723,6,0,B|80:168|152:156|152:156|212:172,1,180,4|0
288,176,155671,1,8
312,88,155987,2,0,B|372:112|380:176|380:176|436:132,1,180
480,212,156934,1,8
408,264,157250,6,0,B|332:316|332:316|240:304|200:200,1,270,4|8
136,268,158513,2,0,B|152:316|200:348,2,90,0|8|0
120,180,159460,1,8
196,132,159776,6,0,B|264:124|300:60|300:60|352:88,1,180,4|0
400,152,160723,1,8
476,200,161039,2,0,B|440:240|392:244|392:244|356:256|344:316,1,180
256,320,161987,1,8
256,192,162302,12,4,164829
256,192,182513,12,0,184408
256,56,185039,6,0,B|236:104|168:128|168:128|132:116|132:116|72:128|32:192,1,270,4|8
80,260,186302,2,0,B|112:216|144:204|144:204|184:220|236:188,2,180,0|0|4
164,296,187881,6,0,B|216:300|260:272,1,90,8|0
328,232,188513,1,8
420,232,188829,2,0,B|424:168|364:144|364:144|348:116|348:116|300:112|244:32,1,270,0|8
172,84,190092,6,0,B|208:152|272:184|272:184|232:204,2,180,4|0|0
84,100,191671,2,0,B|100:160|140:192|140:192|152:212|152:284|256:296,1,270,8|4
328,248,192934,6,0,B|376:236|396:192,2,90,8|0|8
312,160,193881,2,0,B|332:116|388:96|388:96|424:72|432:24,2,180,0|0|4
220,160,195460,6,0,B|220:92|220:92|184:48|108:64,1,180,8|8
128,152,196408,2,0,B|128:288|128:288|188:336|272:296,1,270,0|8
280,216,197671,6,0,B|324:232|344:280,2,90,4|8|0
328,140,198618,1,8
380,68,198934,2,0,B|312:40|256:76|256:76|240:112|240:112|196:132|128:128,1,270,0|8
52,128,200197,6,0,B|60:200|124:216|124:216|124:260|96:280,1,180,4|0
180,324,201144,2,0,B|208:284|208:232,1,90,8|0
292,204,201776,2,0,B|280:152|232:128,1,90,8|0
232,44,202408,2,0,B|292:48|328:96|328:96|384:60,1,180,8|8
448,124,203355,2,0,B|372:172,1,90,0|8
328,252,203987,6,0,B|228:252,2,90,4|8|0
284,172,204934,1,8
208,124,205250,6,0,B|188:60|120:36|120:36|92:108|8:140,2,270,4|8|0
152,192,207460,1,8
212,256,207776,6,0,B|232:320|300:344|300:344|328:272|412:240,2,270,4|8|0
284,204,209987,2,0,B|284:148|280:148,2,45,8|0|4
200,168,210618,5,8
236,84,210934,2,0,B|276:52|352:60|352:60|352:96|352:96|376:148|464:144,1,270,0|8
448,236,212197,2,0,B|388:232|352:212,1,90,0|8
272,236,212829,6,0,B|236:344|132:304|132:304|132:204,2,270,4|8|0
208,172,215039,2,0,B|208:120,2,45,8|0|4
296,152,215671,5,8
300,64,215987,2,0,B|352:76|376:116,1,90,0|8
448,164,216618,2,0,B|428:228|360:272|360:272|400:288,1,180
336,356,217566,1,8
260,308,217881,6,0,B|220:252|252:188|252:188|236:156|236:156|180:136|120:168,1,270,4|8
64,104,219144,2,0,B|100:72|156:68,1,90,0|8
236,64,219776,2,0,B|288:72|320:108,1,90,0|8
332,192,220408,6,0,B|400:168|400:92|400:92|452:72,2,180,4|0|0
256,244,221987,2,0,B|256:344,2,90,8|0|8
168,232,222934,6,0,B|168:328|168:328|116:344|116:344|44:340|36:268,1,270,4|8
84,196,224197,2,0,B|84:96,1,90,0|8
176,112,224829,2,0,B|228:68|304:80|304:80|320:124,2,180,0|4|0
236,180,226408,6,0,B|276:212|340:212,2,90,8|0|8
196,260,227355,2,0,B|256:304|348:296|348:296|400:276|456:300,1,270,0|8
480,212,228618,6,0,B|404:192|404:192|400:160|364:136,2,135,0|8|8
472,124,229881,2,0,B|448:72|400:64,1,90,0|8
316,76,230513,6,0,B|256:80|220:124|220:124|184:120|156:80,1,180,4|0
80,124,231460,1,8
140,192,231776,2,0,B|192:228|192:228|244:224|272:280|272:280|320:240|372:252,1,270,0|8
256,192,233039,12,4,235566
