osu file format v9

[General]
AudioFilename: GUMI - Nisemono no Uta.mp3
AudioLeadIn: 1000
PreviewTime: 68856
Countdown: 0
SampleSet: Normal
StackLeniency: 0.7
Mode: 1
LetterboxInBreaks: 0

[Editor]
DistanceSpacing: 0.9
BeatDivisor: 4
GridSize: 32

[Metadata]
Title:Nisemono no Uta
Artist:Megpoid GUMI
Creator:raririn
Version:Ts8aiko
Source:hako
Tags:vocaloid vocaloid2 ts8zs tutuhaha

[Difficulty]
HPDrainRate:5
CircleSize:3
OverallDifficulty:5
ApproachRate:7
SliderMultiplier:1.4
SliderTickRate:2

[Events]
//Background and Video events
0,0,"TaikoBG.png"
//Break Periods
//Storyboard Layer 0 (Background)
Sprite,Background,Centre,"SB\black.png",320,240 M,0,211931,,320,240
Sprite,Background,Centre,"TaikoBG.png",320,240 S,0,0,,0.624 M,0,211931,,319,370
Sprite,Background,Centre,"SB\TaikoBG2.png",320,240 S,0,-2552,,0.624 F,0,-2552,0,0,1 F,0,66,1372,1 M,0,1372,,319,370 F,0,1372,5174,1,0 F,0,5174,5386,0 F,0,5386,5597,0,0.5480001 F,0,5597,7287,0.5480001,1 F,0,7287,9400,1,0
//Storyboard Layer 1 (Fail)
//Storyboard Layer 2 (Pass)
//Storyboard Layer 3 (Foreground)
Sprite,Foreground,Centre,"SB\taiko.png",320,240 S,0,7708,,0.632 F,0,7708,8553,0,1 M,0,7708,211931,388,427 F,0,8553,211931,1
//Storyboard Sound Samples
//Background Colour Transformations
3,100,0,64,0

[TimingPoints]
-17,422.535211267606,4,1,0,80,1,0
69278,-100,4,1,0,70,0,1
96321,-100,4,1,0,100,0,0
111954,-100,4,1,0,70,0,0
113750,-100,4,1,0,100,0,0
116180,-100,4,1,0,70,0,0
117025,-100,4,1,0,100,0,0
118187,-100,4,1,0,70,0,0
120511,-100,4,1,0,100,0,0
120933,-100,4,1,0,70,0,0
121145,-100,4,1,0,100,0,0
126321,-100,4,1,0,70,0,0
165616,-100,4,1,0,70,0,1
179137,-100,4,1,0,60,0,0

[Colours]
Combo1 : 244,198,11
Combo2 : 128,255,128
Combo3 : 0,128,0
Combo4 : 191,0,0

[HitObjects]
160,32,1250,1,0
160,32,1461,1,0
160,32,1673,1,8
160,32,1884,1,0
160,32,2095,1,0
160,32,2306,1,0
160,32,2518,1,8
160,32,2729,1,0
160,32,2835,1,0
160,32,3046,1,0
160,32,3152,1,8
160,32,3363,1,0
160,32,3574,1,8
160,32,3785,1,0
160,32,3891,1,0
160,32,4102,1,0
160,32,4208,1,0
160,32,4419,1,8
160,32,4630,1,0
160,32,4842,1,0
160,32,5053,1,0
160,32,5159,1,0
160,32,5370,1,0
160,32,5475,1,0
160,32,5687,1,8
160,32,5898,1,0
160,32,6109,1,8
160,32,6321,1,8
160,32,6743,1,0
160,32,6954,1,8
160,32,7166,1,0
160,32,7271,1,0
160,32,7377,1,8
160,32,7588,1,8
160,32,8011,5,0
160,32,8222,1,0
160,32,8433,1,8
160,32,8644,1,0
160,32,8856,1,0
160,32,9067,1,8
160,32,9278,1,0
160,32,9384,1,0
160,32,9595,1,0
160,32,9701,1,8
160,32,9912,1,0
160,32,10123,1,0
160,32,10229,1,0
160,32,10440,1,0
160,32,10546,1,8
160,32,10757,1,0
160,32,10968,1,0
160,32,11074,1,0
160,32,11285,1,0
160,32,11391,1,8
160,32,11602,1,0
160,32,11813,1,0
160,32,12025,1,8
160,32,12236,1,0
160,32,12447,1,8
160,32,12659,1,0
160,32,12870,1,8
160,32,13081,1,0
160,32,13292,1,8
160,32,13504,1,0
160,32,13609,1,0
160,32,13715,1,8
160,32,13926,1,0
160,32,14032,1,0
160,32,14137,1,8
160,32,14349,1,8
160,32,14771,5,0
160,32,14983,1,0
160,32,15194,1,8
160,32,15405,1,8
160,32,15616,1,0
160,32,15828,1,8
160,32,16039,1,0
160,32,16144,1,0
160,32,16356,1,0
160,32,16461,1,8
160,32,16673,1,0
160,32,16778,1,0
160,32,16990,1,0
160,32,17095,1,8
160,32,17306,1,0
160,32,17412,1,0
160,32,17623,1,0
160,32,17729,1,8
160,32,17940,1,8
160,32,18152,5,0
160,32,18363,1,0
160,32,18574,1,8
160,32,18785,1,8
160,32,18997,1,8
160,32,19102,1,8
160,32,19419,1,8
160,32,19630,1,8
160,32,19842,1,8
160,32,20053,1,8
160,32,20264,1,0
160,32,20475,1,8
160,32,20687,1,8
160,32,20792,1,8
160,32,21004,1,8
160,32,21109,1,8
160,32,21532,5,0
160,32,21743,1,0
160,32,21954,1,8
160,32,22377,1,0
160,32,22588,1,8
160,32,22799,1,0
160,32,22905,1,0
160,32,23011,1,8
160,32,23222,1,8
160,32,23433,1,0
160,32,23539,1,0
160,32,23644,1,0
160,32,23856,1,8
160,32,24067,1,0
160,32,24173,1,0
160,32,24278,1,8
160,32,24490,1,8
160,32,24912,5,0
160,32,25123,1,8
160,32,25335,1,0
160,32,25440,1,8
160,32,25652,1,8
160,32,25757,1,0
160,32,25863,1,8
160,32,26074,1,8
160,32,26180,1,0
160,32,26285,1,0
160,32,26391,1,8
160,32,26602,1,8
160,32,26813,1,8
160,32,27025,1,0
160,32,27236,1,8
160,32,27447,1,0
160,32,27659,1,0
160,32,27870,1,8
160,32,28715,5,0
160,32,28926,1,8
160,32,29349,1,0
160,32,29560,1,0
160,32,29771,1,0
160,32,30194,1,0
160,32,30405,1,0
160,32,30828,1,0
160,32,31250,1,8
160,32,31884,1,0
160,32,31990,1,0
160,32,32095,1,8
160,32,32307,1,0
160,32,32518,1,8
160,32,32729,1,0
160,32,32940,1,0
160,32,33152,1,8
160,32,33363,1,8
160,32,33785,1,8
160,32,33997,1,8
160,32,34208,1,8
160,32,34419,1,8
160,32,34842,1,8
160,32,35053,1,8
160,32,35264,5,0
160,32,35370,1,0
160,32,35475,1,8
160,32,35687,1,0
160,32,35898,1,8
160,32,36109,1,0
160,32,36215,1,0
160,32,36321,1,8
160,32,36532,1,8
160,32,36743,1,8
160,32,36954,1,0
160,32,37060,1,0
160,32,37166,1,8
160,32,37377,1,8
160,32,37588,1,0
160,32,37799,1,0
160,32,37905,1,0
160,32,38011,1,8
160,32,38433,1,8
160,32,38644,1,0
160,32,38750,1,0
160,32,38856,1,0
160,32,39278,1,8
160,32,39701,1,8
160,32,39806,1,0
160,32,39912,1,0
160,32,40335,1,0
160,32,40440,1,0
160,32,40546,1,8
160,32,40757,1,0
160,32,41180,1,0
160,32,41391,1,8
160,32,41813,1,0
160,32,42236,5,0
160,32,42447,1,8
160,32,42659,1,0
160,32,42870,1,0
160,32,43081,1,8
160,32,43292,1,8
160,32,43504,1,8
160,32,43715,1,0
160,32,43821,1,0
160,32,43926,1,0
160,32,44137,1,0
160,32,44349,1,8
160,32,44560,1,0
160,32,44771,1,12
160,32,45194,1,0
160,32,45299,1,0
160,32,45405,1,0
160,32,45616,1,8
160,32,45828,1,0
160,32,46039,1,8
160,32,46250,1,0
160,32,46461,1,0
160,32,46778,1,0
160,32,47095,1,0
160,32,47306,1,0
160,32,47412,1,0
160,32,47518,1,8
160,32,47729,1,8
160,32,47940,1,8
160,32,48152,1,8
160,32,48363,1,8
160,32,48574,1,8
160,32,48785,5,0
160,32,48997,1,4
160,32,49630,1,0
160,32,49736,1,0
160,32,49842,1,0
160,32,50264,1,8
160,32,50687,1,4
160,32,51321,1,0
160,32,51426,1,0
160,32,51532,1,8
160,32,51954,1,8
160,32,52377,1,4
160,32,53011,1,0
160,32,53222,1,0
160,32,53645,1,0
160,32,54067,1,0
160,32,54490,1,0
160,32,54912,1,0
160,32,55018,1,8
160,32,55123,1,0
160,32,55229,1,8
160,32,55335,1,8
160,32,55757,5,4
160,32,56180,1,8
160,32,56602,1,0
160,32,57025,1,8
160,32,57447,1,0
160,32,57870,1,8
160,32,58187,1,0
160,32,58398,1,0
160,32,58609,1,0
160,32,58715,1,8
160,32,58926,1,0
160,32,59137,1,0
160,32,59560,1,8
160,32,59771,1,0
160,32,59983,1,0
160,32,60405,1,8
160,32,60828,1,0
160,32,61039,1,0
160,32,61250,1,8
160,32,61461,1,0
160,32,61567,1,0
160,32,61673,1,0
160,32,61884,1,8
160,32,62095,1,8
160,32,62518,5,0
160,32,62835,1,0
160,32,63152,1,0
160,32,63363,1,4
160,32,63785,1,8
160,32,63997,1,8
160,32,64208,1,8
160,32,64419,1,4
160,32,64736,1,4
160,32,65053,1,4
160,32,65475,1,4
160,32,65898,1,8
160,32,66109,1,8
160,32,66321,1,8
160,32,66743,1,0
160,32,66954,1,8
160,32,67166,1,8
160,32,67377,1,0
160,32,67483,1,0
160,32,67588,1,0
160,32,67799,1,0
160,32,67905,1,0
160,32,68011,1,8
160,32,68116,1,8
160,32,68222,1,0
160,32,68328,1,8
160,32,68433,1,0
160,32,68539,1,8
160,32,68645,1,8
160,32,68750,1,0
160,32,68856,5,8
160,32,68961,1,0
160,32,69067,1,8
160,32,69173,1,8
160,32,69278,1,8
160,32,69595,1,8
160,32,69701,1,0
160,32,69912,1,8
160,32,70123,1,0
160,32,70229,1,0
160,32,70335,1,8
160,32,70546,1,0
160,32,70757,1,8
160,32,70968,1,0
160,32,71074,1,0
160,32,71180,1,8
160,32,71391,1,0
160,32,71602,1,0
160,32,71708,1,0
160,32,71814,1,8
160,32,72025,1,0
160,32,72236,1,0
160,32,72447,1,8
160,32,72659,1,0
160,32,72764,1,0
160,32,72870,1,0
160,32,73081,1,8
160,32,73187,1,0
160,32,73292,1,8
160,32,73504,1,0
160,32,73609,1,0
160,32,73715,1,0
160,32,73926,1,8
160,32,74032,1,8
160,32,74137,1,8
160,32,74349,1,0
160,32,74560,1,8
160,32,74666,1,8
160,32,74771,1,8
160,32,74983,1,8
160,32,75194,1,8
160,32,75616,5,0
160,32,75828,1,8
160,32,76039,1,0
160,32,76250,1,8
160,32,76461,1,0
160,32,76567,1,0
160,32,76673,1,8
160,32,76884,1,0
160,32,77201,1,8
160,32,77306,1,0
160,32,77518,1,8
160,32,77729,1,0
160,32,77835,1,0
160,32,77940,1,8
160,32,78152,1,0
160,32,78363,1,8
160,32,78468,1,8
160,32,78574,1,8
160,32,78997,5,0
160,32,79208,1,0
160,32,79419,1,8
160,32,79525,1,8
160,32,79630,1,8
160,32,79842,1,0
160,32,79947,1,0
160,32,80053,1,0
160,32,80264,1,8
160,32,80370,1,8
160,32,80475,1,8
160,32,80687,1,0
160,32,80792,1,0
160,32,80898,1,0
160,32,81109,1,0
160,32,81215,1,0
160,32,81321,1,0
160,32,81532,1,8
160,32,81743,1,8
160,32,81954,1,8
160,32,82166,1,8
160,32,82377,5,0
160,32,82588,1,8
160,32,82694,1,8
160,32,82799,1,0
160,32,82905,1,8
160,32,83011,1,8
160,32,83222,1,0
160,32,83433,1,8
160,32,83539,1,8
160,32,83645,1,0
160,32,83856,1,0
160,32,84067,1,8
160,32,84278,1,8
160,32,84490,1,0
160,32,84595,1,8
160,32,84701,1,8
160,32,84912,1,0
160,32,85123,1,8
160,32,85335,1,8
160,32,85546,1,8
160,32,85757,1,0
160,32,85968,1,0
160,32,86074,1,0
160,32,86180,1,8
160,32,86602,1,0
160,32,86813,1,0
160,32,86919,1,0
160,32,87025,1,8
160,32,87236,1,0
160,32,87447,1,0
160,32,87659,1,0
160,32,87870,1,4
160,32,88292,1,4
160,32,88715,1,4
160,32,89137,5,0
160,32,89349,1,8
160,32,89560,1,0
160,32,89771,1,8
160,32,89983,1,0
160,32,90194,1,8
160,32,90405,1,8
160,32,90828,5,8
160,32,91039,1,0
160,32,91250,1,8
160,32,91461,1,0
160,32,91673,1,8
160,32,91884,1,0
160,32,92095,1,0
160,32,92518,1,0
160,32,92729,1,8
160,32,92940,1,0
160,32,93363,1,0
160,32,93574,1,8
160,32,93785,1,0
160,32,94208,1,0
160,32,94419,1,0
160,32,94630,5,8
160,32,94842,1,8
160,32,95053,1,8
160,32,95264,1,8
160,32,95476,1,8
160,32,95898,1,0
160,32,96004,1,0
160,32,96109,1,0
160,32,96321,5,0
160,32,96532,1,8
160,32,96743,1,0
160,32,96849,1,0
160,32,96954,1,8
160,32,97166,1,0
160,32,97377,1,8
160,32,97483,1,0
160,32,97799,1,8
160,32,98222,1,8
160,32,98433,1,0
160,32,98644,1,8
160,32,98856,5,0
160,32,99067,1,8
160,32,99173,1,0
160,32,99490,1,8
160,32,99912,1,8
160,32,100229,1,0
160,32,100335,1,8
160,32,100546,1,8
160,32,100757,1,0
160,32,100863,1,8
160,32,101180,1,8
160,32,101602,1,8
160,32,102025,1,8
160,32,102236,1,8
160,32,102342,1,8
160,32,102447,1,0
160,32,102553,1,0
160,32,102659,1,8
160,32,102764,1,8
160,32,102870,1,8
160,32,102976,1,8
160,32,103081,1,0
160,32,103292,1,0
160,32,103609,1,0
160,32,103715,1,8
160,32,103926,1,0
160,32,104137,1,8
160,32,104560,1,8
160,32,104983,1,8
160,32,105194,1,8
160,32,105405,1,8
160,32,105616,1,8
160,32,105828,1,8
160,32,106038,1,8
160,32,106144,1,8
160,32,106250,1,8
160,32,106673,1,0
160,32,106990,1,0
160,32,107095,1,8
160,32,107307,1,8
160,32,107518,1,8
160,32,107623,1,0
160,32,107940,1,8
160,32,108363,1,8
160,32,108785,1,8
160,32,109208,1,8
160,32,109630,1,8
160,32,109842,1,12
160,32,110475,1,0
160,32,110581,1,0
160,32,110687,1,0
160,32,111109,1,0
160,32,111215,1,0
160,32,111321,1,0
160,32,112166,1,8
160,32,112271,1,8
160,32,112377,1,8
160,32,112588,1,8
160,32,112905,1,8
160,32,113222,1,8
160,32,113433,1,8
160,32,113539,1,8
160,32,113856,1,0
160,32,113961,1,0
160,32,114067,1,0
160,32,114490,1,0
160,32,114595,1,0
160,32,114701,1,0
160,32,115335,1,8
160,32,115546,1,8
160,32,115757,1,8
160,32,116180,1,8
160,32,116602,1,8
160,32,117236,1,0
160,32,117342,1,0
160,32,117447,1,0
160,32,117870,1,0
160,32,117976,1,0
160,32,118081,1,0
160,32,118292,5,8
160,32,118504,1,8
160,32,118715,1,8
160,32,118926,1,8
160,32,119137,1,8
160,32,119349,1,8
160,32,119454,1,0
160,32,119560,1,8
160,32,119666,1,0
160,32,119771,1,8
160,32,119983,1,8
160,32,120299,1,8
160,32,120616,1,0
160,32,120722,1,0
160,32,120828,1,0
160,32,121039,1,8
160,32,121250,1,0
160,32,121356,1,0
160,32,121461,1,0
160,32,121673,1,8
160,32,121778,1,0
160,32,121884,1,0
160,32,121990,1,0
160,32,122095,1,8
160,32,122201,1,0
160,32,122307,1,0
160,32,122412,1,0
160,32,122518,1,8
160,32,122623,1,8
160,32,122729,1,0
160,32,122835,1,0
160,32,122940,1,8
160,32,123046,1,8
160,32,123152,1,8
160,32,123257,1,8
160,32,123363,5,0
160,32,123785,1,8
160,32,124208,1,0
160,32,124630,1,8
160,32,125053,1,0
160,32,125476,1,8
160,32,125581,1,0
160,32,125687,1,0
160,32,125898,1,0
160,32,126321,1,8
160,32,126743,1,8
160,32,126849,1,0
160,32,126954,1,0
160,32,127377,1,8
160,32,127483,1,0
160,32,127588,1,0
160,32,128011,1,8
160,32,128433,1,8
160,32,128856,1,8
160,32,129278,1,8
160,32,129384,1,8
160,32,129701,1,0
160,32,130123,5,4
160,32,130440,1,0
160,32,130757,1,0
160,32,130968,1,4
160,32,131391,1,0
160,32,131602,1,0
160,32,131814,1,0
160,32,132025,1,4
160,32,132342,1,4
160,32,132659,1,4
160,32,133081,1,4
160,32,133504,1,0
160,32,133821,1,0
160,32,134137,1,0
160,32,134349,1,0
160,32,134983,1,0
160,32,135088,1,0
160,32,135194,1,0
160,32,135616,1,0
160,32,136039,1,0
160,32,136250,1,0
160,32,136461,1,0
160,32,136567,1,0
160,32,136884,5,4
160,32,137095,1,8
160,32,137307,1,8
160,32,137729,1,0
160,32,137940,1,8
160,32,138152,1,8
160,32,138574,1,0
160,32,138785,1,8
160,32,138997,1,8
160,32,139419,1,0
160,32,139630,1,0
160,32,139842,1,8
160,32,140053,1,0
160,32,140264,1,8
160,32,140687,1,0
160,32,141109,1,8
160,32,141321,1,8
160,32,141532,1,8
160,32,141954,1,0
160,32,142588,1,8
160,32,142799,1,8
160,32,143222,1,0
160,32,143645,5,4
160,32,143856,1,8
160,32,144067,1,8
160,32,144490,1,0
160,32,144701,1,8
160,32,144912,1,8
160,32,145335,1,0
160,32,145546,1,8
160,32,145757,1,8
160,32,146180,1,0
160,32,146391,1,8
160,32,146497,1,8
160,32,146602,1,8
160,32,146814,1,8
160,32,147025,1,0
160,32,147447,1,0
160,32,147870,1,0
160,32,148292,1,0
160,32,148715,1,8
160,32,148926,1,8
160,32,149560,1,0
160,32,149983,5,0
160,32,150194,1,8
160,32,150405,1,12
160,32,150828,1,0
160,32,151039,1,0
160,32,151250,1,8
160,32,151461,1,8
160,32,151673,1,0
160,32,151884,1,0
160,32,152095,1,8
160,32,152412,1,8
160,32,152518,1,8
160,32,152729,1,8
160,32,152835,1,8
160,32,152940,1,8
160,32,153363,1,0
160,32,153574,1,8
160,32,153785,1,0
160,32,154208,1,8
160,32,154419,1,0
160,32,154630,1,8
160,32,154842,1,0
160,32,155053,1,8
160,32,155476,1,0
160,32,155687,1,0
160,32,155898,1,0
160,32,156109,1,0
160,32,156321,5,4
160,32,156743,1,4
160,32,157166,1,12
160,32,157377,1,8
160,32,157588,1,8
160,32,157799,1,0
160,32,158011,1,0
160,32,158222,1,8
160,32,158433,1,8
160,32,158645,1,0
160,32,158856,1,4
160,32,159067,1,0
160,32,159278,1,0
160,32,159490,1,0
160,32,159701,1,0
160,32,160123,5,0
160,32,160335,1,4
160,32,160546,1,4
160,32,160969,1,0
160,32,161180,1,0
160,32,161391,1,4
160,32,161814,1,0
160,32,162236,1,4
160,32,162447,1,0
160,32,162553,1,8
160,32,162659,1,0
160,32,162870,1,0
160,32,163081,1,8
160,32,163292,1,0
160,32,163398,1,0
160,32,163503,1,0
160,32,163926,1,8
160,32,164032,1,8
160,32,164138,1,8
160,32,164243,1,8
160,32,164349,1,8
160,32,164454,1,0
160,32,164560,1,8
160,32,164666,1,8
160,32,164771,1,0
160,32,164877,1,0
160,32,164983,1,8
160,32,165194,5,0
160,32,165405,1,0
160,32,165616,1,4
160,32,166039,1,0
160,32,166250,1,0
160,32,166461,1,8
160,32,166673,1,8
160,32,166884,1,0
160,32,167095,1,0
160,32,167307,1,8
160,32,167518,1,8
160,32,167729,1,0
160,32,167940,1,8
160,32,168046,1,0
160,32,168152,1,8
160,32,168363,1,8
160,32,168574,5,0
160,32,168785,1,0
160,32,168997,1,4
160,32,169419,1,0
160,32,169630,1,8
160,32,169842,1,0
160,32,170053,1,8
160,32,170264,1,0
160,32,170370,1,8
160,32,170475,1,8
160,32,170687,1,0
160,32,170898,1,8
160,32,171109,1,0
160,32,171321,1,8
160,32,171532,1,0
160,32,171954,1,0
160,32,172166,1,0
160,32,172377,1,8
160,32,172588,1,0
160,32,172694,1,0
160,32,172800,1,0
160,32,173011,1,0
160,32,173116,1,0
160,32,173222,1,0
160,32,173645,1,0
160,32,173856,1,0
160,32,174067,1,8
160,32,174278,1,8
160,32,174384,1,0
160,32,174490,1,8
160,32,174595,1,8
160,32,174701,1,8
160,32,174807,1,8
160,32,174912,1,8
160,32,175335,1,0
160,32,175546,1,8
160,32,175757,1,4
160,32,176180,1,0
160,32,176391,1,8
160,32,176602,1,4
160,32,177025,1,0
160,32,177236,1,8
160,32,177447,1,0
160,32,177659,1,8
160,32,177870,1,8
160,32,178081,1,8
160,32,178292,1,8
160,32,178504,1,8
160,32,178609,1,8
160,32,178715,1,8
160,32,179138,5,0
160,32,179349,1,8
160,32,179560,1,0
160,32,179666,1,8
160,32,179983,1,0
160,32,180194,1,8
160,32,180300,1,8
160,32,180405,1,0
160,32,180616,1,8
160,32,180722,1,8
160,32,180828,1,0
160,32,181039,1,8
160,32,181250,1,0
160,32,181461,1,8
160,32,181673,1,0
160,32,181884,1,8
160,32,182095,1,0
160,32,182307,1,8
160,32,182518,1,0
160,32,182729,1,8
160,32,182940,1,0
160,32,183046,1,8
160,32,183152,1,8
160,32,183363,1,0
160,32,183574,1,8
160,32,183680,1,8
160,32,183785,1,0
160,32,183997,1,8
160,32,184208,1,0
160,32,184525,1,8
160,32,184630,1,0
160,32,184842,1,8
160,32,185053,1,4
160,32,185476,5,0
160,32,185581,1,0
160,32,185687,1,8
160,32,185792,1,0
160,32,185898,1,0
160,32,186004,1,8
160,32,186109,1,8
160,32,186215,1,0
160,32,186321,1,0
160,32,186532,1,0
160,32,186638,1,8
160,32,186743,1,0
160,32,186849,1,0
160,32,186954,1,8
160,32,187166,1,0
160,32,187271,1,8
160,32,187377,1,8
160,32,187483,1,0
160,32,187588,1,0
160,32,187800,1,0
160,32,187905,1,8
160,32,188011,1,0
160,32,188116,1,0
160,32,188222,1,8
160,32,188433,1,8
160,32,188539,1,8
160,32,188750,1,8
160,32,188961,1,8
160,32,189067,1,8
160,32,189278,1,0
160,32,189490,1,8
160,32,189701,1,0
160,32,189807,1,8
160,32,190123,1,0
160,32,190335,1,8
160,32,190440,1,0
160,32,190546,1,0
160,32,190757,1,8
160,32,190968,1,0
160,32,191074,1,0
160,32,191180,1,8
160,32,191285,1,0
160,32,191391,1,0
160,32,191497,1,8
160,32,191602,1,0
160,32,191814,1,0
160,32,191919,1,0
160,32,192025,1,0
160,32,192130,1,0
160,32,192236,1,8
160,32,192342,1,8
160,32,192447,1,8
160,32,192553,1,8
160,32,192659,1,0
