osu file format v9

[General]
AudioFilename: GUMI - Nisemono no Uta.mp3
AudioLeadIn: 1000
PreviewTime: 68856
Countdown: 0
SampleSet: Soft
StackLeniency: 0.7
Mode: 0
LetterboxInBreaks: 0
EpilepsyWarning: 1

[Editor]
DistanceSpacing: 1
BeatDivisor: 2
GridSize: 4

[Metadata]
Title:Nisemono no Uta
Artist:Megpoid GUMI
Creator:raririn
Version:Normal
Source:hako
Tags:vocaloid vocaloid2 ts8zs tutuhaha

[Difficulty]
HPDrainRate:4
CircleSize:3
OverallDifficulty:3
ApproachRate:4
SliderMultiplier:1.2
SliderTickRate:2

[Events]
//Background and Video events
0,0,"GUMI - Nisemono no Uta.jpg"
//Break Periods
2,96521,108522
2,140687,142324
2,150605,163874
//Storyboard Layer 0 (Background)
Sprite,Background,Centre,"SB\GUMI - Nisemono no Uta-2.png",320,240 F,0,-2552,-105,1 F,0,-105,1267,1 F,0,1267,5069,1,0 M,0,1372,,320,241 F,0,5069,5281,0 F,0,5281,5492,0,0.5480001 F,0,5492,7182,0.5480001,1 F,0,7182,9295,1,0 F,0,139427,140475,0,1 F,0,140475,143238,1,0 F,0,146196,147236,0,1 F,0,147236,149577,1,0 F,0,156760,159295,0,1 F,0,159295,160562,1 F,0,160562,161830,1 F,0,161830,165210,1,0
Sprite,Background,Centre,"SB\bg.jpg",320,240 F,0,15104,15315,1,0 S,0,15104,15315,1,1.12 F,0,67709,67921,1,0 S,0,67709,67921,1,1.1 F,0,67921,68132,1,0 S,0,67921,68132,1,1.1 F,0,68132,68343,1,0 S,0,68132,68343,1,1.1 F,0,79329,79540,1,0 S,0,79329,79540,1,1.12 S,0,87780,87993,1,1.12 F,0,87781,87993,1,0 F,0,88204,88415,1,0 S,0,88204,88415,1,1.12 F,0,88626,88838,1,0 S,0,88626,88838,1,1.12 F,0,92850,93062,1,0 S,0,92850,93062,1,1.12 F,0,110275,110591,1,0 S,0,110275,110591,1,1.12 F,0,111014,111331,1,0 S,0,111014,111331,1,1.12 F,0,113760,114077,1,0 S,0,113760,114077,1,1.12 F,0,114394,114711,1,0 S,0,114394,114711,1,1.12 F,0,117140,117457,1,0 S,0,117140,117457,1,1.12 F,0,117774,118091,1,0 S,0,117774,118091,1,1.12 F,0,156231,156442,1,0 S,0,156231,156442,1,1.12 R,0,160757,,0 F,0,167623,167835,1,0 S,0,167623,167835,1,1.12
//Storyboard Layer 1 (Fail)
//Storyboard Layer 2 (Pass)
//Storyboard Layer 3 (Foreground)
Sprite,Foreground,Centre,"SB\name.png",320,240 M,0,1160,2006,489,306,489,315 F,0,1160,2006,0,1 F,0,2006,4753,1 F,0,4753,8133,1 F,0,8133,12358,1 F,0,12358,13203,1,0
Sprite,Foreground,Centre,"SB\hako.png",320,240 S,0,3485,,0.7840001 M,0,3485,4753,500,339,500,370 F,0,3485,4964,0,1 F,0,4964,6865,1 M,0,6865,8133,500,370,500,389 F,0,6865,8133,1,0 F,0,8133,9823,0
Sprite,Foreground,Centre,"SB\gumi.png",320,240 S,0,8133,,0.9119998 M,0,8133,9823,500,339,500,370 F,0,8133,9823,0,1 F,0,9823,12358,1 F,0,12358,13203,1,0
Sprite,Foreground,Centre,"SB\by.png",320,240 S,0,15315,,0.872 M,0,15315,16583,684,321,472,313 F,0,15315,16583,0,1 F,0,16583,19118,1 F,0,19118,20385,1,0
Sprite,Foreground,Centre,"SB\skin.png",320,240 M,0,20384,20385,-18,127,192,456 S,0,20385,,0.768 M,0,20385,21652,-18,127,108,244 F,0,20385,21652,0,1 M,0,21652,21653,192,456,108,244 F,0,21652,21653,1 F,0,21653,24188,1 F,0,24188,25667,1,0
Sprite,Foreground,Centre,"SB\sb by.png",320,240 S,0,20385,,0.768 M,0,20385,21653,192,456,273,316 F,0,20385,21653,0,1 F,0,21653,24188,1 F,0,24188,25667,1,0
Sprite,Foreground,Centre,"SB\lrc\l1.png",320,240 M,0,28829,29680,604,372,403,385 F,0,28829,29680,0,1 S,0,28835,,0.8239999 F,0,29680,30948,1 F,0,30948,32004,1 F,0,32004,33904,1 F,0,33904,33905,1 F,0,33905,35173,1,0
Sprite,Foreground,Centre,"SB\lrc\l2.png",320,240 S,0,35379,,0.7760001 M,0,35379,36124,149,481,228,425 F,0,35379,36124,0,1 F,0,36124,38130,1 F,0,38130,38764,1,0
Sprite,Foreground,Centre,"SB\lrc\l3.png",320,240 S,0,38764,,0.7360001 M,0,38764,39398,51,356,178,353 F,0,38764,39398,0,0.58 F,0,39398,39820,0.58,1 F,0,39820,41088,1 F,0,41088,42144,1,0
Sprite,Foreground,Centre,"SB\lrc\l4.png",320,240 S,0,42356,,0.768 M,0,42356,43623,317,483,312,343 F,0,42356,43623,0,1 F,0,43623,46897,1 F,0,46897,48271,1,0
Sprite,Foreground,Centre,"SB\lrc\l5.png",320,240 S,0,48271,,0.7999998 M,0,48271,49538,718,402,380,349 F,0,48271,49538,0,1 F,0,49538,50806,1 F,0,50806,52073,1 F,0,52073,54080,1 F,0,54080,55136,1,0
Sprite,Foreground,Centre,"SB\lrc\l6.png",320,240 S,0,52073,,0.8159999 M,0,52073,53341,31,261,234,420 F,0,52073,53341,0,1 F,0,53341,54397,1 F,0,54397,55136,1,0
Sprite,Foreground,Centre,"SB\lrc\l7.png",320,240 S,0,55136,,0.8080002 M,0,55136,56087,687,317,401,372 F,0,55136,56087,0,1 F,0,56087,60523,1 F,0,60523,61791,1,0
Sprite,Foreground,Centre,"SB\lrc\l8.png",320,240 S,0,61791,,0.7200001 M,0,61791,62847,283,454,307,372 F,0,61791,62847,0,1 F,0,62847,67495,1 F,0,67495,68551,1,0
Sprite,Foreground,Centre,"SB\lrc\l9.png",320,240 S,0,68551,,0.8240002 M,0,68551,69818,-40,281,260,362 F,0,68551,69818,0,1 F,0,69818,71086,1 F,0,71086,72037,1,0
Sprite,Foreground,Centre,"SB\lrc\l 10.png",320,240 S,0,72037,,0.792 M,0,72037,73093,617,327,375,384 F,0,72037,73093,0,1 F,0,73093,74360,1 F,0,74360,75311,1,0
Sprite,Foreground,Centre,"SB\lrc\l11.png",320,240 S,0,75311,,0.768 M,0,75311,76367,196,460,248,387 F,0,75311,76367,0,1 F,0,76367,77846,1 F,0,77846,78797,1,0
Sprite,Foreground,Centre,"SB\lrc\l12.png",320,240 S,0,78797,,0.7920001 M,0,78797,79747,508,460,385,390 F,0,78797,79747,0,1 F,0,79747,81226,1 F,0,81226,82071,1,0 F,0,82071,82705,0
Sprite,Foreground,Centre,"SB\lrc\l13.png",320,240 S,0,82071,,0.8480002 M,0,82071,83127,39,252,268,347 F,0,82071,83127,0,1 F,0,83127,84606,1 F,0,84606,85451,1,0
Sprite,Foreground,Centre,"SB\lrc\l14.png",320,240 S,0,85451,,0.8399999 M,0,85451,86507,564,459,363,356 F,0,85451,86507,0,1 F,0,86507,88409,1 F,0,88409,88831,1,0.5040001 F,0,88831,89254,0.5040001,0 F,0,89254,89887,0
Sprite,Foreground,Centre,"SB\lrc\l15.png",320,240 S,0,89254,,0.8159997 M,0,89254,90310,70,418,263,388 F,0,89254,90310,0,1 F,0,90310,90521,1 F,0,90521,90627,1 F,0,90627,91261,1 F,0,91261,91366,1 F,0,91366,92211,1,0
Sprite,Foreground,Centre,"SB\lrc\l16.png",320,240 S,0,92211,,0.84 M,0,92211,93162,467,448,360,406 F,0,92211,93162,0,1 F,0,93162,93901,1 F,0,93901,94112,1 F,0,94112,94746,1,0
Sprite,Foreground,Centre,"SB\lrc\l17.png",320,240 S,0,122209,,0.8400002 F,0,122209,122632,0 M,0,122209,123477,161,452,244,376 F,0,122632,123477,0,1 F,0,123477,128969,1 F,0,128969,129920,1,0
Sprite,Foreground,Centre,"SB\lrc\l18.png",320,240 S,0,129920,,0.84 M,0,129920,130870,320,452,316,341 F,0,129920,130870,0,1 F,0,130870,132138,1 F,0,132138,132877,1 F,0,132877,134884,1 F,0,134884,135940,1,0
Sprite,Foreground,Centre,"SB\lrc\l19.png",320,240 S,0,164248,,0.8239999 F,0,164248,164565,0 M,0,164248,165410,300,483,255,337 F,0,164565,165410,0,1 F,0,165410,167417,1 F,0,167417,168262,1,0
Sprite,Foreground,Centre,"SB\lrc\l 20.png",320,240 S,0,168262,,0.816 M,0,168262,169213,707,288,373,411 F,0,168262,169213,0,1 F,0,169213,170903,1 F,0,170903,171748,1,0
Sprite,Foreground,Centre,"SB\lrc\l21.png",320,240 M,0,171748,172698,37,324,282,407 F,0,171748,172698,0,1 S,0,171748,174050,0.8080002,0.7680002 F,0,172698,174283,1 F,0,174283,175128,1,0
Sprite,Foreground,Centre,"SB\black.png",320,240 F,0,174600,175445,0,1 F,0,175445,178402,1 F,0,178402,180515,1 M,0,178491,,320,240 F,0,180515,180616,1 F,0,180616,181360,1,0
Sprite,Foreground,Centre,"SB\lrc\l22.png",320,240 S,0,175128,,0.8240001 F,0,175128,175973,0,1 F,0,175973,177769,1 F,0,177769,178614,1,0
Sprite,Foreground,Centre,"SB\Ring.png",320,240 F,0,179255,179881,0,1 S,0,179255,179881,0.2000002,1.112 F,0,179881,180515,1,0 S,0,179881,180515,1.112,1.736
Sprite,Foreground,Centre,"SB\sakura1.png",320,240 S,0,157588,,1.624 M,0,157588,158222,158,29,111,85 F,0,157588,158222,0,1 R,2,157588,158856,0,0.8800004 M,0,158222,158856,111,85,48,113 M,0,158856,159490,48,113,97,189 R,1,158856,160123,0.8800004,-0.32 M,0,159490,160123,97,189,183,217 M,0,160123,160757,183,217,143,303 R,2,160123,161391,-0.32,0.7039996 M,0,160757,161391,143,303,63,321 M,0,161391,162025,63,321,111,414 R,1,161391,162659,0.7039996,-0.3039996 M,0,162025,162659,111,414,173,428 M,0,162659,163081,173,428,108,484
Sprite,Foreground,Centre,"SB\sakura2.png",320,240 S,0,158222,,1.64 M,0,158222,158856,275,-5,235,63 F,0,158222,158856,0,1 R,0,158222,158856,-0.576,-0.2719999 M,0,158856,159490,235,63,165,93 R,0,158856,159490,-0.2719999,0.8320001 M,0,159490,160123,165,93,231,172 R,0,159490,160757,0.8320001,-0.2720001 M,0,160123,160757,231,172,314,179 M,0,160757,161391,314,179,295,236 R,0,160757,162130,-0.2720001,1.024 M,0,161391,162130,295,236,204,283 M,0,162130,162870,204,283,281,378 R,0,162130,163504,1.024,-0.2720004 M,0,162870,163504,281,378,361,410 M,0,163504,163926,361,410,310,477
Sprite,Foreground,Centre,"SB\Ring.png",320,240 M,0,143644,,235,256 F,0,143644,143856,0,1 S,0,143644,144067,0.1,0.756 F,0,143856,144067,1 F,0,144067,144278,1,0 S,0,144067,144278,0.756,0.9320001
Sprite,Foreground,Centre,"SB\Ring.png",320,240 M,0,144490,,332,199 F,0,144490,144701,0,1 S,0,144490,145123,0.1,0.924 F,0,144701,144912,1 F,0,144912,145123,1,0
Sprite,Foreground,Centre,"SB\Ring.png",320,240 M,0,145335,,457,241 F,0,145335,145546,0,1 S,0,145335,145968,0.1,0.8680002 F,0,145546,145757,1 F,0,145757,145968,1,0
Sprite,Foreground,Centre,"SB\Ring.png",320,240 M,0,55335,,320,240 F,0,55335,55546,0,1 S,0,55335,56180,0.1,1.244 F,0,55546,55757,1 F,0,55757,55968,1 F,0,55968,56180,1,0
Sprite,Foreground,Centre,"SB\Ring.png",320,240 M,0,150405,,320,240 F,0,150405,150616,0,1 S,0,150405,151039,0.1959999,1.084 F,0,150616,150828,1 F,0,150828,151039,1,0
//Storyboard Sound Samples
//Background Colour Transformations
3,100,0,64,0

[TimingPoints]
-17,422.535211267606,4,2,1,47,1,0
52377,-100,4,1,1,41,0,0
55757,-100,4,2,1,45,0,0
67588,-100,4,1,1,55,0,0
69278,-100,4,2,1,60,0,1
74983,-100,4,2,1,60,0,1
96321,-100,4,2,1,46,0,0
109208,-133.333333333333,4,2,1,46,0,0
121039,-100,4,2,1,56,0,0
165616,-100,4,2,1,60,0,1
179137,-100,4,2,1,56,0,0

[Colours]
Combo1 : 244,198,11
Combo2 : 128,255,128
Combo3 : 0,128,0
Combo4 : 191,0,0

[HitObjects]
60,164,1250,2,0,B|8:128|17:42,2,120.000000596046,0|2|0
48,284,2518,2,0,B|120:284|172:224,1,120,2|0
264,288,3363,2,0,B|352:244,2,60.000000298023
296,172,4208,1,2
180,136,4630,6,0,B|132:188|176:260,1,120.000000596046,0|2
288,268,5475,1,0
388,204,5898,1,2
316,108,6321,1,0
200,80,6743,2,0,B|148:124|156:208,2,120.000000596046,2|0|2
316,60,8011,5,0
372,80,8222,2,2,B|404:108|392:148,1,60
400,256,8856,2,0,B|352:312|244:288,1,120.000000596046,0|2
312,176,9701,2,0,B|289:112|220:84,1,120.000000596046,0|2
124,136,10546,6,0,B|92:212|156:276,1,120,0|2
248,292,11391,2,0,B|316:328,2,60.000000298023,0|0|2
320,196,12236,1,2
244,104,12659,1,0
128,140,13081,1,2
200,236,13504,1,0
412,276,14771,6,0,B|462:216|407:163,1,120.000000596046,0|8
332,80,15616,2,0,B|284:56|216:56,1,120.000000596046,0|8
156,64,16250,2,0,B|85:79,2,60.000000298023,0|0|0
184,120,16884,2,0,B|132:172,2,60.000000298023,8|0|8
228,76,17518,2,0,B|292:44,1,60.000000298023,0|8
400,72,18152,1,0
372,124,18363,1,0
428,148,18574,6,0,B|412:227|352:248,1,120.000000596046,8|0
248,212,19419,2,0,B|248:288|340:316,1,120,0|8
320,184,20264,2,0,B|380:144|392:76,2,120.000000596046,8|0|8
272,296,21532,6,0,B|212:320|152:292,1,120.000000596046,0|4
64,216,22377,2,0,B|42:192|62:154,2,60.000000298023,0|0|8
136,120,23222,1,0
208,216,23644,2,0,B|252:292|348:280,2,120.000000596046,8|0|8
148,320,24912,5,0
92,296,25123,1,0
60,244,25335,2,0,B|28:176|84:100,1,120.000000596046,8|0
160,204,26180,2,0,B|224:252|296:224,1,120.000000596046,8|0
236,116,27025,1,4
80,96,28715,6,0,B|152:72|240:112,1,120
120,212,29560,1,2
240,192,29982,1,0
244,312,30405,2,0,B|332:316|384:244,1,120,0|2
424,176,31250,1,0
308,36,31884,6,0,B|220:16,1,60.000000298023
56,168,32940,1,2
84,284,33363,1,0
200,248,33785,1,2
264,264,35475,6,0,B|352:280|408:184,2,120,2|0|2
288,148,36743,1,0
176,188,37166,2,0,B|160:124|200:73,2,120.000000596046,2|0|2
84,264,38433,5,0
200,292,38856,2,0,B|196:360,2,60.000000298023,2|0|2
216,172,39701,2,0,B|264:116|348:120,1,120
432,168,40546,1,4
340,140,42236,6,0,B|399:199|391:271,1,120.000000596046,4|0
276,276,43081,2,0,B|217:217|225:145,1,120.000000596046,2|0
248,52,43926,2,0,B|188:44|129:69,1,120,2|0
108,188,44771,5,2
228,188,45194,1,0
344,156,45616,2,0,B|344:120|316:92,2,60.000000298023,2|0|0
300,268,46461,1,2
196,208,46884,1,0
248,100,47306,6,0,B|289:92|300:56,2,60.000000298023,2|0|0
128,84,48152,1,2
44,168,48574,1,0
48,288,48997,1,12
168,300,49419,2,0,B|228:312|284:264,1,120
180,200,50264,1,0
60,180,50687,6,0,B|24:116|48:48,2,120.000000596046,2|0|10
136,272,51954,1,0
256,288,52377,2,0,B|320:220|280:124,1,120,8|0
180,140,53222,1,4
272,64,53644,1,0
384,108,54067,2,0,B|425:158|416:236,2,120.000000596046,4|0|0
284,172,55335,1,0
352,272,55757,6,0,B|288:288|208:272,1,120.000000596046,8|0
112,268,56602,1,2
184,32,57447,1,0
400,140,58292,1,2
288,352,59137,6,0,B|352:320|388:284,1,120.000000596046,2|0
280,232,59982,1,2
232,120,60405,1,0
116,144,60828,1,8
224,360,61673,1,12
36,212,62518,5,0
260,120,63363,1,4
220,356,64208,2,0,B|145:364|103:326,2,120.000001192093,4|0|4
300,264,65475,1,0
224,172,65898,6,0,B|292:188|344:176,1,120.000000596046,4|0
416,84,66743,1,4
176,80,67588,2,0,B|104:92|52:60,2,120.000000596046
296,88,68856,1,0
296,88,69067,1,0
296,88,69278,6,0,B|368:72|412:96,1,120.000000596046,8|0
356,204,70123,2,0,B|283:220|238:195,1,120.000000596046,8|0
120,192,70968,1,8
36,108,71391,1,0
156,88,71813,1,8
252,16,72236,1,0
156,88,72659,6,0,B|216:120|256:176,1,120.000000596046,8|0
332,248,73504,2,0,B|280:276|204:280,1,120.000000596046,8|0
116,216,74349,2,0,B|68:265|68:340,2,120.000000596046,8|4|8
196,128,75616,1,0
220,184,75828,1,0
256,232,76039,6,0,B|244:304|288:348,1,120,8|0
372,260,76884,1,8
416,148,77306,1,0
296,156,77729,2,0,B|264:96|184:68,1,120.000000596046,8|0
88,60,78574,1,8
104,180,78997,1,0
224,180,79419,5,12
168,288,79842,1,0
288,300,80264,2,0,B|348:248|352:168,1,120.000000596046,10|8
304,88,81109,1,8
184,100,81532,1,2
108,192,81954,1,8
216,244,82377,2,0,B|276:200,1,60.000000298023
324,200,82799,6,0,B|387:224|436:280,2,120.000000596046,12|0|8
240,284,84067,1,0
120,268,84490,2,0,B|84:204|84:120,2,120.000000596046,8|0|8
228,212,85757,1,0
268,164,85968,1,0
312,120,86180,6,0,B|360:168|372:260,1,120,8|0
344,340,87025,2,0,B|248:320|216:264,1,120.000000596046,8|0
136,352,87870,2,0,B|56:348|-16:320,1,120.000000596046,8|8
56,216,88715,2,0,B|136:208|176:188,1,120.000000596046,12|0
68,128,89560,6,0,B|80:60|132:32,1,120,8|0
212,120,90405,2,0,B|280:132|356:92,1,120,8|0
320,220,91250,2,0,B|365:266|429:266,2,120,8|2|8
228,144,92518,6,0,B|164:176,2,60.0000005960464,4|0|4
336,92,93363,2,0,B|400:124,2,60.0000005960464,4|0|4
228,40,94208,1,2
136,116,94630,1,4
256,192,94842,12,4,96321
256,192,109842,12,2,112377
188,160,113856,6,0,B|332:160,1,134.999995976687
256,88,116602,5,4
324,204,117236,2,0,B|180:204,1,134.999996647238
256,192,119983,12,0,122518
136,160,123363,6,0,B|176:104|248:72,2,120.000000596046,2|0|2
148,280,124630,1,0
268,260,125053,2,0,B|336:248|376:200,2,120,2|0|2
312,148,126321,1,0
228,64,126743,6,0,B|164:64|108:128,1,120.000000596046,2|0
116,232,127588,2,0,B|172:240|231:206,1,120.000000596046,2|0
348,236,128433,1,2
300,124,128856,1,0
188,76,129278,6,0,B|128:36|60:48,1,120.000000596046,2|0
76,168,130123,2,0,B|52:232|92:288,2,120.000000596046,2|0|2
172,96,131391,1,0
280,148,131813,2,4,B|328:196|408:180,2,120,6|4|6
80,280,133504,6,0,B|40:216|64:136,1,120.000000596046,2|0
156,96,134349,2,0,B|220:120|268:224,1,120.000000596046,2|0
324,264,135194,2,4,B|272:281|204:264,1,120.000001192093,6|4
96,212,136039,1,6
256,192,136884,12,2,140264
176,196,143644,6,0,B|120:176|72:96,2,120.000000596046,2|0|2
280,140,144912,1,0
392,184,145335,2,0,B|360:248|296:288,2,120.000000596046,2|0|2
156,224,147025,5,2
380,136,147870,1,2
144,100,148715,1,0
144,100,148926,1,0
20,232,149560,1,2
256,192,150405,5,4
256,192,165194,6,0,B|320:216|352:320,1,120.000000596046,0|10
220,304,166039,1,0
112,248,166461,1,8
132,128,166884,1,0
252,140,167306,2,0,B|308:158|348:228,2,120.000000596046,8|0|8
140,184,168574,1,0
100,228,168785,1,0
80,284,168997,6,0,B|136:300|200:300,1,120.000000596046,12|0
312,260,169842,2,0,B|360:204|344:132,1,120.000000596046,8|0
228,152,170687,1,8
140,236,171109,1,4
112,120,171532,1,8
16,196,171954,1,4
72,304,172377,6,0,B|136:332|224:280,2,120,12|0|8
72,184,173644,1,0
188,160,174067,2,0,B|284:128|284:48,2,120.000000596046,8|0|8
72,132,175335,6,0,B|40:75,2,60.0000005960464,4|0|4
84,252,176180,2,0,B|48:352,2,60.000000298023,4|0|4
188,192,177025,1,0
308,192,177447,2,0,B|376:204|424:280,2,120.000000596046
68,208,179137,5,4
292,292,179983,1,0
240,56,180828,1,2
196,168,181250,1,0
264,264,181673,1,2
360,192,182095,1,0
464,252,182518,6,0,B|440:312|384:356,1,120,6|0
356,236,183363,2,0,B|276:252|196:312,1,120.000000596046,2|0
144,348,184208,2,0,B|224:372|304:356,2,120.000000596046,6|4|6
212,248,185475,5,4
132,160,185898,2,0,B|76:216|84:312,1,120.000000596046,4|0
188,328,186743,2,0,B|276:328|324:256,1,120.000000596046,4|0
356,180,187588,2,0,B|324:132|244:100,2,120.000000596046,4|0|4
252,240,188856,1,0
252,240,189067,1,0
204,276,189278,6,0,B|116:220|88:144,1,120
228,156,190123,2,0,B|296:120|324:72,1,120
364,192,190968,1,0
484,212,191391,1,0
404,300,191813,1,0
188,196,192659,5,4
