osu file format v9

[General]
AudioFilename: Megpoid GUMI - Mizutamari.mp3
AudioLeadIn: 0
PreviewTime: -1
Countdown: 0
SampleSet: Soft
StackLeniency: 0.7
Mode: 0
LetterboxInBreaks: 1

[Editor]
Bookmarks: 0,10750,26750,42750,60750,76750,94250
DistanceSpacing: 0.8
BeatDivisor: 6
GridSize: 8

[Metadata]
Title:Mizutamari
Artist:Megpoid GUMI
Creator:Tachanne
Version:1, 2!
Source:oOraikaOo
Tags:megpoid GUMI VOCALOID

[Difficulty]
HPDrainRate:3
CircleSize:3
OverallDifficulty:3
ApproachRate:3
SliderMultiplier:0.8
SliderTickRate:1

[Events]
//Background and Video events
0,0,"content_201103010911.jpg"
//Break Periods
2,60700,67560
//Storyboard Layer 0 (Background)
//Storyboard Layer 1 (Fail)
//Storyboard Layer 2 (Pass)
//Storyboard Layer 3 (Foreground)
//Storyboard Sound Samples
//Background Colour Transformations
3,100,217,239,130

[TimingPoints]
0,500,4,2,0,50,1,0
416,-100,4,1,0,50,0,0
1583,-100,4,2,0,50,0,0
5416,-100,4,1,0,30,0,0
5583,-100,4,2,0,50,0,0
10416,-100,4,1,0,29,0,0
10583,-100,4,2,0,50,0,0
14916,-100,4,1,0,29,0,0
18583,-100,4,2,0,50,0,0
20416,-100,4,1,0,50,0,0
20583,-100,4,2,0,50,0,0
25916,-100,4,1,0,31,0,0
26583,-100,4,2,0,50,0,0
32416,-100,4,1,0,48,0,0
34083,-100,4,2,0,50,0,0
37416,-100,4,1,0,50,0,0
37583,-100,4,2,0,50,0,0
40416,-100,4,1,0,30,0,0
42583,-100,4,2,0,50,0,0
43000,-100,4,1,0,41,0,1
52500,-100,4,2,0,51,0,1
52583,-100,4,2,0,50,0,0
77000,-100,4,2,0,50,0,1
80416,-100,4,1,0,50,0,1
82083,-100,4,2,0,50,0,1
82750,-100,4,2,0,60,0,0
92416,-100,4,1,0,60,0,0
93583,-100,4,2,0,60,0,0

[Colours]
Combo1 : 235,10,15
Combo2 : 138,216,33
Combo3 : 244,214,0

[HitObjects]
128,88,500,2,0,B|216:88,1,80,0|0
248,160,1500,2,0,B|336:160,1,80,0|14
368,232,2500,6,0,B|456:232,1,80,0|10
448,152,3500,2,0,B|360:152,1,80,0|10
288,152,4500,2,0,B|200:152,1,80,0|10
208,232,5500,1,0
288,232,6000,1,10
280,152,6500,6,0,B|248:112|280:80,1,80,0|10
280,152,7500,2,0,B|312:120|352:152,1,80,0|10
280,152,8500,2,0,B|304:192|280:232,1,80,0|10
280,152,9500,2,0,B|240:184|208:152,1,80,0|10
280,152,10500,1,4
360,152,11000,6,0,B|448:152,1,80,2|8
440,232,12000,2,10,B|472:264|448:304,2,80
360,232,13500,1,0
280,232,14000,1,10
200,232,14500,1,14
256,192,15000,12,4,18500
248,144,19000,6,0,B|176:160|176:232|248:256,1,160,0|10
320,256,20500,2,0,B|392:232|392:168|328:144,1,160,0|10
248,144,22000,1,0
248,224,22500,2,0,B|80:224,1,160,0|0
88,304,24000,1,10
168,304,24500,6,0,B|256:304,1,80,0|10
248,224,25500,1,0
168,224,26000,2,2,B|208:200|248:224,1,80,2|6
328,224,27000,6,0,B|376:224,2,40,2|0|10
328,144,28000,1,14
216,144,28500,2,0,B|128:144,2,80
256,216,30000,1,10
296,144,30500,2,0,B|384:144,2,80
256,72,32000,1,10
176,72,32499,6,2,B|144:72|120:72|120:96|120:200,1,160
200,192,34000,1,0
200,272,34500,1,14
280,272,35000,6,0,B|368:272,2,80,10|0|10
280,192,36500,1,0
232,128,37000,1,2
184,192,37500,1,10
192,272,38000,2,0,B|272:272,2,80,0|0|0
112,272,39500,1,8
112,192,40000,1,0
256,192,40500,12,4,42500
240,136,43000,5,2
320,136,43500,1,0
320,216,44000,1,10
240,216,44500,1,0
321,219,45000,2,0,B|321:139,2,80,0|10|4
381,273,46500,6,0,B|365:321|317:329|269:321|261:273,1,160
320,224,48000,1,10
259,174,48500,2,2,B|275:126|323:118|371:126|379:174,1,160,0|0
320,224,50000,1,2
320,224,50500,1,14
240,224,51000,6,2,B|200:160|152:296|96:224,1,160
136,160,52500,1,6
104,232,53000,6,2,B|144:296|192:160|248:232,1,160,2|10
240,304,54500,1,0
320,304,55000,1,2
384,256,55500,1,10
344,184,56000,2,0,B|256:96|240:224,1,160,0|10
240,296,57500,5,0
168,264,58000,1,10
176,184,58500,1,0
256,168,59000,1,10
296,240,59500,1,0
240,296,60000,1,0
168,264,60500,1,6
280,200,69000,6,2,B|280:120,1,80
280,200,70000,2,2,B|360:200,1,80,0|10
280,200,71000,2,2,B|280:280,1,80
280,200,72000,2,2,B|200:200,1,80,0|14
256,192,73000,12,4,76500
112,104,77000,5,10
168,160,77500,1,0
224,104,78000,1,10
280,160,78500,1,0
336,104,79000,2,0,B|416:104,2,80,2|0|10
336,184,80500,6,2,B|256:184,2,80
336,264,82000,1,0
256,264,82500,1,6
176,264,83000,6,2,B|144:264,6,26.6666666666667
216,192,84500,1,6
256,264,85000,2,2,B|288:264,6,26.6666666666667
216,192,86500,1,4
296,192,87000,6,0,B|384:192,2,80,0|8|0
264,120,88500,2,0,B|176:120,2,80,0|8|14
344,120,90000,1,0
344,200,90500,1,6
264,200,91000,2,0,B|184:200,2,80,0|0|10
344,200,92500,6,2,B|344:280,2,80
424,200,94000,1,4
256,192,94500,12,6,97500
