osu file format v6

[General]
AudioFilename: Megpoid_GUMI_-_Miracle_Gumiracle.mp3
AudioLeadIn: 1500
PreviewTime: 26545
Countdown: 0
SampleSet: Normal
StackLeniency: 0.2
Mode: 0
LetterboxInBreaks: 0

[Editor]
DistanceSpacing: 0.800000011920929
BeatDivisor: 8
GridSize: 8

[Metadata]
Title:Miracle-Gumiracle
Artist:Megpoid GUMI
Creator:VanMoNky
Version:Normal
Source:Vocaloid2
Tags:Hatsune Miku Ren Len Kagamine KAITO

[Difficulty]
HPDrainRate:4
CircleSize:4
OverallDifficulty:3
SliderMultiplier:1.4
SliderTickRate:2

[Events]
//Background and Video events
0,0,"bg.jpg"
//Break Periods
2,2754,4302
2,8380,10302
2,62755,70302
2,122755,133115
2,182755,184302
2,188380,190302
//Storyboard Layer 0 (Background)
//Storyboard Layer 1 (Fail)
//Storyboard Layer 2 (Pass)
//Storyboard Layer 3 (Foreground)
Sprite,Foreground,Centre,"JUMP!.png",320,240 M,0,33857,34232,330,40,320,240 R,0,33857,34232,-0.56,-0.3653334 R,0,34232,34279,-0.3653334,-0.3409352 M,0,34232,34420,320,240,320,219 R,0,34279,34607,-0.3409352,0.1973327 M,0,34420,34607,320,219,320,240 M,0,34607,34795,320,240,319,229 R,0,34607,34982,0.1973327,0 M,0,34795,34982,319,229,320,240 M,0,34982,35170,320,240 R,0,34982,35170,0 M,0,35170,,320,240 R,0,35170,37795,0 M,0,35170,38357,320,240 R,0,37795,38357,0 F,0,37795,38545,1 S,0,37795,38545,1,0.576 F,0,38545,38732,1,0 S,0,38545,38732,0.576,5
Sprite,Foreground,Centre,"JUMP!.png",320,240 F,0,35545,35685,1,0 S,0,35545,35685,0.9999998,1.227593
Sprite,Foreground,Centre,"JUMP!.png",320,240 F,0,35920,36060,1,0 S,0,35920,36060,1,1.224
Sprite,Foreground,Centre,"JUMP!.png",320,240 F,0,36295,36435,1,0 S,0,36295,36435,1,1.216
Sprite,Foreground,Centre,"JUMP!.png",320,240 F,0,36670,36810,1,0 S,0,36670,36810,1,1.224
Sprite,Foreground,Centre,"JUMP!.png",320,240 F,0,37045,37185,1,0 S,0,37045,37185,1,1.216
Sprite,Foreground,Centre,"JUMP!.png",320,240 F,0,37420,37560,1,0 S,0,37420,37560,1,1.224
Sprite,Foreground,Centre,"JUMP!.png",320,240 V,0,153857,,1,1 M,0,153857,156295,-160,396,825,397
//Storyboard Sound Samples
//Background Colour Transformations
3,100,163,162,255

[TimingPoints]
1055,375,4,1,0,50,1,0
5734,-100,4,2,0,50,0,0
8554,-100,4,1,0,50,0,0
37805,-100,4,2,0,50,0,0
38555,-100,4,1,0,50,0,1
62554,-100,4,1,0,50,0,0
98555,-100,4,1,0,50,0,1
122554,-100,4,1,0,50,0,0
134555,-200,4,2,0,50,0,0
143180,-100,4,1,0,50,0,0
158555,-100,4,1,0,50,0,1
182554,-100,4,1,0,50,0,0
185742,-100,4,1,0,50,0,0
188555,-100,4,1,0,50,0,0

[Colours]
Combo1 : 27,239,250
Combo2 : 57,187,73
Combo3 : 243,248,78
Combo4 : 210,3,3
Combo5 : 255,150,0

[HitObjects]
72,192,1055,1,0
120,192,1242,2,8,B|192:192,1,70
240,192,1617,1,0
288,192,1805,2,8,B|376:192,1,70
408,192,2180,2,0,C|448:192,4,35,8|8|8|8|12
88,72,5742,5,0
88,128,5930,1,2
200,128,6305,1,0
200,240,6680,1,2
200,296,6867,1,0
312,296,7242,5,0
312,240,7430,1,2
312,128,7805,1,0
424,128,8180,1,2
256,344,11742,5,8
256,344,11930,1,8
224,232,12305,2,8,C|224:152,1,70
280,160,12680,2,0,C|280:240,1,70,8|8
392,232,13242,6,0,C|392:152,2,70,8|0|0
392,288,13805,1,0
392,64,14555,5,0
280,64,14930,1,2
168,64,15305,1,0
168,120,15492,1,0
168,176,15680,1,2
280,176,16055,1,0
392,176,16430,5,2
392,232,16617,1,0
392,288,16805,2,0,B|392:360,2,70,0|0|2
336,288,17367,1,0
336,288,17555,5,0
224,288,17930,1,2
224,176,18305,1,0
168,176,18492,1,0
112,176,18680,1,2
112,120,18867,5,0
224,120,19242,2,2,C|296:120,1,70,0|2
296,64,19617,2,2,C|216:64,1,70,2|4
112,120,20180,6,0,C|184:120,2,70,8|8|12
120,232,20930,1,2
232,232,21305,1,0
176,232,21492,1,0
120,232,21680,1,2
120,344,22055,5,0
232,344,22430,2,0,C|232:192,1,140,2|0
232,120,23086,2,0,C|344:120,1,105,0|0
336,176,23555,5,0
336,176,23742,1,0
336,176,23930,1,2
336,64,24305,1,0
392,64,24492,1,0
392,120,24680,1,2
392,176,24867,5,6
280,176,25242,1,0
280,232,25430,1,2
336,232,25617,1,6
40,32,26555,6,4,L|40:312,1,280,4|8
152,312,27680,1,0
152,256,27867,2,0,B|152:176|152:176|88:176|48:152|48:96|80:-16|224:-16|256:96|256:152|224:184,1,490,0|8
224,288,29555,6,0,C|280:288|280:344|352:344|352:288|408:288,1,280,0|8
488,352,30680,1,0
488,296,30867,2,0,C|488:144,1,140,0|0
432,152,31430,6,0,L|432:232,1,70,8|0
376,224,31805,2,0,L|376:144,1,70,0|8
320,152,32180,2,0,L|320:232,1,70,8|0
256,192,32555,12,4,33867
32,32,35180,5,2
144,32,35555,1,2
256,32,35930,1,2
368,32,36305,1,2
480,32,36680,1,2
480,144,37055,1,2
480,256,37430,1,2
368,256,37805,1,4
328,216,37992,5,0
272,216,38180,1,0
216,216,38367,1,0
224,160,38555,2,0,B|176:176|128:144|16:232,1,210,0|8
32,280,39305,2,0,B|120:272|176:288,1,140,0|0
168,344,39867,1,0
168,344,40055,1,0
280,344,40430,5,8
280,232,40805,1,0
280,232,40992,2,8,L|280:152,1,70
304,40,41555,6,0,C|240:32|168:48|88:32,1,210,0|8
40,32,42305,2,0,B|40:120,1,70
40,160,42680,1,0
120,232,43055,1,0
216,160,43430,5,8
328,160,43805,1,0
384,160,43992,1,8
440,160,44180,1,8
440,216,44367,6,0,C|440:288,1,70
328,288,44930,1,8
216,288,45305,1,0
216,176,45680,1,8
216,176,45867,1,0
216,176,46055,1,8
104,176,46430,1,8
104,176,46617,1,0
104,176,46805,1,8
104,288,47180,5,8
216,288,47555,1,0
328,288,47930,1,8
440,288,48305,1,0
440,288,48492,1,0
440,288,48680,1,8
256,192,48867,12,4,50180
256,192,50555,6,0,L|257:181|256:144|192:88|352:88,1,280,4|8
448,112,51680,1,0
448,168,51867,1,0
448,224,52055,1,0
328,224,52430,5,8
216,224,52805,1,0
104,224,53180,1,8
112,112,53555,6,0,L|184:112|184:184|264:184,1,210,0|0
304,184,54305,1,8
416,184,54680,1,0
416,128,54867,1,0
416,72,55054,1,0
304,72,55430,6,0,L|224:72,1,70,8|0
176,72,55805,2,0,L|104:72,1,70,0|0
48,72,56180,1,8
256,192,56555,12,8,57680
216,200,58055,5,0
216,88,58430,2,0,L|136:88,2,70,8|0|0
328,88,59180,5,8
328,144,59367,1,0
328,200,59555,2,0,B|416:256|328:312,1,140,8|0
224,304,60305,2,0,B|152:248|234:189,1,140,8|8
256,192,60867,12,4,62555
40,344,71742,5,8
40,344,71930,1,8
40,232,72305,1,8
40,120,72680,1,8
40,120,72867,1,8
152,120,73242,2,0,B|240:120,1,70,8|0
224,176,73617,2,0,B|136:176,1,70
336,304,74555,5,0
224,304,74930,1,2
280,208,75305,1,0
280,96,75680,1,2
336,96,75867,1,0
392,96,76055,1,0
392,208,76430,2,0,C|248:208,2,140,2|0|2
392,320,77554,5,0
280,320,77930,2,0,C|184:320,2,70,2|0|0
280,208,78680,1,2
280,168,78820,1,0
152,168,79242,2,0,C|152:248,2,70,0|2|0
152,112,79805,1,0
256,64,80180,6,8,C|328:64,2,70
144,64,80930,1,2
32,64,81305,1,0
88,64,81492,1,0
88,120,81680,1,2
88,232,82055,1,0
200,232,82430,6,0,B|256:296|328:224,1,140,2|0
320,232,82992,2,0,B|320:80,1,140,0|0
320,96,83555,1,0
432,96,83930,5,2
432,152,84117,1,0
432,208,84305,1,0
424,320,84680,1,2
368,320,84867,2,2,B|304:376|224:312,1,140,0|2
264,288,85383,2,2,B|296:256|344:296,1,70,0|2
256,16,86555,6,0,B|291:65|32:104|208:224,1,280,0|8
312,224,87680,1,0
368,224,87867,2,0,B|336:120|464:184|472:272|384:344|72:272,1,490,0|8
88,160,89555,6,0,L|152:160|88:248|24:152,1,280,0|8
64,120,90492,1,0
176,104,90867,2,0,B|184:48|248:72|128:168|240:160,1,140,0|0
280,160,91430,5,8
336,160,91617,1,0
392,160,91805,2,0,B|424:192|384:232,1,70,0|8
336,224,92180,2,0,B|304:256|264:216,1,70,8|0
256,192,92555,12,4,93867
56,192,95180,6,2,B|208:192,1,140
248,192,95742,1,0
280,144,95930,1,0
336,144,96117,2,2,B|392:192,1,70,2|2
376,240,96492,1,0
336,280,96680,1,0
280,288,96867,2,2,B|224:240,1,70,2|2
112,248,97430,1,2
328,32,98555,5,0
480,32,98930,2,0,B|408:80,1,70,8|0
376,104,99305,1,0
272,176,99680,2,0,B|344:128,1,70,8|0
376,104,100055,1,0
384,216,100430,6,0,B|384:168,2,35,8|0|0
384,272,100805,1,0
328,272,100992,1,0
328,328,101180,1,8
216,320,101555,6,0,B|72:320,1,140,0|8
75,320,102305,2,0,B|75:176,1,140,0|8
128,176,102867,1,0
184,176,103055,1,0
352,176,103430,5,8
296,176,103617,2,0,B|296:248,2,70
240,176,104180,1,8
256,192,104555,12,8,105680
256,352,106055,5,0
256,240,106430,2,0,B|336:240,2,70,8|0|0
272,128,107180,6,0,B|240:104|200:136,1,70,8|0
184,176,107555,2,0,B|88:296,1,140,0|8
208,280,108305,2,0,B|296:280,1,70,0|0
336,280,108680,1,8
256,192,109055,12,0,110180
280,280,110555,6,0,B|329:240|328:192|368:152,1,140,4|8
336,56,111305,2,0,B|287:96|288:144|248:184,1,140,0|8
200,176,111867,1,0
200,120,112055,1,0
296,176,112430,5,8
352,176,112617,1,0
408,176,112805,1,0
408,288,113179,1,8
296,288,113555,6,0,B|152:288,1,140,0|8
48,288,114305,2,0,B|120:288,1,70,0|0
120,232,114680,2,0,C|120:160,2,70,8|0|0
232,232,115430,5,8
232,176,115617,1,0
232,120,115805,2,0,C|304:120,1,70,0|8
360,120,116180,2,0,C|360:200,1,70,8|0
256,192,116555,12,8,117680
256,344,118055,5,0
256,288,118242,2,0,B|256:216,1,70,0|8
256,104,118805,5,0
200,104,118992,2,0,B|200:176,1,70,0|8
136,264,119555,2,0,B|136:112,1,140,0|8
24,128,120305,2,0,B|24:280,1,140,0|8
256,192,121055,12,4,122555
256,192,134555,5,2
200,192,134930,2,2,B|200:256,2,35,2|2|2
200,152,135586,1,2
200,112,135867,2,2,B|256:136|312:112,1,105
304,56,136805,1,2
256,192,137180,12,4,139805
256,192,140555,5,2
312,192,140930,2,2,B|312:128,2,35,2|2|2
312,232,141586,1,2
312,272,141867,2,2,B|256:248|200:272,1,105
208,320,142805,1,2
256,192,143180,12,4,146180
328,312,146555,6,0,B|328:192|328:264|256:264|248:264|248:256|256:256|256:248|256:88,1,280,0|8
144,96,147680,1,0
144,152,147867,2,0,B|104:216|8:200,1,140
24,256,148430,1,8
136,256,148805,5,0
192,256,148992,1,8
248,256,149180,1,8
360,256,149555,2,0,B|480:24|304:48,1,280,0|8
264,48,150492,1,0
208,48,150680,1,0
152,48,150867,2,0,L|152:192,1,140
152,240,151430,6,0,L|72:240,2,70,8|0|0
152,296,151992,2,0,L|72:296,2,70,8|8|0
256,192,152555,12,4,153867
56,152,155180,6,2,B|56:232,1,70,2|0
112,224,155555,2,2,L|192:224,1,70,2|0
240,224,155930,2,2,B|240:144,1,70,2|0
296,152,156305,2,2,L|368:152,1,70,2|0
424,152,156680,2,2,B|424:232,1,70,2|0
368,216,157055,2,2,L|296:216,2,70,2|2|2
184,136,158555,6,0,L|336:136,1,140,0|8
320,248,159305,2,0,L|168:248,1,140,0|8
120,248,159867,2,0,L|120:320,1,70
232,320,160430,5,8
288,320,160617,1,0
344,320,160805,1,0
456,320,161180,5,8
456,264,161367,1,0
456,208,161555,1,0
456,96,161930,6,0,B|304:96,1,140,8|0
200,96,162680,1,8
200,152,162867,1,0
200,208,163055,1,0
200,320,163430,5,8
88,320,163805,1,0
88,208,164180,1,8
256,192,164555,12,8,165680
176,192,166055,5,0
256,112,166430,1,8
336,192,166805,1,0
256,272,167180,1,8
256,192,167555,12,0,168492
256,192,168867,12,4,170555
472,192,170930,5,8
472,80,171305,1,0
360,80,171680,1,8
304,80,171867,1,0
248,80,172055,1,0
248,192,172430,6,0,L|176:192,2,70,8|0|0
248,192,173180,2,0,L|320:192,2,70,8|0|0
248,304,173930,1,8
136,304,174305,1,0
24,304,174680,1,8
24,248,174867,1,0
24,192,175055,1,0
24,80,175430,6,8,L|88:112|152:80|208:112|272:88|360:120,1,350
256,192,176555,12,8,177680
256,272,178055,5,0
176,192,178430,1,8
256,112,178805,1,0
336,192,179180,1,8
256,112,179555,5,0
336,192,179930,1,8
256,272,180305,1,0
216,232,180492,1,8
176,192,180680,1,8
256,192,180867,12,0,182555
40,88,185742,5,8
96,88,185929,1,10
208,88,186305,1,2
320,88,186680,1,10
376,88,186867,1,8
488,88,187242,1,8
488,144,187430,1,10
488,256,187805,1,2
376,256,188180,1,2
256,344,191742,5,8
256,344,191930,1,8
256,232,192305,2,8,L|176:232,3,70,8|8|8|8
184,120,193242,5,8
240,120,193429,1,0
296,120,193617,1,0
352,120,193804,1,0
264,40,194180,2,8,L|264:88,3,35
256,192,194555,12,4,197414
