osu file format v6

[General]
AudioFilename: Megpoid_GUMI_-_Miracle_Gumiracle.mp3
AudioLeadIn: 1500
PreviewTime: 38545
Countdown: 1
SampleSet: Normal
StackLeniency: 0.2
Mode: 0
LetterboxInBreaks: 0

[Editor]
DistanceSpacing: 0.699999988079071
BeatDivisor: 8
GridSize: 8

[Metadata]
Title:Miracle-Gumiracle
Artist:Megpoid GUMI
Creator:VanMoNky
Version:Insane
Source:Vocaloid2
Tags:Hatsune Miku Ren Len Kagamine KAITO

[Difficulty]
HPDrainRate:5
CircleSize:5
OverallDifficulty:7
SliderMultiplier:2
SliderTickRate:2

[Events]
//Background and Video events
0,0,"bg.jpg"
//Break Periods
2,62755,70842
2,122755,133655
2,137379,139655
//Storyboard Layer 0 (Background)
//Storyboard Layer 1 (Fail)
//Storyboard Layer 2 (Pass)
//Storyboard Layer 3 (Foreground)
Sprite,Foreground,Centre,"JUMP!.png",320,240 M,0,33857,34232,330,40,320,240 R,0,33857,34232,-0.56,-0.3653334 R,0,34232,34279,-0.3653334,-0.3409352 M,0,34232,34420,320,240,320,219 R,0,34279,34607,-0.3409352,0.1973327 M,0,34420,34607,320,219,320,240 M,0,34607,34795,320,240,319,229 R,0,34607,34982,0.1973327,0 M,0,34795,34982,319,229,320,240 M,0,34982,35170,320,240 R,0,34982,35170,0 M,0,35170,,320,240 R,0,35170,37795,0 M,0,35170,38357,320,240 R,0,37795,38357,0 F,0,37795,38545,1 S,0,37795,38545,1,0.576 F,0,38545,38732,1,0 S,0,38545,38732,0.576,5
Sprite,Foreground,Centre,"JUMP!.png",320,240 F,0,35545,35685,1,0 S,0,35545,35685,0.9999998,1.227593
Sprite,Foreground,Centre,"JUMP!.png",320,240 F,0,35920,36060,1,0 S,0,35920,36060,1,1.224
Sprite,Foreground,Centre,"JUMP!.png",320,240 F,0,36295,36435,1,0 S,0,36295,36435,1,1.216
Sprite,Foreground,Centre,"JUMP!.png",320,240 F,0,36670,36810,1,0 S,0,36670,36810,1,1.224
Sprite,Foreground,Centre,"JUMP!.png",320,240 F,0,37045,37185,1,0 S,0,37045,37185,1,1.216
Sprite,Foreground,Centre,"JUMP!.png",320,240 F,0,37420,37560,1,0 S,0,37420,37560,1,1.224
Sprite,Foreground,Centre,"JUMP!.png",320,240 V,0,153857,,1,1 M,0,153857,156295,-160,396,825,397
//Storyboard Sound Samples
//Background Colour Transformations
3,100,163,162,255

[TimingPoints]
1055,375,4,1,0,60,1,0
5742,-100,4,2,0,60,0,0
8367,-100,4,1,0,60,0,0
37805,-100,4,2,0,60,0,0
38555,-100,4,1,0,60,0,1
62555,-100,4,1,0,60,0,0
98555,-100,4,1,0,60,0,1
122555,-100,4,1,0,60,0,0
134555,-100,4,2,0,60,0,0
143742,-100,4,1,0,60,0,0
158555,-100,4,1,0,60,0,1
182367,-100,4,1,0,60,0,0
185742,-100,4,2,0,60,0,0
188367,-100,4,1,0,60,0,0

[Colours]
Combo1 : 183,233,247
Combo2 : 57,187,73
Combo3 : 243,248,78
Combo4 : 210,3,3
Combo5 : 255,150,0

[HitObjects]
192,160,1055,1,0
256,160,1242,1,8
320,160,1430,1,8
320,224,1617,1,0
256,224,1805,1,8
192,224,1992,1,8
192,160,2180,1,8
200,128,2273,1,8
224,112,2367,1,8
256,112,2461,1,8
288,112,2555,6,8,B|304:248|376:0|440:104,1,200,12|8
432,152,3117,1,0
432,216,3305,2,0,B|432:296|360:360,1,150,0|8
360,256,3867,2,0,B|280:184|168:256,1,200,0|0
120,208,4430,1,8
120,144,4617,1,8
120,80,4805,2,0,B|208:160|312:72,1,200,0|8
480,144,5742,5,0
448,144,5836,1,0
416,144,5930,1,10
416,264,6305,1,0
352,264,6492,1,0
288,264,6680,1,10
224,264,6867,1,0
224,144,7242,1,0
160,144,7430,1,10
96,144,7617,1,0
64,144,7711,1,0
32,144,7805,1,0
32,264,8180,1,10
96,264,8367,5,0
96,264,8461,1,0
96,264,8555,2,0,B|104:312|136:328|152:280|120:224|136:144,1,200,0|8
136,88,9117,1,0
200,88,9305,2,0,B|296:88|296:184,1,150,0|8
200,160,9867,2,0,B|216:296|352:280,1,200,0|0
400,280,10430,1,8
400,216,10618,1,8
400,152,10805,2,0,B|400:16|344:32|344:195,1,200,0|8
256,352,11742,5,8
256,352,11836,1,0
256,352,11930,1,8
224,232,12305,1,8
288,232,12492,1,8
256,176,12680,1,8
256,144,12773,1,8
256,112,12867,1,8
256,80,12961,1,8
368,192,13242,5,8
304,256,13429,1,0
208,256,13617,1,0
144,192,13804,1,0
256,128,14180,1,8
256,96,14273,1,8
256,72,14367,1,8
256,48,14461,1,8
256,24,14555,5,4
192,24,14742,1,0
128,24,14930,1,8
64,24,15117,1,0
64,88,15304,1,0
128,88,15492,1,0
160,88,15586,1,0
192,88,15680,1,8
192,152,15867,1,0
192,216,16055,1,0
256,216,16242,5,0
320,216,16430,1,8
320,152,16617,1,0
320,88,16805,1,0
384,88,16992,1,0
416,112,17086,1,0
448,88,17180,1,8
448,160,17367,1,0
416,184,17461,1,0
384,160,17555,1,0
320,160,17742,6,0,C|216:160,1,100,0|8
160,160,18117,1,0
160,160,18211,1,0
160,160,18305,1,0
160,224,18492,2,0,C|160:328,1,100,0|8
224,328,18867,1,0
288,328,19055,1,0
288,264,19242,2,0,B|337:309|395:250,1,100,0|8
376,200,19617,2,8,B|327:155|269:214,1,100,0|0
160,200,20180,5,8
128,200,20273,1,8
96,200,20367,1,8
64,200,20461,1,8
64,168,20555,5,4
64,104,20742,1,0
64,40,20930,1,8
128,40,21117,1,0
128,104,21305,1,0
192,104,21492,1,0
192,72,21586,1,0
192,40,21680,1,8
256,40,21867,6,0,C|264:104|240:176|256:256,1,200,0|0
272,296,22430,1,8
320,256,22617,2,0,C|312:192|336:120|320:40,1,200,0|0
392,56,23180,1,8
456,56,23367,1,0
456,88,23461,1,0
456,120,23555,5,0
456,184,23742,1,0
456,248,23930,1,8
456,312,24117,1,0
424,312,24211,1,0
392,312,24305,1,0
328,312,24492,1,0
264,312,24680,1,8
264,248,24867,2,4,L|256:240|272:232|256:224|272:216|256:208|272:200|256:192|272:184|256:176|272:168|256:160|272:152|264:152,1,200
264,96,25430,1,8
200,96,25617,2,4,B|200:304,1,200,4|0
136,296,26180,5,0
104,296,26274,1,0
72,296,26368,1,0
40,296,26462,1,0
40,264,26555,6,8,L|216:264|216:216|24:216,1,400,0|8
40,152,27492,1,0
40,88,27680,1,0
40,24,27867,2,0,L|160:24|160:128,1,200,0|0
160,104,28430,5,8
160,104,28617,1,0
160,104,28805,1,0
160,104,28992,1,0
160,104,29180,1,8
192,104,29273,1,0
224,104,29367,1,0
288,104,29555,6,0,L|288:208,1,100,0|0
288,205,29930,2,0,L|392:205,1,100,8|0
388,205,30305,2,0,L|388:309,1,100
328,304,30680,5,8
264,304,30867,2,0,C|40:304,1,200,0|0
64,272,31336,1,0
64,240,31430,1,8
128,232,31617,5,0
128,200,31711,1,0
128,168,31805,1,0
64,168,31992,5,0
64,136,32086,1,0
64,104,32180,1,8
64,32,32367,1,0
256,192,32555,12,4,33867
480,360,35180,5,2
256,192,35555,1,2
32,32,35930,1,2
256,192,36305,1,2
32,360,36680,1,2
256,192,37055,1,2
480,32,37430,1,2
256,192,37805,1,4
256,256,37992,5,0
224,256,38086,1,0
192,256,38180,1,0
192,320,38367,1,0
224,320,38461,1,0
256,320,38555,6,0,B|376:320,1,100,0|0
432,320,38930,1,8
432,256,39117,1,0
432,192,39305,2,0,B|432:112|360:112,1,100,0|0
383,114,39586,1,0
383,114,39680,1,8
320,112,39867,1,0
320,176,40055,2,0,L|320:280,1,100
256,272,40430,5,8
256,208,40618,1,0
256,144,40805,1,0
256,80,40992,1,8
224,80,41086,1,0
192,80,41180,1,8
128,80,41367,1,0
96,80,41461,1,0
64,80,41555,1,0
64,144,41742,6,0,L|64:264,1,100,0|8
128,248,42117,1,0
192,248,42305,1,0
256,248,42492,1,0
288,248,42586,1,0
320,248,42680,1,8
384,248,42867,1,0
448,248,43055,1,0
448,312,43242,6,0,L|344:312,1,100,0|8
288,312,43617,1,0
224,312,43805,1,0
160,312,43992,1,8
128,312,44086,1,0
96,312,44180,1,8
96,248,44367,1,0
128,248,44461,1,0
160,248,44555,1,4
160,184,44742,6,0,L|160:80,1,100,0|8
224,184,45117,2,0,L|224:80,1,100
288,184,45492,2,0,L|288:80,1,100,0|8
352,88,45867,1,0
416,88,46055,1,0
416,24,46242,1,0
352,24,46430,1,8
288,24,46617,1,0
224,24,46805,1,0
160,24,46992,5,8
128,24,47086,1,0
96,24,47180,1,8
96,88,47367,1,0
96,152,47555,2,0,L|216:152,1,100
192,216,47930,2,0,L|72:216,1,100,8|0
96,280,48305,2,0,L|216:280,1,100
192,344,48680,1,8
256,192,48867,12,0,50180
96,128,50555,5,4
136,176,50742,1,0
176,128,50930,1,8
216,176,51117,1,0
256,128,51305,1,0
304,176,51492,1,0
328,152,51586,1,0
352,128,51680,1,8
392,176,51867,1,0
432,128,52055,1,0
392,80,52242,6,0,L|280:80,1,100,0|8
232,80,52617,2,0,L|120:80,1,100
128,144,52992,1,8
128,144,53086,1,0
128,144,53180,1,8
168,192,53367,1,0
208,240,53555,5,0
248,192,53742,1,0
288,240,53930,1,8
352,240,54117,1,0
416,240,54305,1,0
384,184,54492,1,0
320,184,54680,1,8
352,128,54867,1,0
352,64,55055,1,0
216,64,55430,5,8
192,96,55524,1,0
216,128,55617,1,0
216,200,55805,1,0
240,232,55899,1,0
216,264,55992,1,8
216,336,56180,1,8
280,336,56367,1,0
344,336,56555,6,0,L|368:288|344:240,1,100,4|0
296,280,56930,2,0,L|248:256|200:280,1,100,8|0
160,320,57305,2,0,L|128:272|160:224,1,100
152,168,57680,1,8
216,168,57867,1,0
280,168,58055,1,0
280,104,58242,1,0
248,104,58336,1,0
216,104,58430,1,8
152,104,58617,2,0,L|152:48|216:48,1,100,0|0
264,48,58993,5,8
328,48,59180,1,8
392,48,59368,2,0,B|400:120|464:112,1,100,0|0
456,112,59743,2,0,B|448:176|392:184,1,100,0|8
400,184,60118,2,0,B|328:192|336:256,1,100,0|0
336,312,60492,1,0
336,312,60586,1,0
336,312,60680,1,8
256,192,60867,12,4,62555
32,360,71742,5,8
96,360,71930,1,8
96,240,72305,1,8
32,240,72492,1,8
32,176,72680,1,8
32,144,72773,1,8
32,112,72867,1,8
32,80,72961,1,8
120,80,73242,6,0,B|120:152|200:144,1,100,8|0
240,144,73617,2,0,B|240:72|160:80,1,100
240,336,74180,1,8
240,304,74273,1,8
240,272,74367,1,8
240,240,74461,1,8
240,208,74555,5,4
304,208,74742,1,0
368,208,74930,1,8
368,144,75117,1,0
368,80,75305,1,0
304,80,75492,1,0
272,80,75586,5,0
240,80,75680,2,0,B|240:200,1,100,8|0
184,216,76055,2,0,C|184:96,1,100,0|0
128,80,76430,2,0,C|128:192,1,100,8|0
128,248,76805,1,0
176,288,76992,1,0
208,296,77086,1,0
240,288,77180,1,8
296,256,77367,1,0
296,192,77555,5,0
296,128,77742,1,0
296,64,77930,1,8
360,64,78117,1,0
424,64,78305,1,0
424,128,78492,1,0
424,160,78586,1,0
424,192,78680,2,0,L|432:248|424:312,1,100,8|0
376,328,79055,1,0
320,296,79243,5,0
288,264,79336,1,0
256,296,79430,1,8
192,296,79618,1,0
160,328,79711,1,0
128,296,79805,1,0
128,232,79992,1,0
128,168,80180,2,8,B|128:112,1,50
128,117,80367,2,8,B|128:61,1,50
128,66,80555,1,4
192,64,80742,5,0
256,64,80930,1,8
256,128,81117,1,0
192,128,81305,1,0
192,192,81492,1,0
224,192,81586,1,0
256,192,81680,1,8
256,256,81867,1,0
192,256,82055,1,0
192,320,82242,5,0
256,320,82430,1,8
320,320,82617,2,0,C|320:200,1,100
320,160,82992,2,0,C|320:40,1,100,0|8
384,48,83367,1,0
384,80,83461,1,0
384,112,83555,5,0
384,176,83742,1,0
384,240,83930,1,8
384,304,84117,1,0
352,304,84211,1,0
320,304,84305,1,0
256,304,84492,1,0
192,304,84680,1,8
128,304,84867,2,0,B|136:192|240:136,1,200
296,144,85430,1,8
360,144,85617,2,4,B|360:56|176:72,1,200
128,72,86180,5,0
128,104,86273,1,0
128,136,86367,1,0
128,160,86461,1,0
128,192,86555,6,0,B|128:304,1,100
192,296,86930,1,8
192,232,87117,2,0,B|192:120,1,100
256,128,87492,1,0
320,128,87680,1,8
384,128,87867,1,0
384,200,88055,5,0
384,232,88148,1,0
384,264,88242,1,0
320,264,88430,1,8
320,264,88617,1,0
256,264,88805,1,0
256,232,88898,1,0
256,200,88992,1,0
192,200,89180,1,8
192,200,89367,1,0
192,264,89555,5,0
192,328,89742,1,0
256,328,89930,1,8
320,328,90117,1,0
256,328,90305,1,0
192,328,90492,1,0
128,328,90680,1,8
64,328,90867,1,0
64,264,91055,1,0
64,200,91242,2,0,B|24:160|64:96,1,100,0|8
112,152,91617,2,0,B|152:192|112:256,1,100
168,288,91992,2,0,B|128:328|64:288,1,100,0|8
72,240,92367,5,0
72,240,92461,1,0
72,240,92555,1,0
120,192,92742,1,0
168,152,92930,1,8
216,192,93118,1,0
256,240,93305,1,0
304,200,93493,1,0
352,160,93680,1,8
392,208,93867,5,0
448,248,94055,1,0
392,280,94242,1,0
344,328,94430,1,8
304,280,94617,1,0
256,240,94805,1,0
256,176,94992,1,0
256,112,95180,1,8
32,24,95555,5,0
32,24,95649,1,0
32,24,95743,1,0
32,88,95930,1,8
32,152,96117,1,8
32,216,96305,1,0
32,216,96399,1,0
32,216,96493,1,0
32,280,96680,1,8
32,344,96867,1,8
96,344,97055,5,8
128,344,97149,1,0
160,344,97243,1,8
192,344,97335,1,0
224,344,97429,1,8
256,344,97523,1,0
288,344,97617,1,8
256,192,97805,12,4,98555
288,208,98742,5,0
256,184,98836,1,0
224,208,98930,1,8
256,264,99117,1,0
256,264,99305,1,0
224,320,99492,1,0
256,344,99586,1,0
288,320,99680,1,8
336,272,99867,1,0
376,216,100055,1,0
416,272,100242,1,0
416,336,100430,5,8
416,336,100523,1,0
416,336,100617,1,0
352,336,100805,1,0
288,336,100992,1,8
224,336,101180,1,8
224,336,101273,1,0
224,336,101367,1,0
160,336,101555,6,0,B|48:336,1,100
64,272,101930,2,0,B|176:272,1,100,8|0
192,208,102305,1,0
128,208,102492,1,0
64,208,102680,1,8
96,152,102867,1,0
160,152,103055,1,0
256,24,103430,6,0,B|368:24,1,100,8|0
256,24,103805,2,0,B|136:24,1,100,0|8
152,88,104180,1,8
216,88,104367,5,0
216,88,104461,1,0
216,88,104555,1,0
216,152,104742,1,0
280,152,104929,1,8
280,88,105117,1,0
344,88,105304,1,0
344,152,105492,1,0
408,152,105679,1,8
408,88,105867,5,0
408,152,106055,2,0,B|408:224|328:216,1,100
344,280,106430,2,0,B|280:280|288:192,1,100,8|0
288,152,106805,1,0
224,152,106992,1,8
224,152,107086,1,0
224,152,107180,1,8
160,152,107367,1,0
160,216,107554,5,0
160,320,107930,1,8
296,320,108305,1,0
360,320,108492,1,0
360,288,108586,1,0
360,256,108680,1,0
360,192,108867,1,0
216,64,109383,5,0
96,160,109805,5,2
96,224,109992,1,2
152,192,110180,1,2
152,192,110273,1,0
152,192,110367,2,0,B|264:192,1,100,2|0
312,192,110742,5,0
312,224,110836,1,0
312,256,110930,1,8
376,256,111117,1,0
376,320,111305,1,0
440,320,111492,1,0
440,288,111586,1,0
440,256,111680,1,8
440,192,111867,1,0
440,128,112055,1,0
440,64,112242,6,0,B|328:64,1,100,0|8
336,128,112617,2,0,B|224:128,1,100
232,64,112992,2,8,B|120:64,1,100
64,64,113367,1,0
64,96,113461,1,0
64,128,113555,5,0
64,192,113742,1,0
64,256,113930,1,8
128,256,114117,1,0
128,224,114211,1,0
128,192,114305,1,0
128,128,114492,1,0
192,128,114680,1,8
192,192,114867,1,0
192,224,114961,1,0
192,256,115055,1,0
312,256,115430,5,8
312,192,115617,1,0
312,128,115805,1,0
376,128,115992,1,8
376,192,116180,1,8
376,256,116368,5,0
408,288,116462,1,0
376,320,116555,1,0
312,328,116742,1,0
248,328,116929,1,8
184,312,117117,1,0
152,280,117211,1,0
184,248,117304,1,0
248,224,117492,1,0
312,224,117679,1,8
312,152,117867,5,0
248,152,118055,1,0
192,120,118242,1,0
152,168,118430,1,8
112,120,118617,1,0
72,168,118805,1,0
72,232,118992,2,8,B|72:336,1,100
208,192,119555,5,0
256,144,119743,1,0
256,112,119836,1,0
256,80,119930,1,8
256,144,120118,1,0
304,192,120305,5,0
256,240,120493,1,0
256,304,120680,1,8
256,192,120867,12,4,122555
32,192,134555,6,8,B|112:80|191:195,1,200,4|8
256,192,135117,1,0
320,192,135305,2,0,B|384:256|464:192,1,150,0|8
384,160,135867,2,0,B|304:88|192:160,1,200,0|0
200,216,136430,1,8
200,280,136617,1,8
264,280,136805,2,0,B|352:360|456:272,1,200,0|8
480,192,140555,6,8,B|400:304|321:189,1,200,4|8
256,192,141117,1,0
192,192,141305,2,0,B|128:128|48:192,1,150,0|8
128,224,141867,2,0,B|208:296|320:224,1,200,0|0
312,168,142430,1,8
312,104,142617,1,8
248,104,142805,2,0,B|160:24|56:112,1,200,0|8
224,360,143742,5,8
256,360,143836,1,0
288,360,143930,1,8
224,232,144305,1,8
288,232,144492,1,8
256,176,144679,1,8
256,168,144773,1,8
256,160,144867,1,8
256,152,144961,1,8
152,176,145243,5,8
152,168,145337,1,0
152,160,145430,1,0
152,88,145618,5,8
152,80,145712,1,0
152,72,145805,1,0
256,88,145992,5,8
256,80,146086,1,0
256,72,146180,1,0
360,88,146367,5,8
360,80,146461,1,0
360,72,146555,1,0
256,192,146648,12,0,147305
256,192,147492,5,0
256,192,147680,1,8
320,192,147868,1,0
304,128,148055,1,0
256,88,148243,1,0
208,128,148430,1,8
184,192,148618,5,0
216,248,148805,1,0
256,296,148992,1,0
304,256,149180,1,8
424,256,149555,5,0
424,256,149930,1,8
424,128,150305,5,0
424,64,150492,1,0
360,64,150680,1,8
360,128,150867,1,0
240,64,151242,5,0
264,96,151336,1,0
240,128,151429,1,8
240,192,151617,1,0
216,224,151711,1,0
240,256,151805,1,0
240,320,151992,5,0
176,320,152180,1,8
112,320,152367,1,0
48,320,152555,1,0
256,192,152742,12,4,153867
184,192,155180,5,2
256,120,155367,1,0
328,192,155555,1,2
256,256,155742,1,0
152,192,155930,1,2
256,88,156117,1,0
360,192,156305,1,2
256,288,156492,1,0
120,192,156680,1,2
256,56,156867,1,0
392,192,157055,1,2
256,320,157242,1,0
88,192,157430,1,2
256,40,158555,6,0,L|200:40|200:96,1,100,4|0
200,144,158929,1,8
264,144,159117,1,0
328,144,159304,1,0
328,80,159492,1,0
360,80,159586,1,0
392,80,159679,1,8
392,144,159867,1,0
392,208,160055,1,0
392,272,160242,1,0
392,336,160430,5,8
328,336,160617,1,0
264,336,160805,1,0
200,336,160992,1,8
168,336,161086,1,0
136,336,161180,1,8
136,272,161367,1,0
168,272,161461,1,0
200,272,161555,6,0,B|248:256|256:168,1,100,0|0
256,128,161930,1,8
192,128,162117,1,0
128,128,162305,1,0
64,128,162492,1,0
64,64,162680,6,0,C|184:64,2,100,8|0|0
64,128,163242,2,0,C|64:248,2,100,0|8|0
128,128,163805,2,0,C|248:128,2,100,0|8|8
128,192,164367,1,0
160,192,164461,1,0
192,192,164555,6,0,L|248:192|248:248,1,100
280,288,164930,2,0,L|280:336|352:336,1,100,8|0
376,288,165305,2,0,L|376:232|432:232,1,100
416,160,165680,1,8
352,160,165867,1,0
288,160,166055,1,0
224,160,166242,5,0
224,160,166336,1,0
224,160,166430,1,8
160,160,166617,1,0
96,160,166805,1,0
96,224,166992,1,8
160,224,167180,6,0,C|280:224,3,100,8|0|0|0
328,224,167930,1,8
392,224,168117,1,0
392,224,168211,1,0
392,224,168305,1,0
392,288,168492,1,0
328,288,168680,1,8
256,192,168867,12,4,170555
256,192,170742,5,0
208,152,170930,1,8
256,112,171117,1,0
304,152,171305,1,0
368,152,171493,1,0
368,184,171586,1,0
368,216,171680,1,8
368,280,171868,1,0
304,280,172055,1,0
160,280,172430,5,8
160,216,172618,1,0
160,152,172805,1,0
224,152,172992,1,8
288,152,173180,1,8
352,152,173367,1,0
352,120,173461,1,0
352,88,173555,1,0
416,112,173742,5,0
464,152,173930,1,8
416,192,174117,1,0
360,224,174305,1,0
416,256,174493,1,0
464,296,174680,1,8
416,336,174868,1,0
368,296,175055,1,0
224,296,175430,2,0,B|184:256|224:192,1,100,8|0
264,160,175805,2,0,B|304:200|264:264,1,100,0|8
272,320,176180,1,8
336,320,176367,5,0
336,288,176461,1,0
336,256,176555,1,4
336,192,176742,1,0
336,128,176930,1,8
272,128,177117,1,0
272,64,177305,1,0
208,64,177492,1,0
144,64,177680,2,0,C|144:168,1,100,8|0
192,208,178055,1,0
240,248,178242,1,0
296,280,178430,2,0,B|280:344|368:360,1,100,8|0
408,352,178805,5,0
408,288,178992,1,8
408,224,179180,2,8,L|392:224|392:128,1,100,8|0
392,72,179555,1,0
328,72,179742,2,8,L|312:72|312:168,1,100,0|8
312,216,180117,1,0
256,248,180305,1,0
200,216,180492,1,0
256,184,180680,1,8
256,192,180867,12,0,182367
480,32,182555,6,8,L|400:144|360:88,1,200,4|8
328,40,183117,1,0
264,40,183305,2,0,B|200:104|264:184,1,150,0|8
320,96,183867,2,0,B|376:176|320:288,1,200,0|0
264,248,184430,1,8
216,200,184617,1,8
168,152,184805,2,0,L|80:72|8:128,1,200,0|8
64,280,185742,5,0
64,280,185836,1,0
64,280,185930,2,0,B|256:352|248:256,1,200,10|0
248,216,186492,1,0
248,152,186680,1,10
248,88,186867,2,0,L|328:56|440:88,1,200,0|0
440,152,187430,1,10
440,216,187617,1,0
440,280,187805,2,0,L|360:312|248:280,1,200,0|10
256,208,188367,5,0
256,176,188461,1,0
256,144,188555,6,8,L|256:256|144:256,1,200,4|8
168,200,189117,1,0
120,160,189305,2,0,B|56:224|120:304,1,150,0|8
176,232,189867,2,0,B|256:176|368:232,1,200,0|0
424,224,190430,1,8
424,160,190617,1,8
360,160,190805,2,0,L|296:88|200:160,1,200,0|8
256,352,191742,5,8
256,352,191836,1,0
256,352,191930,1,8
224,232,192305,1,8
288,232,192492,1,8
256,176,192680,1,8
256,144,192773,1,8
256,112,192867,1,8
256,80,192961,1,8
368,192,193242,5,8
304,256,193429,1,0
208,256,193617,1,0
144,192,193804,1,0
256,128,194180,1,8
256,96,194273,1,8
256,72,194367,1,8
256,48,194461,1,8
256,192,194648,12,4,197414
