osu file format v6

[General]
AudioFilename: Megpoid_GUMI_-_Miracle_Gumiracle.mp3
AudioLeadIn: 1500
PreviewTime: 26545
Countdown: 0
SampleSet: Normal
StackLeniency: 0.2
Mode: 0
LetterboxInBreaks: 0

[Editor]
Bookmarks: 185732
DistanceSpacing: 0.699999988079071
BeatDivisor: 4
GridSize: 8

[Metadata]
Title:Miracle-Gumiracle
Artist:Megpoid GUMI
Creator:VanMoNky
Version:Hard
Source:Vocaloid2
Tags:Hatsune Miku Ren Len Kagamine KAITO

[Difficulty]
HPDrainRate:5
CircleSize:5
OverallDifficulty:6
SliderMultiplier:1.6
SliderTickRate:2

[Events]
//Background and Video events
0,0,"bg.jpg"
//Break Periods
2,2755,4692
2,8754,10692
2,62755,64692
2,68754,70692
2,122755,133880
2,137380,139880
//Storyboard Layer 0 (Background)
//Storyboard Layer 1 (Fail)
//Storyboard Layer 2 (Pass)
//Storyboard Layer 3 (Foreground)
Sprite,Foreground,Centre,"JUMP!.png",320,240 M,0,33857,34232,330,40,320,240 R,0,33857,34232,-0.56,-0.3653334 R,0,34232,34279,-0.3653334,-0.3409352 M,0,34232,34420,320,240,320,219 R,0,34279,34607,-0.3409352,0.1973327 M,0,34420,34607,320,219,320,240 M,0,34607,34795,320,240,319,229 R,0,34607,34982,0.1973327,0 M,0,34795,34982,319,229,320,240 M,0,34982,35170,320,240 R,0,34982,35170,0 M,0,35170,,320,240 R,0,35170,37795,0 M,0,35170,38357,320,240 R,0,37795,38357,0 F,0,37795,38545,1 S,0,37795,38545,1,0.576 F,0,38545,38732,1,0 S,0,38545,38732,0.576,5
Sprite,Foreground,Centre,"JUMP!.png",320,240 F,0,35545,35685,1,0 S,0,35545,35685,0.9999998,1.227593
Sprite,Foreground,Centre,"JUMP!.png",320,240 F,0,35920,36060,1,0 S,0,35920,36060,1,1.224
Sprite,Foreground,Centre,"JUMP!.png",320,240 F,0,36295,36435,1,0 S,0,36295,36435,1,1.216
Sprite,Foreground,Centre,"JUMP!.png",320,240 F,0,36670,36810,1,0 S,0,36670,36810,1,1.224
Sprite,Foreground,Centre,"JUMP!.png",320,240 F,0,37045,37185,1,0 S,0,37045,37185,1,1.216
Sprite,Foreground,Centre,"JUMP!.png",320,240 F,0,37420,37560,1,0 S,0,37420,37560,1,1.224
Sprite,Foreground,Centre,"JUMP!.png",320,240 V,0,153857,,1,1 M,0,153857,156295,-160,396,825,397
//Storyboard Sound Samples
//Background Colour Transformations
3,100,163,162,255

[TimingPoints]
1055,375,4,1,0,60,1,0
5732,-100,4,2,0,60,0,0
8357,-100,4,1,0,60,0,0
37795,-100,4,2,0,60,0,0
38545,-100,4,1,0,60,0,1
62545,-100,4,1,0,60,0,0
65732,-100,4,2,0,60,0,0
68357,-100,4,1,0,60,0,0
98545,-100,4,1,0,60,0,1
122544,-100,4,1,0,60,0,0
134920,-100,4,2,0,60,0,0
143732,-100,4,1,0,60,0,0
158545,-100,4,1,0,60,0,1
182544,-100,4,1,0,60,0,0
182545,-100,4,1,0,60,0,1
182546,-100,4,1,0,60,0,0
185732,-100,4,2,0,60,0,0
188357,-100,4,1,0,60,0,0
194545,-100,4,1,0,30,0,0

[Colours]
Combo1 : 155,217,247
Combo2 : 57,187,73
Combo3 : 243,248,78
Combo4 : 210,3,3
Combo5 : 255,150,0

[HitObjects]
256,16,1055,1,0
256,72,1242,1,8
256,72,1430,1,8
256,128,1617,1,0
256,184,1805,1,8
256,184,1992,1,8
256,240,2180,2,8,C|256:296,1,40,8|8
256,304,2367,2,8,C|256:352,1,40,8|8
256,368,2555,1,12
32,160,5742,5,0
32,216,5930,1,2
144,192,6305,1,0
200,192,6492,1,0
256,192,6680,1,2
312,192,6867,1,0
424,192,7242,1,0
424,248,7430,1,2
480,248,7617,1,0
480,192,7805,1,0
368,192,8180,1,2
312,192,8367,2,0,L|312:240,2,40,0|0|4
256,40,11742,5,8
256,40,11930,1,8
256,152,12305,1,8
256,152,12492,1,8
224,200,12680,2,8,L|264:200,1,40
288,200,12867,2,8,L|328:200,1,40,8|8
256,288,13242,5,8
256,344,13429,1,0
256,288,13617,1,0
256,344,13804,1,0
256,232,14180,2,8,L|256:184,1,40
256,160,14367,2,8,L|256:112,1,40,8|8
256,88,14555,5,4
200,88,14742,1,0
144,88,14930,1,8
88,88,15117,1,0
88,144,15304,1,0
144,144,15492,1,0
144,200,15680,1,8
144,256,15867,1,0
256,256,16242,1,0
312,256,16430,1,8
368,256,16617,1,0
368,200,16805,2,0,B|426:251|485:200,2,120,0|8|0
368,144,17555,5,0
368,88,17742,1,0
312,88,17930,1,8
256,88,18117,1,0
200,88,18305,1,0
200,144,18492,1,0
200,200,18680,1,8
200,256,18867,1,0
312,256,19242,2,0,C|400:256,1,80,0|8
360,304,19617,2,0,C|272:304,1,80,0|0
184,368,20180,2,8,C|232:368,1,40,8|8
224,336,20367,2,8,C|184:336,1,40,8|8
200,312,20555,5,12
200,256,20742,1,0
200,200,20930,1,8
200,144,21118,1,0
200,88,21305,1,0
200,144,21492,1,0
200,88,21680,1,8
256,88,21867,1,0
352,24,22242,1,0
408,24,22430,2,0,C|408:184,1,160,8|0
408,264,23086,2,0,C|288:264,1,120,0|0
232,264,23555,5,0
176,264,23742,1,0
176,208,23930,1,8
176,152,24117,1,0
232,152,24305,1,0
232,208,24492,1,0
312,264,24867,5,6
200,264,25242,1,2
256,264,25430,1,0
256,264,25617,1,6
40,40,26555,6,4,B|192:112|352:29,1,320,4|8
347,31,27492,1,0
400,32,27680,1,0
400,88,27867,2,0,C|400:248|376:304|336:272|288:304|240:272|208:304|168:256|216:208,1,560,0|8
256,200,29367,5,0
256,144,29555,2,0,L|56:144|56:192|128:192,1,320,0|8
128,248,30492,1,0
184,248,30680,1,0
184,304,30867,2,0,C|344:304,1,160,0|0
400,304,31430,6,8,C|400:208,1,80,8|0
400,224,31711,1,0
400,224,31805,2,8,C|400:128,1,80,0|8
400,144,32086,1,0
400,144,32180,2,8,C|400:48,1,80,8|0
256,192,32555,12,4,33867
32,32,35180,5,2
256,32,35555,1,2
480,24,35930,1,2
480,192,36305,1,2
480,360,36680,1,2
256,360,37055,1,2
32,352,37430,1,2
32,192,37805,1,4
88,192,37992,5,0
144,192,38180,1,0
200,192,38367,1,0
256,192,38555,2,0,B|240:144|272:96|256:24,1,160,0|8
312,32,39117,1,0
368,32,39305,2,0,B|384:88|352:136|368:208,1,160,0|8
368,248,39867,1,0
368,304,40055,1,0
256,304,40430,5,8
256,248,40617,1,0
200,248,40805,1,0
200,304,40992,1,0
144,304,41180,1,8
88,304,41367,1,0
88,248,41555,6,0,C|176:248,2,80,0|0|8
32,248,42117,1,0
32,304,42305,1,0
88,304,42492,1,0
144,304,42680,1,8
144,360,42867,1,0
200,360,43055,1,0
88,360,43430,5,8
88,304,43617,1,0
32,304,43805,1,0
32,248,43992,2,0,C|32:192,2,40,0|0|8
88,248,44367,1,0
88,248,44555,6,8,L|96:240|104:248|112:240|120:248|128:240|136:248|144:240|152:248|160:240|168:248|176:240|184:248|192:240|200:248|208:240|216:248|224:240|232:248|240:240|248:248|256:240|264:248|272:240|280:248|288:240|296:248|304:240|312:248|320:240|328:248|336:240|344:248|352:240|360:248|368:240|376:248|384:240|392:248|400:240|409:248|418:239|424:248,1,480,4|8
472,240,45867,1,0
472,184,46055,1,0
416,184,46242,1,0
416,128,46430,1,8
360,128,46617,1,0
304,128,46805,1,0
264,232,47180,6,0,B|272:184|216:168,1,80,8|0
225,171,47555,2,8,C|49:171,1,160,0|8
72,280,48305,1,0
128,280,48492,1,0
184,280,48680,1,8
256,192,48867,12,0,50180
200,192,50555,6,0,B|256:192|256:288|328:288,2,160,4|8|4
200,192,51492,1,0
200,192,51680,1,8
200,192,51867,1,0
200,192,52055,1,0
216,80,52430,2,0,C|288:136,1,80,8|0
280,128,52805,2,0,C|280:48,1,80,0|0
280,48,53180,2,0,C|352:104,1,80,8|0
344,152,53555,1,0
296,176,53742,5,0
336,216,53930,1,8
392,216,54117,1,0
432,176,54305,1,0
432,120,54492,1,0
392,80,54680,1,8
336,80,54867,1,0
296,120,55055,1,0
184,120,55430,2,0,C|152:40,1,80,8|0
112,88,55805,2,0,C|144:168,1,80,0|0
96,200,56180,2,0,C|64:120,1,80,8|0
48,72,56555,1,4
256,192,56601,12,8,57680
432,352,57867,5,0
432,296,58055,1,0
376,296,58242,1,0
376,240,58430,1,8
376,240,58617,2,0,C|376:144,1,80
376,48,59180,5,8
320,48,59367,1,0
264,48,59555,2,0,B|184:40|104:88,1,160,0|8
112,136,60117,1,0
168,136,60304,1,0
168,192,60492,1,0
224,192,60680,1,8
256,192,60867,12,4,62555
224,328,65742,5,0
280,328,65930,1,2
280,216,66305,1,0
280,160,66492,1,0
224,160,66680,1,2
224,216,66867,1,0
224,104,67242,1,0
280,104,67430,1,2
280,48,67617,1,0
224,48,67805,1,0
336,48,68180,1,2
336,104,68367,2,0,L|376:104,2,40,0|0|4
96,24,71742,5,8
152,24,71930,1,8
152,136,72305,1,8
152,192,72492,1,8
208,192,72680,2,8,L|248:192,3,40
208,296,73242,6,0,C|296:296,1,80,8|0
344,296,73617,2,0,C|440:296,1,80
424,184,74180,2,8,L|424:128,1,40,8|8
424,112,74367,2,8,L|424:56,1,40,8|8
392,72,74555,5,4
336,72,74742,1,0
280,72,74930,1,8
224,72,75117,1,0
224,128,75305,1,0
224,184,75492,2,0,C|224:352,1,160,0|0
168,344,76055,1,0
168,344,76242,1,0
168,288,76430,2,8,C|168:112,1,160,8|0
112,128,76992,1,0
112,72,77180,2,0,L|192:72,1,80,8|0
248,72,77555,5,0
304,72,77742,1,0
360,72,77930,1,8
416,72,78117,1,0
472,72,78305,1,0
472,128,78492,1,0
472,184,78680,2,0,L|472:240|432:240,1,80,8|0
336,240,79242,1,0
280,240,79430,1,8
224,240,79617,1,0
168,240,79805,1,0
56,240,80180,6,8,C|112:240,1,40
96,208,80367,2,8,C|40:208,1,40,8|8
56,176,80555,1,4
56,120,80742,1,0
56,64,80930,1,8
112,64,81118,1,0
168,64,81305,1,0
168,120,81492,1,0
224,120,81680,1,8
224,176,81867,1,0
336,176,82242,5,0
336,120,82430,1,8
392,120,82617,1,0
392,64,82805,1,0
448,64,82992,1,0
448,120,83180,1,8
448,176,83367,1,0
448,232,83555,5,0
392,232,83742,1,0
392,288,83930,1,8
392,344,84117,1,0
336,344,84305,1,0
280,344,84492,1,0
280,288,84680,1,8
280,232,84867,1,0
280,120,85242,1,0
224,120,85430,1,8
168,120,85617,1,4
328,120,86180,6,8,C|328:176,1,40,8|8
328,184,86367,2,8,C|328:240,1,40,8|8
328,248,86555,2,8,B|224:248|152:264|336:96|72:112,1,320,12|0
32,112,87492,1,0
32,56,87680,1,8
88,56,87867,1,0
144,56,88055,2,8,C|214:54|224:64|296:64,1,160,0|8
352,64,88617,1,0
408,64,88805,2,0,C|408:144|393:140|392:216,1,160,0|8
448,200,89367,5,0
448,256,89555,1,0
392,256,89742,1,0
392,312,89930,1,8
280,312,90305,1,0
336,312,90492,1,0
336,256,90680,1,8
280,256,90867,1,0
280,144,91242,5,0
280,200,91430,1,8
224,200,91617,1,0
224,144,91805,1,0
168,144,91992,1,0
168,200,92180,1,8
168,256,92368,1,0
112,256,92555,1,4
112,144,92930,5,8
112,32,93305,1,0
168,32,93492,1,0
168,88,93680,1,8
224,88,93867,1,0
320,40,94242,5,0
264,40,94430,1,8
208,40,94617,1,0
232,88,94805,1,0
288,88,94992,1,0
256,136,95180,1,8
176,200,95555,6,2,C|264:200,1,80
256,136,95930,1,8
256,200,96117,1,8
336,200,96305,2,2,C|248:200,1,80
256,136,96680,1,8
256,200,96867,1,8
256,256,97055,2,8,C|256:304,7,40
256,192,97805,12,4,98555
56,40,98930,5,8
88,80,99118,1,0
56,128,99305,1,0
112,128,99493,1,0
144,80,99681,1,8
168,128,99868,1,0
200,80,100055,1,0
352,112,100430,5,8
352,112,100617,1,0
352,56,100805,1,0
400,88,100992,1,0
400,144,101180,1,8
352,168,101367,1,0
296,168,101555,6,0,B|200:168,1,80
160,168,101930,2,0,B|64:168,1,80,8|0
88,224,102305,1,0
120,272,102492,1,0
160,312,102680,1,8
200,272,102867,1,0
232,224,103055,1,0
232,112,103430,6,0,B|320:112,1,80,8|0
336,160,103805,2,0,B|248:160,1,80,0|0
200,160,104180,1,8
144,160,104367,1,0
144,160,104555,2,0,B|96:208|160:224,1,80
192,256,104930,1,8
240,280,105117,6,0,B|280:304|320:272,1,80
360,240,105492,2,0,B|416:224|392:160,1,80,0|8
392,120,105867,1,0
360,72,106055,1,0
312,40,106242,1,0
256,40,106430,1,8
200,40,106617,1,0
152,72,106805,5,0
120,176,107180,1,8
152,224,107367,1,0
192,264,107554,1,0
256,168,107930,1,8
368,168,108305,1,0
312,168,108492,1,0
256,192,108680,12,12,109430
480,24,109805,5,2
424,24,109992,1,2
448,72,110180,2,2,B|448:168,1,80,10|2
448,208,110555,5,4
448,264,110742,1,0
448,312,110930,1,8
392,312,111117,1,0
336,312,111305,1,0
280,312,111492,1,0
280,256,111680,1,8
336,256,111867,1,0
392,256,112055,1,0
392,144,112430,6,0,B|304:144,1,80,8|0
312,144,112805,2,0,B|312:232,1,80,0|0
312,224,113180,2,0,B|224:224,1,80,8|0
232,168,113555,5,0
200,120,113742,1,0
144,136,113930,1,8
88,120,114117,1,0
64,168,114305,1,0
88,216,114492,1,0
64,264,114680,1,8
112,296,114867,1,0
160,272,115055,1,0
296,304,115430,5,8
296,248,115617,1,0
296,192,115805,1,0
296,136,115992,1,0
296,80,116180,1,8
296,24,116368,5,0
352,24,116555,2,4,B|520:24|520:352|296:352,1,480,4|8
264,320,117867,1,0
216,352,118055,1,0
168,320,118242,1,0
120,352,118430,1,8
72,320,118617,1,0
24,352,118805,1,0
24,240,119180,5,8
24,184,119367,1,0
80,184,119555,1,0
192,184,119930,1,8
304,184,120305,1,0
360,184,120492,1,0
416,184,120680,1,8
416,240,120867,1,0
256,192,120961,12,4,122555
32,64,134930,5,0
144,64,135305,1,2
224,64,135586,1,0
304,64,135867,1,0
304,232,136430,1,2
192,232,136805,1,2
248,136,137180,1,2
480,320,140930,5,0
368,320,141305,1,2
288,320,141586,1,0
208,320,141867,1,0
208,152,142430,1,2
320,152,142805,1,2
264,248,143180,1,2
264,80,143742,5,8
264,136,143930,1,8
176,208,144305,1,8
232,208,144492,1,8
288,208,144680,2,0,L|336:208,3,40,8|0|8|0
288,280,145242,6,8,L|288:320,2,40,8|4|0
232,280,145617,2,8,L|232:320,2,40,8|4|0
176,280,145992,6,8,L|176:320,2,40,8|4|0
120,280,146367,1,8
256,192,146555,12,0,147305
256,24,147492,5,0
256,80,147680,1,8
256,136,147867,2,0,B|256:312,1,160,0|0
312,296,148430,2,0,B|312:120,1,160,8|0
368,136,148992,1,0
312,136,149180,2,0,B|136:136,1,160,8|0
64,136,149930,1,8
64,248,150305,1,0
104,288,150492,1,0
144,248,150680,1,8
104,208,150867,1,0
216,208,151242,5,0
272,208,151430,1,8
328,208,151617,1,0
384,208,151805,1,0
384,152,151992,1,0
328,152,152180,1,8
272,152,152367,1,0
216,152,152555,1,4
256,192,152742,12,4,153867
256,192,155180,5,2
200,104,155367,1,0
256,192,155555,1,2
312,104,155742,1,0
256,192,155930,1,2
360,192,156117,1,0
256,192,156305,1,2
312,280,156492,1,0
256,192,156680,1,2
192,280,156867,1,0
256,192,157055,1,2
152,192,157242,1,0
256,192,157430,1,2
256,40,158555,6,0,L|176:40|176:120,1,160,4|8
232,120,159117,1,0
288,120,159305,1,0
344,120,159492,1,0
312,168,159680,1,8
344,216,159867,1,0
376,168,160055,1,0
384,312,160430,5,8
328,312,160617,1,0
272,312,160805,1,0
216,312,160992,1,0
160,312,161180,1,8
104,312,161367,1,0
48,312,161555,6,0,B|16:232|96:152,1,160,0|8
136,160,162117,1,0
192,160,162305,1,0
192,104,162492,1,0
192,48,162680,2,0,B|360:48,1,160,8|0
392,184,163430,5,8
416,232,163617,1,0
360,232,163805,1,0
384,280,163992,1,0
416,328,164180,1,8
360,328,164367,1,0
304,328,164555,6,0,L|184:328|184:288|280:288|280:248|184:248|184:160,1,480,4|8
184,104,165867,1,0
128,104,166055,1,0
72,104,166242,1,0
96,152,166430,1,8
152,152,166617,1,0
128,200,166805,1,0
240,200,167180,6,0,B|192:232|240:280,2,80,8|0|0
352,200,167930,2,0,B|400:168|352:120,2,80,8|0|0
296,200,168492,1,0
296,200,168680,1,8
256,192,168867,12,4,170555
136,96,170742,5,0
168,144,170930,1,8
192,96,171117,1,0
224,144,171305,1,0
248,96,171492,1,0
304,96,171680,1,8
360,96,171867,1,0
328,144,172055,1,0
440,144,172430,5,8
440,200,172617,1,0
440,256,172805,1,0
384,256,172992,1,0
328,256,173180,1,8
272,256,173367,1,0
216,256,173555,6,0,B|136:200,1,80,0|0
104,176,173930,1,8
120,120,174117,2,0,B|208:120,1,80,0|0
256,120,174492,1,0
312,120,174680,2,0,B|312:208,2,80,8|0|0
312,232,175430,1,8
368,232,175617,1,0
368,288,175805,1,0
424,288,175992,1,0
424,232,176180,1,8
424,176,176367,5,0
424,120,176555,1,4
312,120,176930,1,8
312,232,177305,1,0
200,232,177680,2,0,C|200:312,2,80,8|0|0
256,232,178242,1,0
256,176,178430,1,8
200,176,178617,2,0,C|120:176,1,80
120,64,179180,5,8
120,64,179367,1,0
176,64,179555,2,0,B|176:256|384:256,1,320
432,256,180492,1,0
432,200,180680,1,8
376,200,180867,1,0
256,192,181055,12,4,182555
40,128,182930,5,8
72,176,183117,1,0
104,128,183305,1,0
168,184,183586,1,0
256,184,183867,1,0
368,184,184242,1,0
392,136,184430,1,8
424,184,184617,1,0
448,136,184805,1,0
472,240,185180,1,8
312,192,185742,5,0
312,192,185930,1,2
200,192,186305,1,0
256,192,186492,1,0
256,248,186680,1,2
256,248,186867,1,0
256,136,187242,1,0
256,80,187430,1,2
256,24,187617,1,0
256,24,187805,1,0
256,136,188180,1,2
256,192,188367,5,0
200,192,188555,2,4,L|200:248|312:248,1,160,4|8
360,248,189117,5,0
416,248,189305,2,0,L|416:336,2,80,0|0|8
416,192,189867,1,0
296,144,190242,1,0
256,104,190430,1,8
216,144,190617,1,0
256,184,190805,2,0,L|256:360,1,160,0|8
256,32,191742,5,8
256,88,191930,1,8
200,192,192305,1,8
256,192,192492,1,8
312,192,192680,1,8
312,240,192867,1,8
256,352,193242,5,8
176,224,193430,1,0
256,352,193617,1,0
336,224,193805,1,0
256,32,194180,1,8
256,32,194273,1,8
256,32,194367,1,8
256,192,194555,12,4,197414
