osu file format v6

[General]
AudioFilename: Megpoid_GUMI_-_Miracle_Gumiracle.mp3
AudioLeadIn: 1500
PreviewTime: 26545
Countdown: 0
SampleSet: Normal
StackLeniency: 0.4
Mode: 0
LetterboxInBreaks: 0

[Editor]
DistanceSpacing: 0.699999988079071
BeatDivisor: 6
GridSize: 8

[Metadata]
Title:Miracle-Gumiracle
Artist:Megpoid GUMI
Creator:VanMoNky
Version:Easy
Source:Vocaloid2
Tags:Hatsune Miku Len Ren Kagamine KAITO

[Difficulty]
HPDrainRate:2
CircleSize:3
OverallDifficulty:2
SliderMultiplier:1.2
SliderTickRate:2

[Events]
//Background and Video events
0,0,"bg.jpg"
//Break Periods
2,2755,4370
2,8380,10182
2,62755,72995
2,122755,132995
2,137005,138995
2,182755,190182
//Storyboard Layer 0 (Background)
//Storyboard Layer 1 (Fail)
//Storyboard Layer 2 (Pass)
//Storyboard Layer 3 (Foreground)
//Storyboard Sound Samples
//Background Colour Transformations
3,100,163,162,255

[TimingPoints]
1055,375,4,1,0,60,1,0
5930,-100,4,2,0,60,0,0
8597,-100,4,1,0,60,0,0
8598,-100,4,1,0,60,0,1
8599,-100,4,1,0,60,0,0
38555,-100,4,1,0,60,0,1
62554,-100,4,1,0,60,0,0
98555,-100,4,1,0,60,0,1
122554,-100,4,1,0,60,0,0
134555,-100,4,2,0,60,0,0
143555,-100,4,1,0,60,0,0
158555,-100,4,1,0,60,0,1
182554,-100,4,1,0,60,0,0
194555,-100,4,1,0,30,0,0

[Colours]
Combo1 : 146,202,248
Combo2 : 57,187,73
Combo3 : 243,248,78
Combo4 : 210,3,3
Combo5 : 255,150,0

[HitObjects]
176,152,1055,2,0,B|176:224,2,60,0|8|8
256,152,1805,2,0,B|256:224,2,60,0|8|8
336,152,2555,1,4
96,144,5930,5,2
96,224,6305,2,6,B|96:272|256:272|256:224,1,180,0|2
256,144,7242,2,2,B|256:96|416:96|416:144,1,180,0|2
416,224,8180,1,2
464,352,11742,5,8
464,352,11930,1,8
464,272,12305,2,8,B|464:80,1,180
384,96,13242,2,8,B|192:96,1,180,8|0
32,96,14555,5,4
32,176,14930,2,0,B|160:176,2,120,8|0|8
32,256,16055,1,0
112,256,16430,2,0,B|112:320,2,60,8|0|0
192,256,17180,1,8
272,256,17555,5,0
352,256,17930,2,0,B|480:256,1,120,8|0
472,176,18680,2,0,B|472:112|408:112|408:176,1,120,8|0
328,168,19430,1,8
248,168,19805,1,0
80,168,20555,6,0,B|80:304,1,120,0|8
160,288,21305,1,0
160,208,21680,1,8
160,128,22055,1,0
240,128,22430,6,0,B|192:128|192:216|248:216,1,120,8|0
320,216,23180,2,0,B|368:216|368:304|312:304,1,120,8|0
240,304,23930,2,0,B|168:304,3,60,8|0|0|0
96,304,24867,6,0,B|96:120,1,180,4|0
136,128,25617,6,0,B|136:316,1,180,4|0
216,312,26555,6,0,B|216:216|376:216|376:320,1,240,4|0
456,312,27680,1,8
456,232,28055,2,0,B|328:232,3,120,0|8|0|8
336,152,29555,5,0
256,152,29930,1,8
256,232,30305,2,0,C|184:232,2,60,0|0|8
256,312,31055,5,0
176,312,31430,1,8
96,312,31805,1,0
96,232,32180,1,8
256,192,32555,12,4,33867
296,192,35180,6,2,C|416:192,2,120
256,120,36305,1,2
216,192,36680,2,2,C|96:192,2,120
256,256,37805,1,4
256,64,38555,5,0
336,64,38930,1,8
256,64,39305,1,0
176,64,39680,1,8
176,104,39867,1,8
176,144,40055,1,0
176,224,40430,6,2,B|352:240|352:104,1,240,2|8
432,112,41555,5,0
432,192,41930,1,8
432,272,42305,1,0
352,272,42680,1,8
312,272,42867,1,8
272,272,43055,1,0
192,264,43430,6,2,B|48:264|48:192|216:192,1,240,2|8
280,192,44555,6,0,B|424:192|424:120|256:120,2,240,4|8|0
280,192,46430,5,8
280,272,46805,1,0
200,272,47180,1,8
120,272,47555,2,0,B|-56:216|336:152|120:72,2,300,0|0|0
200,272,49805,1,4
200,104,50555,5,4
280,104,50930,1,8
280,184,51305,1,0
360,184,51680,1,8
400,184,51867,1,8
400,224,52055,1,0
400,304,52430,6,2,B|360:360|256:224|168:304,1,240,2|8
96,296,53555,5,0
96,216,53930,1,8
176,216,54305,1,0
256,216,54680,1,8
256,176,54867,1,8
256,136,55055,1,0
336,128,55430,6,2,L|336:24|472:24,1,240,2|8
472,104,56554,6,0,L|472:208|336:208,1,240,4|0
336,288,57680,1,8
416,288,58055,5,0
416,368,58430,1,8
336,368,58805,1,0
256,368,59180,1,8
176,368,59555,2,0,C|176:296|152:272|176:248|152:224|176:200|176:104,1,300,0|0
256,192,60867,12,4,62555
216,120,74555,5,4
256,48,74930,1,8
296,120,75305,1,0
256,192,75680,1,8
256,272,76055,1,0
256,352,76430,6,0,L|344:352,2,60,8|0|0
176,352,77180,2,0,L|176:264,2,60,8|0|0
96,352,77930,5,8
96,272,78305,1,0
96,192,78680,1,8
136,192,78867,1,0
216,192,79242,2,0,B|216:272|328:272|328:192,1,180,0|0
328,32,80555,5,4
328,112,80930,1,8
248,112,81305,1,0
168,112,81680,1,8
168,192,82055,1,0
248,192,82430,1,8
328,192,82805,1,0
328,112,83180,1,8
328,32,83555,5,0
328,32,83742,1,0
200,32,84305,1,0
200,32,84492,1,0
264,96,84867,2,4,B|152:184|368:200|256:304,1,240
264,296,86555,6,4,B|360:208|152:184|272:88,1,240,4|0
352,96,87680,1,8
424,144,88055,2,0,B|328:232|536:256|416:352,2,240,0|0|0
424,56,89930,5,8
344,56,90305,1,0
264,56,90680,1,8
264,56,90867,1,0
184,56,91242,2,0,B|104:168|176:296,1,240,0|0
176,320,92180,1,8
256,192,92555,12,4,93867
136,192,95180,6,2,C|400:192,1,240
376,272,96305,1,0
296,272,96680,2,2,C|296:8,1,240
216,32,97805,1,4
216,200,98555,5,0
216,120,98930,1,8
136,120,99305,1,0
56,120,99680,1,8
56,160,99867,1,8
56,200,100055,1,0
136,208,100430,6,2,L|136:288|56:288|56:368,1,240,2|8
136,368,101555,5,0
216,368,101930,1,8
296,368,102305,1,0
376,368,102680,1,8
376,328,102867,1,8
376,288,103055,1,0
376,208,103430,6,2,B|344:80|192:80,1,240,2|8
200,160,104555,6,0,B|200:293|368:293,1,240,4|0
448,288,105680,1,8
448,208,106055,5,0
448,128,106430,1,8
368,128,106805,1,0
288,128,107180,1,8
208,128,107555,2,0,B|152:96|80:136,1,120,0|8
96,216,108305,2,0,B|152:248|224:208,1,120,0|8
256,216,108867,1,4
472,192,110555,5,4
392,192,110930,1,8
392,272,111305,1,0
472,272,111680,1,8
472,312,111867,1,8
472,352,112055,1,0
392,352,112430,6,2,B|248:360|176:248,1,240,2|0
184,176,113555,5,0
104,176,113930,1,8
104,96,114305,1,0
184,96,114680,1,8
224,96,114867,1,0
264,96,115055,1,0
344,96,115430,6,2,B|344:248|184:248,1,240,2|8
192,160,116555,6,0,B|192:312|352:312,1,240,4|0
424,312,117680,1,8
424,232,118055,5,0
424,152,118430,1,8
424,72,118805,1,0
344,72,119180,1,8
256,192,119555,12,4,122555
144,192,134555,5,2
256,72,135305,1,2
376,192,136055,1,2
256,304,136805,1,2
168,104,140555,5,2
336,104,141305,1,2
336,272,142055,1,2
168,272,142805,1,2
256,192,143555,12,4,146180
256,352,146930,5,8
256,272,147305,1,0
256,192,147680,1,8
256,112,148055,5,0
256,32,148430,1,8
336,32,148805,1,0
336,112,149180,5,8
336,192,149555,1,0
336,272,149930,1,8
256,272,150305,5,0
176,272,150680,1,8
176,192,151055,1,0
96,192,151430,5,8
96,272,151805,1,0
96,352,152180,1,8
256,192,152555,12,4,153867
136,240,155180,6,2,L|136:104,1,120,2|2
216,120,155930,1,2
296,120,156305,1,2
376,120,156680,2,2,L|376:216|232:216,1,240,2|2
104,40,158555,5,0
184,40,158930,1,8
264,40,159305,1,0
344,40,159680,1,8
384,40,159867,1,8
424,40,160055,1,0
424,120,160430,6,2,B|352:120|352:120|304:176|256:120|256:120|184:120,1,240,2|8
200,200,161555,5,0
200,280,161930,1,8
272,240,162305,1,0
272,320,162680,1,8
312,320,162867,1,8
352,320,163055,1,0
432,320,163430,6,2,B|432:184,2,120,2|0|8
352,320,164555,6,0,B|352:72,2,240,0|8|0
272,320,166430,1,8
272,240,166805,1,0
192,240,167180,1,8
256,192,167555,12,4,169805
256,192,170555,5,4
176,192,170930,1,8
176,272,171305,1,0
256,272,171680,1,8
296,272,171867,1,8
336,272,172055,1,0
336,192,172430,6,2,L|432:192|456:144|456:48,1,240,2|8
376,56,173555,5,0
296,56,173930,1,8
216,56,174305,1,0
136,56,174680,1,8
96,56,174867,1,8
56,56,175055,1,0
56,136,175430,6,2,L|56:240|192:240,1,240,2|8
192,320,176555,6,0,L|296:320|296:64,1,360,4|8
376,64,178055,5,0
376,144,178430,1,8
376,224,178805,1,0
376,304,179180,5,8
296,304,179555,2,0,C|224:304|200:328|176:304|152:328|128:304|32:304,1,300,0|0
256,192,180867,12,4,182555
136,192,191742,5,8
136,192,191930,1,8
216,192,192305,2,8,C|216:112,2,60,8|8|8
216,232,192867,1,8
296,232,193242,6,8,C|296:304,2,60,8|0|0
296,192,193805,1,0
376,192,194180,1,8
256,192,194555,12,4,197414
