osu file format v12

[General]
AudioFilename: 1.mp3
AudioLeadIn: 0
PreviewTime: 51817
Countdown: 0
SampleSet: None
StackLeniency: 0.7
Mode: 0
LetterboxInBreaks: 1
WidescreenStoryboard: 1

[Editor]
DistanceSpacing: 1.5
BeatDivisor: 4
GridSize: 4

[Metadata]
Title:Masked bitcH (Remix)
TitleUnicode:Masked bitcH (Remix)
Artist:Megpoid GUMI
ArtistUnicode:Megpoid GUMI
Creator:safawu
Version:rythm
Source:Vocaloid
Tags:megpoid gumi vocaloid remix satuski_ga_tenkomori
BeatmapID:334824
BeatmapSetID:131761

[Difficulty]
HPDrainRate:6
CircleSize:4
OverallDifficulty:6
ApproachRate:8
SliderMultiplier:2
SliderTickRate:1

[Events]
//Background and Video events
0,0,"BG.jpg",0,0
//Break Periods
2,74046,84067
//Storyboard Layer 0 (Background)
//Storyboard Layer 1 (Fail)
//Storyboard Layer 2 (Pass)
//Storyboard Layer 3 (Foreground)
//Storyboard Sound Samples
//Background Colour Transformations
3,100,163,162,255

[TimingPoints]
8018,342.856249212981,4,1,0,70,1,0
51903,-100,4,1,0,70,0,1
73846,-100,4,1,0,70,0,0
117731,-100,4,1,0,70,0,1
139674,-66.6666666666667,4,1,0,70,0,1
161617,-100,4,1,0,70,0,0

[Colours]
Combo1 : 253,79,105
Combo2 : 146,254,118
Combo3 : 70,153,255
Combo4 : 255,225,106

[HitObjects]
200,92,6475,1,0,0:0:0:0:
200,92,6732,1,0,0:0:0:0:
200,92,6818,1,0,0:0:0:0:
200,92,6989,1,0,0:0:0:0:
200,92,7160,1,0,0:0:0:0:
200,92,7246,1,0,0:0:0:0:
200,92,7332,1,0,0:0:0:0:
200,92,7418,1,0,0:0:0:0:
200,92,7503,1,0,0:0:0:0:
200,92,7675,1,0,0:0:0:0:
200,92,7846,1,0,0:0:0:0:
320,96,8017,5,0,0:0:0:0:
320,96,8360,1,0,0:0:0:0:
320,96,8532,1,0,0:0:0:0:
320,96,8875,1,0,0:0:0:0:
320,96,9046,1,0,0:0:0:0:
320,96,9217,1,0,0:0:0:0:
320,96,9389,5,0,0:0:0:0:
320,96,9732,1,0,0:0:0:0:
320,96,9904,1,0,0:0:0:0:
320,96,10247,1,0,0:0:0:0:
320,96,10418,1,0,0:0:0:0:
320,96,10589,1,0,0:0:0:0:
320,96,10760,5,0,0:0:0:0:
320,96,11103,1,0,0:0:0:0:
320,96,11275,1,0,0:0:0:0:
320,96,11618,1,0,0:0:0:0:
320,96,11789,1,0,0:0:0:0:
320,96,11960,1,0,0:0:0:0:
320,96,12132,5,0,0:0:0:0:
320,96,12475,1,0,0:0:0:0:
320,96,12647,1,0,0:0:0:0:
320,96,12817,1,0,0:0:0:0:
320,96,12903,1,0,0:0:0:0:
320,96,12990,1,0,0:0:0:0:
320,96,13161,1,0,0:0:0:0:
320,96,13332,1,0,0:0:0:0:
208,96,13503,5,0,0:0:0:0:
208,96,13846,1,0,0:0:0:0:
208,96,14018,1,0,0:0:0:0:
208,96,14361,1,0,0:0:0:0:
208,96,14532,1,0,0:0:0:0:
208,96,14703,1,0,0:0:0:0:
208,96,14875,5,0,0:0:0:0:
208,96,15218,1,0,0:0:0:0:
208,96,15390,1,0,0:0:0:0:
208,96,15733,1,0,0:0:0:0:
208,96,15904,1,0,0:0:0:0:
208,96,16075,1,0,0:0:0:0:
208,96,16246,5,0,0:0:0:0:
208,96,16589,1,0,0:0:0:0:
208,96,16761,1,0,0:0:0:0:
208,96,17104,1,0,0:0:0:0:
208,96,17275,1,0,0:0:0:0:
208,96,17446,1,0,0:0:0:0:
208,96,17618,5,0,0:0:0:0:
208,96,17789,1,0,0:0:0:0:
208,96,17875,1,0,0:0:0:0:
208,96,17961,1,0,0:0:0:0:
208,96,18133,1,0,0:0:0:0:
208,96,18217,1,0,0:0:0:0:
208,96,18303,1,0,0:0:0:0:
208,96,18476,1,0,0:0:0:0:
208,96,18560,1,0,0:0:0:0:
208,96,18647,1,0,0:0:0:0:
208,96,18818,1,0,0:0:0:0:
364,92,18989,5,0,0:0:0:0:
364,92,19160,1,0,0:0:0:0:
364,92,19246,1,0,0:0:0:0:
364,92,19332,1,0,0:0:0:0:
364,92,19503,1,0,0:0:0:0:
364,92,19675,1,0,0:0:0:0:
364,92,19932,1,0,0:0:0:0:
364,92,20189,1,0,0:0:0:0:
364,92,20360,5,0,0:0:0:0:
364,92,20531,1,0,0:0:0:0:
364,92,20617,1,0,0:0:0:0:
364,92,20703,1,0,0:0:0:0:
364,92,20874,1,0,0:0:0:0:
364,92,21046,1,0,0:0:0:0:
364,92,21303,1,0,0:0:0:0:
364,92,21560,1,0,0:0:0:0:
364,92,21732,5,0,0:0:0:0:
364,92,21903,1,0,0:0:0:0:
364,92,21989,1,0,0:0:0:0:
364,92,22075,1,0,0:0:0:0:
364,92,22246,1,0,0:0:0:0:
364,92,22418,1,0,0:0:0:0:
364,92,22675,1,0,0:0:0:0:
364,92,22932,1,0,0:0:0:0:
364,92,23103,5,0,0:0:0:0:
364,92,23274,1,0,0:0:0:0:
364,92,23360,1,0,0:0:0:0:
364,92,23446,1,0,0:0:0:0:
364,92,23617,1,0,0:0:0:0:
364,92,23789,1,0,0:0:0:0:
364,92,24046,1,0,0:0:0:0:
364,92,24303,1,0,0:0:0:0:
364,92,24475,5,0,0:0:0:0:
364,92,24646,1,0,0:0:0:0:
364,92,24732,1,0,0:0:0:0:
364,92,24818,1,0,0:0:0:0:
364,92,24989,1,0,0:0:0:0:
364,92,25161,1,0,0:0:0:0:
364,92,25418,1,0,0:0:0:0:
364,92,25675,1,0,0:0:0:0:
364,92,25846,5,0,0:0:0:0:
364,92,26017,1,0,0:0:0:0:
364,92,26103,1,0,0:0:0:0:
364,92,26189,1,0,0:0:0:0:
364,92,26360,1,0,0:0:0:0:
364,92,26532,1,0,0:0:0:0:
364,92,26789,1,0,0:0:0:0:
364,92,27046,1,0,0:0:0:0:
364,92,27217,5,0,0:0:0:0:
364,92,27388,1,0,0:0:0:0:
364,92,27474,1,0,0:0:0:0:
364,92,27560,1,0,0:0:0:0:
364,92,27731,1,0,0:0:0:0:
364,92,27903,1,0,0:0:0:0:
364,92,28160,1,0,0:0:0:0:
364,92,28417,1,0,0:0:0:0:
364,92,28589,5,0,0:0:0:0:
364,92,28675,1,0,0:0:0:0:
364,92,28760,1,0,0:0:0:0:
364,92,29103,1,0,0:0:0:0:
364,92,29446,1,0,0:0:0:0:
364,92,29617,1,0,0:0:0:0:
216,88,29960,5,0,0:0:0:0:
216,88,30132,1,0,0:0:0:0:
216,88,30217,1,0,0:0:0:0:
216,88,30303,1,0,0:0:0:0:
216,88,30475,1,0,0:0:0:0:
216,88,30646,1,0,0:0:0:0:
216,88,30903,1,0,0:0:0:0:
216,88,30989,1,0,0:0:0:0:
216,88,31160,1,0,0:0:0:0:
216,88,31332,1,0,0:0:0:0:
216,88,31589,1,0,0:0:0:0:
216,88,31675,1,0,0:0:0:0:
216,88,31846,1,0,0:0:0:0:
216,88,32017,1,0,0:0:0:0:
216,88,32103,1,0,0:0:0:0:
216,88,32189,1,0,0:0:0:0:
216,88,32360,1,0,0:0:0:0:
216,88,32703,5,0,0:0:0:0:
216,88,32875,1,0,0:0:0:0:
216,88,32960,1,0,0:0:0:0:
216,88,33046,1,0,0:0:0:0:
216,88,33218,1,0,0:0:0:0:
216,88,33389,1,0,0:0:0:0:
216,88,33646,1,0,0:0:0:0:
216,88,33732,1,0,0:0:0:0:
216,88,33903,1,0,0:0:0:0:
216,88,34075,1,0,0:0:0:0:
216,88,34332,1,0,0:0:0:0:
216,88,34418,1,0,0:0:0:0:
216,88,34589,1,0,0:0:0:0:
216,88,34760,1,0,0:0:0:0:
216,88,34846,1,0,0:0:0:0:
216,88,34932,1,0,0:0:0:0:
216,88,35103,1,0,0:0:0:0:
216,88,35446,5,0,0:0:0:0:
216,88,35618,1,0,0:0:0:0:
216,88,35703,1,0,0:0:0:0:
216,88,35789,1,0,0:0:0:0:
216,88,35961,1,0,0:0:0:0:
216,88,36132,1,0,0:0:0:0:
216,88,36389,1,0,0:0:0:0:
216,88,36475,1,0,0:0:0:0:
216,88,36646,1,0,0:0:0:0:
216,88,36818,1,0,0:0:0:0:
216,88,37075,1,0,0:0:0:0:
216,88,37161,1,0,0:0:0:0:
216,88,37332,1,0,0:0:0:0:
216,88,37503,1,0,0:0:0:0:
216,88,37589,1,0,0:0:0:0:
216,88,37675,1,0,0:0:0:0:
216,88,37846,1,0,0:0:0:0:
216,88,38017,1,0,0:0:0:0:
216,88,38360,1,0,0:0:0:0:
216,88,38532,1,0,0:0:0:0:
216,88,38703,1,0,0:0:0:0:
216,88,39046,1,0,0:0:0:0:
216,88,39217,1,0,0:0:0:0:
216,88,39389,1,0,0:0:0:0:
216,88,39560,1,0,0:0:0:0:
216,88,39732,1,0,0:0:0:0:
216,88,39818,1,0,0:0:0:0:
216,88,39903,1,0,0:0:0:0:
216,88,40075,1,0,0:0:0:0:
216,88,40160,1,0,0:0:0:0:
216,88,40246,1,0,0:0:0:0:
216,88,40589,1,0,0:0:0:0:
216,88,40760,1,0,0:0:0:0:
216,88,40846,1,0,0:0:0:0:
216,88,40932,5,0,0:0:0:0:
216,88,41104,1,0,0:0:0:0:
216,88,41189,1,0,0:0:0:0:
216,88,41275,1,0,0:0:0:0:
216,88,41447,1,0,0:0:0:0:
216,88,41618,1,0,0:0:0:0:
216,88,41875,1,0,0:0:0:0:
216,88,41961,1,0,0:0:0:0:
216,88,42132,1,0,0:0:0:0:
216,88,42304,1,0,0:0:0:0:
216,88,42561,1,0,0:0:0:0:
216,88,42647,1,0,0:0:0:0:
216,88,42818,1,0,0:0:0:0:
216,88,42989,1,0,0:0:0:0:
216,88,43075,1,0,0:0:0:0:
216,88,43161,1,0,0:0:0:0:
216,88,43332,1,0,0:0:0:0:
216,88,43675,5,0,0:0:0:0:
216,88,43847,1,0,0:0:0:0:
216,88,43932,1,0,0:0:0:0:
216,88,44018,1,0,0:0:0:0:
216,88,44190,1,0,0:0:0:0:
216,88,44361,1,0,0:0:0:0:
216,88,44618,1,0,0:0:0:0:
216,88,44704,1,0,0:0:0:0:
216,88,44875,1,0,0:0:0:0:
216,88,45047,1,0,0:0:0:0:
216,88,45304,1,0,0:0:0:0:
216,88,45390,1,0,0:0:0:0:
216,88,45561,1,0,0:0:0:0:
216,88,45732,1,0,0:0:0:0:
216,88,45818,1,0,0:0:0:0:
216,88,45904,1,0,0:0:0:0:
216,88,46075,1,0,0:0:0:0:
216,88,46418,5,0,0:0:0:0:
216,88,46590,1,0,0:0:0:0:
216,88,46761,1,0,0:0:0:0:
216,88,46933,1,0,0:0:0:0:
216,88,47275,1,0,0:0:0:0:
216,88,47447,1,0,0:0:0:0:
216,88,47618,1,0,0:0:0:0:
216,88,47790,1,0,0:0:0:0:
216,88,47960,1,0,0:0:0:0:
216,88,48133,1,0,0:0:0:0:
216,88,48304,1,0,0:0:0:0:
216,88,48647,1,0,0:0:0:0:
216,88,48818,1,0,0:0:0:0:
216,88,48989,1,0,0:0:0:0:
216,88,49332,1,0,0:0:0:0:
216,88,49504,1,0,0:0:0:0:
216,88,49675,1,0,0:0:0:0:
216,88,50018,1,0,0:0:0:0:
216,88,50189,1,0,0:0:0:0:
216,88,50361,1,0,0:0:0:0:
256,192,50532,12,0,51732,0:0:0:0:
264,96,51903,5,0,0:0:0:0:
264,96,51989,1,0,0:0:0:0:
264,96,52075,1,0,0:0:0:0:
264,96,52246,1,0,0:0:0:0:
264,96,52417,1,0,0:0:0:0:
264,96,52589,1,0,0:0:0:0:
264,96,52846,1,0,0:0:0:0:
264,96,52932,1,0,0:0:0:0:
264,96,53103,1,0,0:0:0:0:
264,96,53446,1,0,0:0:0:0:
264,96,53789,1,0,0:0:0:0:
264,96,53960,1,0,0:0:0:0:
264,96,54046,1,0,0:0:0:0:
264,96,54132,1,0,0:0:0:0:
264,96,54303,1,0,0:0:0:0:
264,96,54475,1,0,0:0:0:0:
264,96,54646,1,0,0:0:0:0:
264,96,54817,1,0,0:0:0:0:
264,96,54989,1,0,0:0:0:0:
264,96,55160,1,0,0:0:0:0:
264,96,55332,1,0,0:0:0:0:
264,96,55417,1,0,0:0:0:0:
264,96,55503,1,0,0:0:0:0:
264,96,55675,1,0,0:0:0:0:
264,96,55846,1,0,0:0:0:0:
264,96,56189,1,0,0:0:0:0:
264,96,56360,1,0,0:0:0:0:
264,96,56532,1,0,0:0:0:0:
264,96,56703,1,0,0:0:0:0:
264,96,56789,1,0,0:0:0:0:
264,96,56875,1,0,0:0:0:0:
264,96,57046,1,0,0:0:0:0:
264,96,57217,1,0,0:0:0:0:
264,96,57389,5,0,0:0:0:0:
264,96,57475,1,0,0:0:0:0:
264,96,57561,1,0,0:0:0:0:
264,96,57732,1,0,0:0:0:0:
264,96,57903,1,0,0:0:0:0:
264,96,58075,1,0,0:0:0:0:
264,96,58332,1,0,0:0:0:0:
264,96,58418,1,0,0:0:0:0:
264,96,58589,1,0,0:0:0:0:
264,96,58932,1,0,0:0:0:0:
264,96,59275,1,0,0:0:0:0:
264,96,59446,1,0,0:0:0:0:
264,96,59532,1,0,0:0:0:0:
264,96,59618,1,0,0:0:0:0:
264,96,59789,1,0,0:0:0:0:
264,96,59961,1,0,0:0:0:0:
264,96,60132,1,0,0:0:0:0:
264,96,60303,1,0,0:0:0:0:
264,96,60475,1,0,0:0:0:0:
264,96,60646,1,0,0:0:0:0:
264,96,60818,1,0,0:0:0:0:
264,96,60989,1,0,0:0:0:0:
264,96,61161,1,0,0:0:0:0:
264,96,61332,1,0,0:0:0:0:
264,96,61417,1,0,0:0:0:0:
264,96,61503,1,0,0:0:0:0:
264,96,61675,1,0,0:0:0:0:
264,96,61761,1,0,0:0:0:0:
264,96,61847,1,0,0:0:0:0:
264,96,62018,1,0,0:0:0:0:
264,96,62104,1,0,0:0:0:0:
264,96,62190,1,0,0:0:0:0:
264,96,62361,1,0,0:0:0:0:
264,96,62447,1,0,0:0:0:0:
264,96,62533,1,0,0:0:0:0:
264,96,62704,1,0,0:0:0:0:
264,96,62874,5,0,0:0:0:0:
264,96,62960,1,0,0:0:0:0:
264,96,63046,1,0,0:0:0:0:
264,96,63217,1,0,0:0:0:0:
264,96,63388,1,0,0:0:0:0:
264,96,63560,1,0,0:0:0:0:
264,96,63817,1,0,0:0:0:0:
264,96,63903,1,0,0:0:0:0:
264,96,64074,1,0,0:0:0:0:
264,96,64417,1,0,0:0:0:0:
264,96,64760,1,0,0:0:0:0:
264,96,64931,1,0,0:0:0:0:
264,96,65017,1,0,0:0:0:0:
264,96,65103,1,0,0:0:0:0:
264,96,65274,1,0,0:0:0:0:
264,96,65446,1,0,0:0:0:0:
264,96,65617,1,0,0:0:0:0:
264,96,65788,1,0,0:0:0:0:
264,96,65960,1,0,0:0:0:0:
264,96,66131,1,0,0:0:0:0:
264,96,66303,1,0,0:0:0:0:
264,96,66388,1,0,0:0:0:0:
264,96,66474,1,0,0:0:0:0:
264,96,66646,1,0,0:0:0:0:
264,96,66817,1,0,0:0:0:0:
264,96,67160,1,0,0:0:0:0:
264,96,67331,1,0,0:0:0:0:
264,96,67503,1,0,0:0:0:0:
264,96,67674,1,0,0:0:0:0:
264,96,67760,1,0,0:0:0:0:
264,96,67846,1,0,0:0:0:0:
264,96,67932,1,0,0:0:0:0:
264,96,68017,1,0,0:0:0:0:
264,96,68189,1,0,0:0:0:0:
264,96,68360,5,0,0:0:0:0:
264,96,68446,1,0,0:0:0:0:
264,96,68532,1,0,0:0:0:0:
264,96,68703,1,0,0:0:0:0:
264,96,68874,1,0,0:0:0:0:
264,96,69046,1,0,0:0:0:0:
264,96,69303,1,0,0:0:0:0:
264,96,69389,1,0,0:0:0:0:
264,96,69560,1,0,0:0:0:0:
264,96,69903,1,0,0:0:0:0:
264,96,70246,1,0,0:0:0:0:
264,96,70417,1,0,0:0:0:0:
264,96,70503,1,0,0:0:0:0:
264,96,70589,1,0,0:0:0:0:
264,96,70760,1,0,0:0:0:0:
264,96,70932,1,0,0:0:0:0:
264,96,71103,1,0,0:0:0:0:
264,96,71274,1,0,0:0:0:0:
264,96,71446,1,0,0:0:0:0:
264,96,71617,1,0,0:0:0:0:
264,96,71789,1,0,0:0:0:0:
264,96,71960,1,0,0:0:0:0:
264,96,72132,1,0,0:0:0:0:
264,96,72303,1,0,0:0:0:0:
264,96,72389,1,0,0:0:0:0:
264,96,72474,1,0,0:0:0:0:
264,96,72646,1,0,0:0:0:0:
264,96,72732,1,0,0:0:0:0:
264,96,72818,1,0,0:0:0:0:
264,96,72989,1,0,0:0:0:0:
264,96,73075,1,0,0:0:0:0:
264,96,73161,1,0,0:0:0:0:
264,96,73332,1,0,0:0:0:0:
264,96,73418,1,0,0:0:0:0:
264,96,73504,1,0,0:0:0:0:
264,96,73675,1,0,0:0:0:0:
264,96,73846,1,0,0:0:0:0:
224,112,84817,5,0,0:0:0:0:
224,112,84989,1,0,0:0:0:0:
224,112,85160,1,0,0:0:0:0:
224,112,85332,1,0,0:0:0:0:
224,112,85503,1,0,0:0:0:0:
224,112,85760,1,0,0:0:0:0:
224,112,85846,1,0,0:0:0:0:
224,112,86017,1,0,0:0:0:0:
224,112,86189,5,0,0:0:0:0:
224,112,86361,1,0,0:0:0:0:
224,112,86532,1,0,0:0:0:0:
224,112,86704,1,0,0:0:0:0:
224,112,86875,1,0,0:0:0:0:
224,112,87132,1,0,0:0:0:0:
224,112,87218,1,0,0:0:0:0:
224,112,87389,1,0,0:0:0:0:
224,112,87560,5,0,0:0:0:0:
224,112,87732,1,0,0:0:0:0:
224,112,87903,1,0,0:0:0:0:
224,112,88075,1,0,0:0:0:0:
224,112,88246,1,0,0:0:0:0:
224,112,88503,1,0,0:0:0:0:
224,112,88589,1,0,0:0:0:0:
224,112,88760,1,0,0:0:0:0:
224,112,88932,5,0,0:0:0:0:
224,112,89104,1,0,0:0:0:0:
224,112,89275,1,0,0:0:0:0:
224,112,89447,1,0,0:0:0:0:
224,112,89618,1,0,0:0:0:0:
224,112,89875,1,0,0:0:0:0:
224,112,89961,1,0,0:0:0:0:
224,112,90132,1,0,0:0:0:0:
224,112,90303,5,0,0:0:0:0:
224,112,90475,1,0,0:0:0:0:
224,112,90646,1,0,0:0:0:0:
224,112,90818,1,0,0:0:0:0:
224,112,90989,1,0,0:0:0:0:
224,112,91246,1,0,0:0:0:0:
224,112,91332,1,0,0:0:0:0:
224,112,91503,1,0,0:0:0:0:
224,112,91674,5,0,0:0:0:0:
224,112,91846,1,0,0:0:0:0:
224,112,92017,1,0,0:0:0:0:
224,112,92189,1,0,0:0:0:0:
224,112,92360,1,0,0:0:0:0:
224,112,92617,1,0,0:0:0:0:
224,112,92703,1,0,0:0:0:0:
224,112,92874,1,0,0:0:0:0:
224,112,93046,5,0,0:0:0:0:
224,112,93218,1,0,0:0:0:0:
224,112,93389,1,0,0:0:0:0:
224,112,93561,1,0,0:0:0:0:
224,112,93732,1,0,0:0:0:0:
224,112,93989,1,0,0:0:0:0:
224,112,94075,1,0,0:0:0:0:
224,112,94246,1,0,0:0:0:0:
224,112,94417,5,0,0:0:0:0:
224,112,94503,1,0,0:0:0:0:
224,112,94589,1,0,0:0:0:0:
224,112,94760,1,0,0:0:0:0:
224,112,94932,1,0,0:0:0:0:
224,112,95103,1,0,0:0:0:0:
224,112,95446,1,0,0:0:0:0:
368,112,95789,5,0,0:0:0:0:
368,112,96132,1,0,0:0:0:0:
368,112,96303,1,0,0:0:0:0:
368,112,96474,1,0,0:0:0:0:
368,112,96817,1,0,0:0:0:0:
368,112,96989,1,0,0:0:0:0:
368,112,97160,1,0,0:0:0:0:
368,112,97503,1,0,0:0:0:0:
368,112,97674,1,0,0:0:0:0:
368,112,97846,1,0,0:0:0:0:
368,112,97932,1,0,0:0:0:0:
368,112,98017,1,0,0:0:0:0:
368,112,98189,1,0,0:0:0:0:
368,112,98532,5,0,0:0:0:0:
368,112,98875,1,0,0:0:0:0:
368,112,99046,1,0,0:0:0:0:
368,112,99217,1,0,0:0:0:0:
368,112,99560,1,0,0:0:0:0:
368,112,99732,1,0,0:0:0:0:
368,112,99903,1,0,0:0:0:0:
368,112,100246,1,0,0:0:0:0:
368,112,100417,1,0,0:0:0:0:
368,112,100589,1,0,0:0:0:0:
368,112,100675,1,0,0:0:0:0:
368,112,100760,1,0,0:0:0:0:
368,112,100932,1,0,0:0:0:0:
368,112,101017,1,0,0:0:0:0:
368,112,101103,1,0,0:0:0:0:
368,112,101274,5,0,0:0:0:0:
368,112,101617,1,0,0:0:0:0:
368,112,101788,1,0,0:0:0:0:
368,112,101959,1,0,0:0:0:0:
368,112,102302,1,0,0:0:0:0:
368,112,102474,1,0,0:0:0:0:
368,112,102645,1,0,0:0:0:0:
368,112,102988,1,0,0:0:0:0:
368,112,103159,1,0,0:0:0:0:
368,112,103331,1,0,0:0:0:0:
368,112,103417,1,0,0:0:0:0:
368,112,103502,1,0,0:0:0:0:
368,112,103674,1,0,0:0:0:0:
368,112,103846,1,0,0:0:0:0:
368,112,104189,1,0,0:0:0:0:
368,112,104360,1,0,0:0:0:0:
368,112,104532,1,0,0:0:0:0:
368,112,104874,1,0,0:0:0:0:
368,112,105046,1,0,0:0:0:0:
368,112,105217,1,0,0:0:0:0:
368,112,105560,1,0,0:0:0:0:
368,112,105732,1,0,0:0:0:0:
368,112,105903,1,0,0:0:0:0:
368,112,106074,1,0,0:0:0:0:
368,112,106246,1,0,0:0:0:0:
368,112,106332,1,0,0:0:0:0:
368,112,106417,1,0,0:0:0:0:
368,112,106589,1,0,0:0:0:0:
368,112,106674,1,0,0:0:0:0:
368,112,106760,1,0,0:0:0:0:
368,112,107103,5,0,0:0:0:0:
368,112,107274,1,0,0:0:0:0:
368,112,107445,1,0,0:0:0:0:
368,112,107788,1,0,0:0:0:0:
368,112,107960,1,0,0:0:0:0:
368,112,108131,1,0,0:0:0:0:
368,112,108474,1,0,0:0:0:0:
368,112,108645,1,0,0:0:0:0:
368,112,108817,1,0,0:0:0:0:
368,112,108903,1,0,0:0:0:0:
368,112,108988,1,0,0:0:0:0:
368,112,109160,1,0,0:0:0:0:
368,112,109503,5,0,0:0:0:0:
368,112,109846,1,0,0:0:0:0:
368,112,110017,1,0,0:0:0:0:
368,112,110188,1,0,0:0:0:0:
368,112,110531,1,0,0:0:0:0:
368,112,110703,1,0,0:0:0:0:
368,112,110874,1,0,0:0:0:0:
368,112,111217,1,0,0:0:0:0:
368,112,111388,1,0,0:0:0:0:
368,112,111560,1,0,0:0:0:0:
368,112,111646,1,0,0:0:0:0:
368,112,111731,1,0,0:0:0:0:
368,112,111903,1,0,0:0:0:0:
368,112,111988,1,0,0:0:0:0:
368,112,112074,1,0,0:0:0:0:
368,112,112245,5,0,0:0:0:0:
368,112,112588,1,0,0:0:0:0:
368,112,112759,1,0,0:0:0:0:
368,112,113103,1,0,0:0:0:0:
368,112,113273,1,0,0:0:0:0:
368,112,113445,1,0,0:0:0:0:
368,112,113616,1,0,0:0:0:0:
368,112,113959,1,0,0:0:0:0:
368,112,114130,1,0,0:0:0:0:
368,112,114474,1,0,0:0:0:0:
368,112,114645,1,0,0:0:0:0:
368,112,114817,1,0,0:0:0:0:
368,112,114989,1,0,0:0:0:0:
368,112,115331,1,0,0:0:0:0:
368,112,115503,1,0,0:0:0:0:
368,112,115845,1,0,0:0:0:0:
368,112,116017,1,0,0:0:0:0:
368,112,116188,1,0,0:0:0:0:
368,112,116360,1,0,0:0:0:0:
368,112,116446,1,0,0:0:0:0:
368,112,116531,1,0,0:0:0:0:
256,192,116703,12,0,117560,0:0:0:0:
264,96,117731,5,0,0:0:0:0:
264,96,117817,1,0,0:0:0:0:
264,96,117903,1,0,0:0:0:0:
264,96,118074,1,0,0:0:0:0:
264,96,118245,1,0,0:0:0:0:
264,96,118417,1,0,0:0:0:0:
264,96,118674,1,0,0:0:0:0:
264,96,118760,1,0,0:0:0:0:
264,96,118931,1,0,0:0:0:0:
264,96,119274,1,0,0:0:0:0:
264,96,119617,1,0,0:0:0:0:
264,96,119788,1,0,0:0:0:0:
264,96,119874,1,0,0:0:0:0:
264,96,119960,1,0,0:0:0:0:
264,96,120131,1,0,0:0:0:0:
264,96,120303,1,0,0:0:0:0:
264,96,120474,1,0,0:0:0:0:
264,96,120645,1,0,0:0:0:0:
264,96,120817,1,0,0:0:0:0:
264,96,120988,1,0,0:0:0:0:
264,96,121160,1,0,0:0:0:0:
264,96,121245,1,0,0:0:0:0:
264,96,121331,1,0,0:0:0:0:
264,96,121503,1,0,0:0:0:0:
264,96,121674,1,0,0:0:0:0:
264,96,122017,1,0,0:0:0:0:
264,96,122188,1,0,0:0:0:0:
264,96,122360,1,0,0:0:0:0:
264,96,122531,1,0,0:0:0:0:
264,96,122617,1,0,0:0:0:0:
264,96,122703,1,0,0:0:0:0:
264,96,122874,1,0,0:0:0:0:
264,96,123046,1,0,0:0:0:0:
264,96,123217,5,0,0:0:0:0:
264,96,123303,1,0,0:0:0:0:
264,96,123389,1,0,0:0:0:0:
264,96,123560,1,0,0:0:0:0:
264,96,123731,1,0,0:0:0:0:
264,96,123903,1,0,0:0:0:0:
264,96,124160,1,0,0:0:0:0:
264,96,124246,1,0,0:0:0:0:
264,96,124417,1,0,0:0:0:0:
264,96,124760,1,0,0:0:0:0:
264,96,125103,1,0,0:0:0:0:
264,96,125274,1,0,0:0:0:0:
264,96,125360,1,0,0:0:0:0:
264,96,125446,1,0,0:0:0:0:
264,96,125617,1,0,0:0:0:0:
264,96,125789,1,0,0:0:0:0:
264,96,125960,1,0,0:0:0:0:
264,96,126131,1,0,0:0:0:0:
264,96,126303,1,0,0:0:0:0:
264,96,126474,1,0,0:0:0:0:
264,96,126646,1,0,0:0:0:0:
264,96,126817,1,0,0:0:0:0:
264,96,126989,1,0,0:0:0:0:
264,96,127160,1,0,0:0:0:0:
264,96,127246,1,0,0:0:0:0:
264,96,127331,1,0,0:0:0:0:
264,96,127503,1,0,0:0:0:0:
264,96,127589,1,0,0:0:0:0:
264,96,127675,1,0,0:0:0:0:
264,96,127846,1,0,0:0:0:0:
264,96,127932,1,0,0:0:0:0:
264,96,128018,1,0,0:0:0:0:
264,96,128189,1,0,0:0:0:0:
264,96,128275,1,0,0:0:0:0:
264,96,128361,1,0,0:0:0:0:
264,96,128532,1,0,0:0:0:0:
264,96,128702,5,0,0:0:0:0:
264,96,128788,1,0,0:0:0:0:
264,96,128874,1,0,0:0:0:0:
264,96,129045,1,0,0:0:0:0:
264,96,129216,1,0,0:0:0:0:
264,96,129388,1,0,0:0:0:0:
264,96,129645,1,0,0:0:0:0:
264,96,129731,1,0,0:0:0:0:
264,96,129902,1,0,0:0:0:0:
264,96,130245,1,0,0:0:0:0:
264,96,130588,1,0,0:0:0:0:
264,96,130759,1,0,0:0:0:0:
264,96,130845,1,0,0:0:0:0:
264,96,130931,1,0,0:0:0:0:
264,96,131102,1,0,0:0:0:0:
264,96,131274,1,0,0:0:0:0:
264,96,131445,1,0,0:0:0:0:
264,96,131616,1,0,0:0:0:0:
264,96,131788,1,0,0:0:0:0:
264,96,131959,1,0,0:0:0:0:
264,96,132131,1,0,0:0:0:0:
264,96,132216,1,0,0:0:0:0:
264,96,132302,1,0,0:0:0:0:
264,96,132474,1,0,0:0:0:0:
264,96,132645,1,0,0:0:0:0:
264,96,132988,1,0,0:0:0:0:
264,96,133159,1,0,0:0:0:0:
264,96,133331,1,0,0:0:0:0:
264,96,133502,1,0,0:0:0:0:
264,96,133588,1,0,0:0:0:0:
264,96,133674,1,0,0:0:0:0:
264,96,133845,1,0,0:0:0:0:
264,96,134017,1,0,0:0:0:0:
264,96,134188,5,0,0:0:0:0:
264,96,134274,1,0,0:0:0:0:
264,96,134360,1,0,0:0:0:0:
264,96,134531,1,0,0:0:0:0:
264,96,134702,1,0,0:0:0:0:
264,96,134874,1,0,0:0:0:0:
264,96,135131,1,0,0:0:0:0:
264,96,135217,1,0,0:0:0:0:
264,96,135388,1,0,0:0:0:0:
264,96,135731,1,0,0:0:0:0:
264,96,136074,1,0,0:0:0:0:
264,96,136245,1,0,0:0:0:0:
264,96,136331,1,0,0:0:0:0:
264,96,136417,1,0,0:0:0:0:
264,96,136588,1,0,0:0:0:0:
264,96,136760,1,0,0:0:0:0:
264,96,136931,1,0,0:0:0:0:
264,96,137102,1,0,0:0:0:0:
264,96,137274,1,0,0:0:0:0:
264,96,137445,1,0,0:0:0:0:
264,96,137617,1,0,0:0:0:0:
264,96,137788,1,0,0:0:0:0:
264,96,137960,1,0,0:0:0:0:
264,96,138131,1,0,0:0:0:0:
264,96,138217,1,0,0:0:0:0:
264,96,138302,1,0,0:0:0:0:
264,96,138474,1,0,0:0:0:0:
264,96,138560,1,0,0:0:0:0:
264,96,138646,1,0,0:0:0:0:
264,96,138817,1,0,0:0:0:0:
264,96,138903,1,0,0:0:0:0:
264,96,138989,1,0,0:0:0:0:
264,96,139160,1,0,0:0:0:0:
264,96,139246,1,0,0:0:0:0:
264,96,139332,1,0,0:0:0:0:
264,96,139503,1,0,0:0:0:0:
264,96,139674,5,0,0:0:0:0:
264,96,139760,1,0,0:0:0:0:
264,96,139846,1,0,0:0:0:0:
264,96,140017,1,0,0:0:0:0:
264,96,140188,1,0,0:0:0:0:
264,96,140360,1,0,0:0:0:0:
264,96,140703,1,0,0:0:0:0:
264,96,140874,1,0,0:0:0:0:
264,96,141046,1,0,0:0:0:0:
264,96,141217,1,0,0:0:0:0:
264,96,141389,1,0,0:0:0:0:
264,96,141560,1,0,0:0:0:0:
264,96,141731,1,0,0:0:0:0:
264,96,141817,1,0,0:0:0:0:
264,96,141903,1,0,0:0:0:0:
264,96,142074,1,0,0:0:0:0:
264,96,142246,1,0,0:0:0:0:
264,96,142417,1,0,0:0:0:0:
264,96,142503,1,0,0:0:0:0:
264,96,142588,1,0,0:0:0:0:
264,96,142760,1,0,0:0:0:0:
264,96,142931,1,0,0:0:0:0:
264,96,143103,1,0,0:0:0:0:
264,96,143189,1,0,0:0:0:0:
264,96,143274,1,0,0:0:0:0:
264,96,143446,1,0,0:0:0:0:
264,96,143617,1,0,0:0:0:0:
264,96,143960,1,0,0:0:0:0:
264,96,144131,1,0,0:0:0:0:
264,96,144303,1,0,0:0:0:0:
264,96,144474,1,0,0:0:0:0:
264,96,144560,1,0,0:0:0:0:
264,96,144646,1,0,0:0:0:0:
264,96,144731,1,0,0:0:0:0:
264,96,144817,1,0,0:0:0:0:
264,96,144989,1,0,0:0:0:0:
264,96,145160,5,0,0:0:0:0:
264,96,145246,1,0,0:0:0:0:
264,96,145332,1,0,0:0:0:0:
264,96,145503,1,0,0:0:0:0:
264,96,145674,1,0,0:0:0:0:
264,96,145846,1,0,0:0:0:0:
264,96,146189,1,0,0:0:0:0:
264,96,146360,1,0,0:0:0:0:
264,96,146531,1,0,0:0:0:0:
264,96,146703,1,0,0:0:0:0:
264,96,146874,1,0,0:0:0:0:
264,96,147046,1,0,0:0:0:0:
264,96,147217,1,0,0:0:0:0:
264,96,147303,1,0,0:0:0:0:
264,96,147389,1,0,0:0:0:0:
264,96,147560,1,0,0:0:0:0:
264,96,147732,1,0,0:0:0:0:
264,96,147903,1,0,0:0:0:0:
264,96,148074,1,0,0:0:0:0:
264,96,148246,1,0,0:0:0:0:
264,96,148417,1,0,0:0:0:0:
264,96,148589,1,0,0:0:0:0:
264,96,148760,1,0,0:0:0:0:
264,96,148932,1,0,0:0:0:0:
264,96,149103,1,0,0:0:0:0:
264,96,149189,1,0,0:0:0:0:
264,96,149274,1,0,0:0:0:0:
264,96,149446,1,0,0:0:0:0:
264,96,149531,1,0,0:0:0:0:
264,96,149617,1,0,0:0:0:0:
264,96,149789,1,0,0:0:0:0:
264,96,149875,1,0,0:0:0:0:
264,96,149961,1,0,0:0:0:0:
264,96,150132,1,0,0:0:0:0:
264,96,150218,1,0,0:0:0:0:
264,96,150304,1,0,0:0:0:0:
264,96,150475,1,0,0:0:0:0:
264,96,150645,5,0,0:0:0:0:
264,96,150817,1,0,0:0:0:0:
264,96,150988,1,0,0:0:0:0:
264,96,151159,1,0,0:0:0:0:
264,96,151331,1,0,0:0:0:0:
264,96,151674,1,0,0:0:0:0:
264,96,151845,1,0,0:0:0:0:
264,96,152017,1,0,0:0:0:0:
264,96,152188,1,0,0:0:0:0:
264,96,152360,1,0,0:0:0:0:
264,96,152531,1,0,0:0:0:0:
264,96,152702,1,0,0:0:0:0:
264,96,152788,1,0,0:0:0:0:
264,96,152874,1,0,0:0:0:0:
264,96,153045,1,0,0:0:0:0:
264,96,153217,1,0,0:0:0:0:
264,96,153388,1,0,0:0:0:0:
264,96,153474,1,0,0:0:0:0:
264,96,153559,1,0,0:0:0:0:
264,96,153731,1,0,0:0:0:0:
264,96,153902,1,0,0:0:0:0:
264,96,154074,1,0,0:0:0:0:
264,96,154159,1,0,0:0:0:0:
264,96,154245,1,0,0:0:0:0:
264,96,154417,1,0,0:0:0:0:
264,96,154588,1,0,0:0:0:0:
264,96,154931,1,0,0:0:0:0:
264,96,155102,1,0,0:0:0:0:
264,96,155274,1,0,0:0:0:0:
264,96,155445,1,0,0:0:0:0:
264,96,155531,1,0,0:0:0:0:
264,96,155617,1,0,0:0:0:0:
264,96,155703,1,0,0:0:0:0:
264,96,155788,1,0,0:0:0:0:
264,96,155960,1,0,0:0:0:0:
264,96,156131,5,0,0:0:0:0:
264,96,156303,1,0,0:0:0:0:
264,96,156474,1,0,0:0:0:0:
264,96,156560,1,0,0:0:0:0:
264,96,156645,1,0,0:0:0:0:
264,96,156817,1,0,0:0:0:0:
264,96,157160,1,0,0:0:0:0:
264,96,157331,1,0,0:0:0:0:
264,96,157503,1,0,0:0:0:0:
264,96,157674,1,0,0:0:0:0:
264,96,158017,1,0,0:0:0:0:
264,96,158188,1,0,0:0:0:0:
264,96,158274,1,0,0:0:0:0:
264,96,158360,1,0,0:0:0:0:
264,96,158531,1,0,0:0:0:0:
264,96,158703,1,0,0:0:0:0:
264,96,158874,1,0,0:0:0:0:
264,96,159045,1,0,0:0:0:0:
264,96,159217,1,0,0:0:0:0:
264,96,159388,1,0,0:0:0:0:
264,96,159560,1,0,0:0:0:0:
264,96,159731,1,0,0:0:0:0:
264,96,159903,1,0,0:0:0:0:
264,96,160074,1,0,0:0:0:0:
264,96,160245,1,0,0:0:0:0:
264,96,160417,1,0,0:0:0:0:
264,96,160503,1,0,0:0:0:0:
264,96,160589,1,0,0:0:0:0:
264,96,160760,1,0,0:0:0:0:
264,96,160846,1,0,0:0:0:0:
264,96,160932,1,0,0:0:0:0:
264,96,161103,1,0,0:0:0:0:
264,96,161189,1,0,0:0:0:0:
264,96,161275,1,0,0:0:0:0:
264,96,161446,1,0,0:0:0:0:
264,96,161531,1,0,0:0:0:0:
264,96,161617,1,0,0:0:0:0:
