osu file format v12

[General]
AudioFilename: 1.mp3
AudioLeadIn: 0
PreviewTime: 51817
Countdown: 0
SampleSet: None
StackLeniency: 0.7
Mode: 1
LetterboxInBreaks: 1
WidescreenStoryboard: 1

[Editor]
DistanceSpacing: 1.3
BeatDivisor: 4
GridSize: 32
TimelineZoom: 2.4

[Metadata]
Title:Masked bitcH (Remix)
TitleUnicode:Masked bitcH (Remix)
Artist:Megpoid GUMI
ArtistUnicode:Megpoid GUMI
Creator:safawu
Version:Kanako
Source:Vocaloid
Tags:megpoid gumi vocaloid remix satuski_ga_tenkomori
BeatmapID:412322
BeatmapSetID:131761

[Difficulty]
HPDrainRate:5
CircleSize:5
OverallDifficulty:5
ApproachRate:5
SliderMultiplier:1.5
SliderTickRate:1

[Events]
//Background and Video events
0,0,"BG.jpg",0,0
//Break Periods
//Storyboard Layer 0 (Background)
//Storyboard Layer 1 (Fail)
//Storyboard Layer 2 (Pass)
//Storyboard Layer 3 (Foreground)
//Storyboard Sound Samples
//Background Colour Transformations
3,100,163,162,255

[TimingPoints]
8018,342.856249212981,4,1,0,70,1,0
51903,-100,4,1,0,70,0,1
73846,-100,4,1,0,70,0,0
95789,-200,4,1,0,70,0,0
112417,-149.253731343284,4,1,0,70,0,0
114989,-120.481927710843,4,1,0,70,0,0
117731,-100,4,1,0,70,0,1
139674,-83.3333333333333,4,1,0,70,0,1
161617,-83.3333333333333,4,1,0,70,0,0
161703,-100,4,1,0,70,0,0

[Colours]
Combo1 : 253,79,105
Combo2 : 146,254,118
Combo3 : 70,153,255
Combo4 : 255,225,106

[HitObjects]
256,192,6475,5,8,0:0:0:0:
256,192,6818,1,8,0:0:0:0:
256,192,6989,1,8,0:0:0:0:
256,192,7160,1,8,0:0:0:0:
256,160,7332,5,8,0:0:0:0:
256,160,7418,1,8,0:0:0:0:
256,160,7503,1,8,0:0:0:0:
256,160,7589,1,8,0:0:0:0:
256,160,7675,1,0,0:0:0:0:
256,160,7760,1,0,0:0:0:0:
256,160,7846,1,0,0:0:0:0:
256,160,7932,1,0,0:0:0:0:
256,160,8017,1,0,0:0:0:0:
256,160,8189,1,0,0:0:0:0:
256,160,8360,1,8,0:0:0:0:
256,160,8532,1,0,0:0:0:0:
256,160,8875,1,0,0:0:0:0:
256,160,9046,1,8,0:0:0:0:
256,160,9217,1,0,0:0:0:0:
256,160,9389,1,0,0:0:0:0:
256,160,9560,1,0,0:0:0:0:
256,160,9732,1,8,0:0:0:0:
256,160,9903,1,0,0:0:0:0:
256,160,10246,1,0,0:0:0:0:
256,160,10417,1,8,0:0:0:0:
256,160,10589,1,0,0:0:0:0:
256,160,10760,1,0,0:0:0:0:
256,160,10932,1,0,0:0:0:0:
256,160,11103,1,8,0:0:0:0:
256,160,11189,1,8,0:0:0:0:
256,160,11275,1,8,0:0:0:0:
256,160,11446,1,0,0:0:0:0:
256,160,11617,1,0,0:0:0:0:
256,160,11789,1,8,0:0:0:0:
256,160,11960,1,8,0:0:0:0:
256,160,12132,1,0,0:0:0:0:
256,160,12303,1,0,0:0:0:0:
256,160,12475,1,8,0:0:0:0:
256,160,12560,1,8,0:0:0:0:
256,160,12646,1,8,0:0:0:0:
256,160,12817,1,0,0:0:0:0:
256,160,12903,1,0,0:0:0:0:
256,160,12989,1,0,0:0:0:0:
256,160,13160,1,8,0:0:0:0:
256,160,13332,1,0,0:0:0:0:
256,160,13503,1,0,0:0:0:0:
256,160,13675,1,0,0:0:0:0:
256,160,13846,1,8,0:0:0:0:
256,160,14017,1,0,0:0:0:0:
256,160,14360,1,0,0:0:0:0:
256,160,14532,1,8,0:0:0:0:
256,160,14703,1,0,0:0:0:0:
256,160,14875,1,0,0:0:0:0:
256,160,15046,1,0,0:0:0:0:
256,160,15217,1,8,0:0:0:0:
256,160,15303,1,8,0:0:0:0:
256,160,15389,1,8,0:0:0:0:
256,160,15560,1,0,0:0:0:0:
256,160,15646,1,0,0:0:0:0:
256,160,15732,1,0,0:0:0:0:
256,160,15903,1,8,0:0:0:0:
256,160,16075,1,0,0:0:0:0:
256,160,16246,1,0,0:0:0:0:
256,160,16417,1,0,0:0:0:0:
256,160,16589,1,8,0:0:0:0:
256,160,16675,1,0,0:0:0:0:
256,160,16760,1,0,0:0:0:0:
256,160,16932,1,8,0:0:0:0:
256,160,17017,1,0,0:0:0:0:
256,160,17103,1,0,0:0:0:0:
256,160,17275,1,8,0:0:0:0:
256,160,17446,1,0,0:0:0:0:
256,160,17617,1,8,0:0:0:0:
256,160,17789,1,0,0:0:0:0:
256,160,17875,1,0,0:0:0:0:
256,160,17960,1,8,0:0:0:0:
256,160,18132,1,0,0:0:0:0:
256,160,18217,1,0,0:0:0:0:
256,160,18303,1,8,0:0:0:0:
256,160,18475,1,0,0:0:0:0:
256,160,18560,1,0,0:0:0:0:
256,160,18646,1,8,0:0:0:0:
256,160,18732,1,8,0:0:0:0:
256,160,18817,1,0,0:0:0:0:
256,160,18903,1,0,0:0:0:0:
256,160,18989,1,8,0:0:0:0:
256,160,19160,1,0,0:0:0:0:
256,160,19332,1,8,0:0:0:0:
256,160,19503,1,0,0:0:0:0:
256,160,19675,1,0,0:0:0:0:
256,160,19932,1,0,0:0:0:0:
256,160,20189,1,0,0:0:0:0:
256,160,20360,1,0,0:0:0:0:
256,160,20532,1,8,0:0:0:0:
256,160,20703,1,8,0:0:0:0:
256,160,20875,1,0,0:0:0:0:
256,160,21046,1,0,0:0:0:0:
256,160,21303,1,0,0:0:0:0:
256,160,21560,1,0,0:0:0:0:
256,160,21732,1,0,0:0:0:0:
256,160,21903,1,8,0:0:0:0:
256,160,22075,1,8,0:0:0:0:
256,160,22246,1,0,0:0:0:0:
256,160,22417,1,0,0:0:0:0:
256,160,22675,1,0,0:0:0:0:
256,160,22932,1,0,0:0:0:0:
256,160,23103,1,0,0:0:0:0:
256,160,23275,1,8,0:0:0:0:
256,160,23446,1,8,0:0:0:0:
256,160,23617,1,0,0:0:0:0:
256,160,23789,1,0,0:0:0:0:
256,160,23875,1,0,0:0:0:0:
256,160,23960,1,0,0:0:0:0:
256,160,24132,1,8,0:0:0:0:
256,160,24303,1,0,0:0:0:0:
256,160,24475,1,0,0:0:0:0:
256,160,24646,1,8,0:0:0:0:
256,160,24817,1,8,0:0:0:0:
256,160,24989,1,0,0:0:0:0:
256,160,25160,1,0,0:0:0:0:
256,160,25417,1,0,0:0:0:0:
256,160,25675,1,0,0:0:0:0:
256,160,25846,1,0,0:0:0:0:
256,160,26017,1,8,0:0:0:0:
256,160,26189,1,8,0:0:0:0:
256,160,26360,1,0,0:0:0:0:
256,160,26532,1,0,0:0:0:0:
256,160,26789,1,0,0:0:0:0:
256,160,27046,1,0,0:0:0:0:
256,160,27217,1,0,0:0:0:0:
256,160,27389,1,8,0:0:0:0:
256,160,27560,1,8,0:0:0:0:
256,160,27732,1,0,0:0:0:0:
256,160,27903,1,0,0:0:0:0:
256,160,28160,1,0,0:0:0:0:
256,160,28417,1,0,0:0:0:0:
256,160,28589,1,0,0:0:0:0:
256,160,28675,1,0,0:0:0:0:
256,160,28760,1,0,0:0:0:0:
256,160,28932,1,8,0:0:0:0:
256,160,29103,1,4,0:0:0:0:
256,160,30132,1,0,0:0:0:0:
256,160,30303,1,8,0:0:0:0:
256,160,30475,1,0,0:0:0:0:
256,160,30646,1,0,0:0:0:0:
256,160,30732,1,0,0:0:0:0:
256,160,30903,1,0,0:0:0:0:
256,160,30989,1,8,0:0:0:0:
256,160,31160,1,0,0:0:0:0:
256,160,31332,1,0,0:0:0:0:
256,160,31417,1,0,0:0:0:0:
256,160,31503,1,0,0:0:0:0:
256,160,31675,1,8,0:0:0:0:
256,160,31846,1,0,0:0:0:0:
256,160,31932,1,0,0:0:0:0:
256,160,32017,1,8,0:0:0:0:
256,160,32189,1,0,0:0:0:0:
256,160,32360,1,8,0:0:0:0:
256,160,32532,1,0,0:0:0:0:
256,160,32703,1,0,0:0:0:0:
256,160,32875,1,0,0:0:0:0:
256,160,32960,1,0,0:0:0:0:
256,160,33046,1,8,0:0:0:0:
256,160,33217,1,0,0:0:0:0:
256,160,33389,1,8,0:0:0:0:
256,160,33560,1,0,0:0:0:0:
256,160,33732,1,8,0:0:0:0:
256,160,33903,1,8,0:0:0:0:
256,160,34075,1,0,0:0:0:0:
256,160,34160,1,0,0:0:0:0:
256,160,34332,1,8,0:0:0:0:
256,160,34418,1,8,0:0:0:0:
256,160,34590,1,0,0:0:0:0:
256,160,34675,1,0,0:0:0:0:
256,160,34760,1,0,0:0:0:0:
256,160,34846,1,0,0:0:0:0:
256,160,34932,1,0,0:0:0:0:
256,160,35104,1,8,0:0:0:0:
256,160,35447,1,0,0:0:0:0:
256,160,35618,1,0,0:0:0:0:
256,160,35790,1,8,0:0:0:0:
256,160,35962,1,0,0:0:0:0:
256,160,36133,1,0,0:0:0:0:
256,160,36217,1,8,0:0:0:0:
256,160,36305,1,8,0:0:0:0:
256,160,36476,1,8,0:0:0:0:
256,160,36560,1,0,0:0:0:0:
256,160,36646,1,0,0:0:0:0:
256,160,36818,1,8,0:0:0:0:
256,160,36903,1,0,0:0:0:0:
256,160,37075,1,0,0:0:0:0:
256,160,37161,1,8,0:0:0:0:
256,160,37332,1,0,0:0:0:0:
256,128,37417,1,0,0:0:0:0:
256,160,37504,1,8,0:0:0:0:
256,160,37589,1,0,0:0:0:0:
256,160,37676,1,0,0:0:0:0:
256,160,37847,1,0,0:0:0:0:
256,160,38019,1,0,0:0:0:0:
256,160,38103,1,0,0:0:0:0:
256,160,38190,1,8,0:0:0:0:
256,160,38360,1,0,0:0:0:0:
256,160,38532,1,0,0:0:0:0:
256,160,38703,1,0,0:0:0:0:
256,160,38789,1,0,0:0:0:0:
256,160,38875,1,8,0:0:0:0:
256,160,39046,1,0,0:0:0:0:
256,160,39218,1,0,0:0:0:0:
256,160,39390,1,0,0:0:0:0:
256,160,39475,1,0,0:0:0:0:
256,160,39561,1,8,0:0:0:0:
256,160,39733,1,0,0:0:0:0:
256,160,39817,1,0,0:0:0:0:
256,160,39904,1,8,0:0:0:0:
256,160,40075,1,0,0:0:0:0:
256,160,40160,1,0,0:0:0:0:
256,160,40247,1,8,0:0:0:0:
256,160,40418,1,0,0:0:0:0:
256,160,40590,1,8,0:0:0:0:
256,160,40932,1,0,0:0:0:0:
256,160,41102,1,0,0:0:0:0:
256,160,41273,1,8,0:0:0:0:
256,160,41445,1,0,0:0:0:0:
256,160,41616,1,0,0:0:0:0:
256,160,41702,1,0,0:0:0:0:
256,160,41873,1,0,0:0:0:0:
256,160,41959,1,8,0:0:0:0:
256,160,42130,1,0,0:0:0:0:
256,160,42302,1,0,0:0:0:0:
256,160,42387,1,0,0:0:0:0:
256,160,42473,1,0,0:0:0:0:
256,160,42645,1,8,0:0:0:0:
256,160,42816,1,0,0:0:0:0:
256,160,42902,1,0,0:0:0:0:
256,160,42987,1,0,0:0:0:0:
256,160,43159,1,0,0:0:0:0:
256,160,43330,1,8,0:0:0:0:
256,160,43502,1,0,0:0:0:0:
256,160,43673,1,0,0:0:0:0:
256,160,43845,1,0,0:0:0:0:
256,160,43930,1,0,0:0:0:0:
256,160,44016,1,8,0:0:0:0:
256,160,44187,1,0,0:0:0:0:
256,160,44359,1,0,0:0:0:0:
256,160,44530,1,0,0:0:0:0:
256,160,44702,1,8,0:0:0:0:
256,160,44873,1,0,0:0:0:0:
256,160,45045,1,0,0:0:0:0:
256,160,45130,1,0,0:0:0:0:
256,160,45302,1,0,0:0:0:0:
256,160,45388,1,8,0:0:0:0:
256,160,45560,1,0,0:0:0:0:
256,160,45645,1,0,0:0:0:0:
256,160,45730,1,8,0:0:0:0:
256,160,45816,1,8,0:0:0:0:
256,160,45902,1,0,0:0:0:0:
256,160,46074,1,8,0:0:0:0:
256,160,46417,1,0,0:0:0:0:
256,160,46588,1,0,0:0:0:0:
256,160,46760,1,8,0:0:0:0:
256,160,46932,1,0,0:0:0:0:
256,160,47103,1,8,0:0:0:0:
256,160,47187,1,8,0:0:0:0:
256,160,47275,1,0,0:0:0:0:
256,160,47446,1,8,0:0:0:0:
256,160,47530,1,8,0:0:0:0:
256,160,47616,1,0,0:0:0:0:
256,160,47788,1,0,0:0:0:0:
256,160,47960,1,0,0:0:0:0:
256,160,48131,1,8,0:0:0:0:
256,160,48302,1,0,0:0:0:0:
256,160,48474,1,8,0:0:0:0:
256,160,48559,1,0,0:0:0:0:
256,160,48646,1,0,0:0:0:0:
256,160,48817,1,8,0:0:0:0:
256,160,48989,1,0,0:0:0:0:
256,160,49075,1,0,0:0:0:0:
256,160,49160,1,8,0:0:0:0:
256,160,49330,1,0,0:0:0:0:
256,160,49502,1,8,0:0:0:0:
256,160,49587,1,0,0:0:0:0:
256,160,49673,1,0,0:0:0:0:
256,160,49845,1,0,0:0:0:0:
256,160,50016,1,0,0:0:0:0:
256,160,50188,1,8,0:0:0:0:
256,160,50360,1,0,0:0:0:0:
256,160,50531,1,0,0:0:0:0:
256,160,50617,1,0,0:0:0:0:
256,160,50703,1,0,0:0:0:0:
256,160,50789,1,0,0:0:0:0:
256,160,50874,1,8,0:0:0:0:
256,160,51045,1,8,0:0:0:0:
256,160,51130,1,8,0:0:0:0:
256,160,51217,1,8,0:0:0:0:
256,160,51388,1,0,0:0:0:0:
256,160,51560,1,12,0:0:0:0:
256,160,51903,1,0,0:0:0:0:
256,160,52074,1,8,0:0:0:0:
256,160,52160,1,8,0:0:0:0:
256,160,52246,1,8,0:0:0:0:
256,160,52417,1,0,0:0:0:0:
256,160,52589,1,8,0:0:0:0:
256,160,52760,1,0,0:0:0:0:
256,160,52931,1,8,0:0:0:0:
256,160,53017,1,0,0:0:0:0:
256,160,53189,1,0,0:0:0:0:
256,160,53274,1,8,0:0:0:0:
256,160,53446,1,0,0:0:0:0:
256,160,53617,1,0,0:0:0:0:
256,160,53703,1,0,0:0:0:0:
256,160,53788,1,8,0:0:0:0:
256,160,53875,1,8,0:0:0:0:
256,160,53960,1,8,0:0:0:0:
256,160,54131,1,0,0:0:0:0:
256,160,54303,1,8,0:0:0:0:
256,160,54474,1,0,0:0:0:0:
256,160,54646,1,0,0:0:0:0:
256,160,54731,1,0,0:0:0:0:
256,160,54817,1,0,0:0:0:0:
256,160,54988,1,8,0:0:0:0:
256,160,55160,1,0,0:0:0:0:
256,160,55331,1,0,0:0:0:0:
256,160,55503,1,0,0:0:0:0:
256,160,55674,1,8,0:0:0:0:
256,160,55760,1,8,0:0:0:0:
256,160,55846,1,8,0:0:0:0:
256,160,55931,1,8,0:0:0:0:
256,160,56017,1,0,0:0:0:0:
256,160,56189,1,0,0:0:0:0:
256,160,56361,1,0,0:0:0:0:
256,160,56531,1,8,0:0:0:0:
256,160,56617,1,8,0:0:0:0:
256,160,56703,1,0,0:0:0:0:
256,160,56789,1,0,0:0:0:0:
256,160,56875,1,0,0:0:0:0:
256,160,57046,1,8,0:0:0:0:
256,160,57389,1,0,0:0:0:0:
256,160,57561,1,0,0:0:0:0:
256,160,57733,1,8,0:0:0:0:
256,160,57904,1,0,0:0:0:0:
256,160,57988,1,0,0:0:0:0:
256,160,58076,1,8,0:0:0:0:
256,160,58247,1,8,0:0:0:0:
256,160,58331,1,8,0:0:0:0:
256,160,58417,1,0,0:0:0:0:
256,160,58589,1,0,0:0:0:0:
256,160,58760,1,0,0:0:0:0:
256,160,58932,1,0,0:0:0:0:
256,160,59103,1,8,0:0:0:0:
256,128,59188,1,0,0:0:0:0:
256,160,59275,1,0,0:0:0:0:
256,160,59360,1,0,0:0:0:0:
256,160,59447,1,8,0:0:0:0:
256,160,59618,1,0,0:0:0:0:
256,160,59790,1,8,0:0:0:0:
256,160,59961,1,0,0:0:0:0:
256,160,60131,1,8,0:0:0:0:
256,160,60217,1,8,0:0:0:0:
256,160,60303,1,8,0:0:0:0:
256,160,60474,1,0,0:0:0:0:
256,160,60646,1,8,0:0:0:0:
256,160,60732,1,8,0:0:0:0:
256,160,60817,1,8,0:0:0:0:
256,160,60989,1,0,0:0:0:0:
256,160,61161,1,8,0:0:0:0:
256,160,61246,1,8,0:0:0:0:
256,160,61332,1,8,0:0:0:0:
256,160,61504,1,8,0:0:0:0:
256,160,61675,1,0,0:0:0:0:
256,160,61760,1,0,0:0:0:0:
256,160,61846,1,8,0:0:0:0:
256,160,62018,1,0,0:0:0:0:
256,160,62103,1,0,0:0:0:0:
256,160,62189,1,8,0:0:0:0:
256,160,62361,1,0,0:0:0:0:
256,160,62532,1,8,0:0:0:0:
256,160,62874,1,0,0:0:0:0:
256,160,63045,1,0,0:0:0:0:
256,160,63131,1,0,0:0:0:0:
256,160,63217,1,8,0:0:0:0:
256,160,63388,1,0,0:0:0:0:
256,160,63560,1,8,0:0:0:0:
256,160,63731,1,0,0:0:0:0:
256,160,63902,1,0,0:0:0:0:
256,160,63988,1,0,0:0:0:0:
256,160,64160,1,8,0:0:0:0:
256,160,64245,1,8,0:0:0:0:
256,160,64417,1,0,0:0:0:0:
256,160,64588,1,8,0:0:0:0:
256,160,64674,1,0,0:0:0:0:
256,160,64759,1,8,0:0:0:0:
256,160,64846,1,8,0:0:0:0:
256,160,64931,1,8,0:0:0:0:
256,160,65102,1,0,0:0:0:0:
256,160,65274,1,8,0:0:0:0:
256,160,65445,1,0,0:0:0:0:
256,160,65617,1,8,0:0:0:0:
256,160,65702,1,8,0:0:0:0:
256,160,65788,1,0,0:0:0:0:
256,160,65959,1,0,0:0:0:0:
256,160,66131,1,0,0:0:0:0:
256,160,66302,1,0,0:0:0:0:
256,160,66474,1,0,0:0:0:0:
256,160,66645,1,8,0:0:0:0:
256,160,66732,1,0,0:0:0:0:
192,64,66817,1,0,0:0:0:0:
256,160,66988,1,0,0:0:0:0:
256,160,67160,1,0,0:0:0:0:
256,160,67246,1,0,0:0:0:0:
256,160,67332,1,8,0:0:0:0:
256,160,67502,1,0,0:0:0:0:
256,160,67674,1,0,0:0:0:0:
256,160,67760,1,0,0:0:0:0:
256,160,67846,1,0,0:0:0:0:
256,160,68017,1,8,0:0:0:0:
256,160,68360,1,0,0:0:0:0:
256,160,68532,1,0,0:0:0:0:
256,160,68704,1,8,0:0:0:0:
256,160,68875,1,0,0:0:0:0:
256,160,68959,1,0,0:0:0:0:
256,160,69047,1,0,0:0:0:0:
256,160,69218,1,0,0:0:0:0:
256,160,69302,1,0,0:0:0:0:
256,160,69388,1,8,0:0:0:0:
256,160,69560,1,0,0:0:0:0:
256,160,69731,1,0,0:0:0:0:
256,160,69903,1,0,0:0:0:0:
256,160,70074,1,8,0:0:0:0:
256,128,70159,1,0,0:0:0:0:
256,160,70246,1,0,0:0:0:0:
256,160,70331,1,0,0:0:0:0:
256,160,70418,1,0,0:0:0:0:
256,160,70589,1,0,0:0:0:0:
256,160,70761,1,8,0:0:0:0:
256,160,70932,1,0,0:0:0:0:
256,160,71102,1,0,0:0:0:0:
256,160,71188,1,0,0:0:0:0:
256,160,71274,1,0,0:0:0:0:
256,160,71360,1,0,0:0:0:0:
256,160,71445,1,8,0:0:0:0:
256,160,71617,1,8,0:0:0:0:
256,160,71703,1,8,0:0:0:0:
256,160,71788,1,8,0:0:0:0:
256,160,71874,1,8,0:0:0:0:
256,160,71960,1,0,0:0:0:0:
256,160,72132,1,8,0:0:0:0:
256,160,72217,1,0,0:0:0:0:
256,160,72303,1,0,0:0:0:0:
256,160,72475,1,8,0:0:0:0:
256,160,72560,1,0,0:0:0:0:
256,160,72646,1,0,0:0:0:0:
256,160,72731,1,0,0:0:0:0:
256,160,72817,1,8,0:0:0:0:
256,160,72903,1,0,0:0:0:0:
256,160,72989,1,0,0:0:0:0:
256,160,73074,1,0,0:0:0:0:
256,160,73160,1,8,0:0:0:0:
256,160,73332,1,0,0:0:0:0:
256,160,73503,1,8,0:0:0:0:
256,160,73674,1,0,0:0:0:0:
256,160,73760,1,0,0:0:0:0:
256,160,73846,1,0,0:0:0:0:
256,160,74017,1,0,0:0:0:0:
256,160,74188,1,8,0:0:0:0:
256,160,74360,1,0,0:0:0:0:
256,160,74703,1,0,0:0:0:0:
256,160,74874,1,8,0:0:0:0:
256,160,75045,1,0,0:0:0:0:
256,160,75217,1,0,0:0:0:0:
256,160,75388,1,0,0:0:0:0:
256,160,75560,1,8,0:0:0:0:
256,160,75731,1,0,0:0:0:0:
256,160,76074,1,0,0:0:0:0:
256,160,76245,1,8,0:0:0:0:
256,160,76417,1,0,0:0:0:0:
256,160,76588,1,0,0:0:0:0:
256,160,76760,1,0,0:0:0:0:
256,160,76931,1,8,0:0:0:0:
256,160,77017,1,8,0:0:0:0:
256,160,77103,1,8,0:0:0:0:
256,160,77274,1,0,0:0:0:0:
256,160,77445,1,0,0:0:0:0:
256,160,77617,1,8,0:0:0:0:
256,160,77788,1,8,0:0:0:0:
256,160,77960,1,0,0:0:0:0:
256,160,78131,1,0,0:0:0:0:
256,160,78303,1,8,0:0:0:0:
256,160,78388,1,8,0:0:0:0:
256,160,78474,1,8,0:0:0:0:
256,160,78645,1,0,0:0:0:0:
256,160,78731,1,0,0:0:0:0:
256,160,78817,1,0,0:0:0:0:
256,160,78988,1,8,0:0:0:0:
256,160,79160,1,0,0:0:0:0:
256,160,79331,1,0,0:0:0:0:
256,160,79503,1,0,0:0:0:0:
256,160,79674,1,8,0:0:0:0:
256,160,79845,1,0,0:0:0:0:
256,160,80188,1,0,0:0:0:0:
256,160,80360,1,8,0:0:0:0:
256,160,80531,1,8,0:0:0:0:
256,160,80703,1,0,0:0:0:0:
256,160,80874,1,0,0:0:0:0:
256,160,81045,1,0,0:0:0:0:
256,160,81131,1,8,0:0:0:0:
256,160,81217,1,8,0:0:0:0:
256,160,81388,1,8,0:0:0:0:
256,160,81474,1,0,0:0:0:0:
256,160,81560,1,0,0:0:0:0:
256,160,81731,1,8,0:0:0:0:
256,160,81903,1,0,0:0:0:0:
256,160,82074,1,0,0:0:0:0:
256,160,82245,1,0,0:0:0:0:
256,160,82417,1,8,0:0:0:0:
256,160,82503,1,0,0:0:0:0:
256,160,82589,1,0,0:0:0:0:
256,160,82760,1,8,0:0:0:0:
256,160,82845,1,0,0:0:0:0:
256,160,82931,1,0,0:0:0:0:
256,160,83103,1,8,0:0:0:0:
256,160,83274,1,0,0:0:0:0:
256,160,83445,1,8,0:0:0:0:
256,160,83617,1,0,0:0:0:0:
256,160,83703,1,0,0:0:0:0:
256,160,83788,1,8,0:0:0:0:
256,160,83960,1,0,0:0:0:0:
256,160,84045,1,0,0:0:0:0:
256,160,84131,1,8,0:0:0:0:
256,160,84303,1,0,0:0:0:0:
256,160,84388,1,0,0:0:0:0:
256,160,84474,1,8,0:0:0:0:
256,160,84560,1,8,0:0:0:0:
256,160,84645,1,0,0:0:0:0:
256,160,84731,1,0,0:0:0:0:
256,160,84817,1,8,0:0:0:0:
256,160,84988,1,0,0:0:0:0:
256,160,85160,1,8,0:0:0:0:
256,160,85331,1,0,0:0:0:0:
256,160,85503,1,0,0:0:0:0:
256,160,85760,1,0,0:0:0:0:
256,160,86017,1,0,0:0:0:0:
256,160,86188,1,0,0:0:0:0:
256,160,86360,1,8,0:0:0:0:
256,160,86531,1,8,0:0:0:0:
256,160,86703,1,0,0:0:0:0:
256,160,86874,1,0,0:0:0:0:
256,160,87131,1,0,0:0:0:0:
256,160,87388,1,0,0:0:0:0:
256,160,87560,1,0,0:0:0:0:
256,160,87731,1,8,0:0:0:0:
256,160,87903,1,8,0:0:0:0:
256,160,88074,1,0,0:0:0:0:
256,160,88245,1,0,0:0:0:0:
256,160,88503,1,0,0:0:0:0:
256,160,88760,1,0,0:0:0:0:
256,160,88931,1,0,0:0:0:0:
256,160,89103,1,8,0:0:0:0:
256,160,89274,1,8,0:0:0:0:
256,160,89445,1,0,0:0:0:0:
256,160,89617,1,0,0:0:0:0:
256,160,89703,1,0,0:0:0:0:
256,160,89788,1,0,0:0:0:0:
256,160,89960,1,8,0:0:0:0:
256,160,90131,1,0,0:0:0:0:
256,160,90303,1,0,0:0:0:0:
256,160,90474,1,8,0:0:0:0:
256,160,90645,1,8,0:0:0:0:
256,160,90817,1,0,0:0:0:0:
256,160,90988,1,0,0:0:0:0:
256,160,91245,1,0,0:0:0:0:
256,160,91503,1,0,0:0:0:0:
256,160,91674,1,0,0:0:0:0:
256,160,91845,1,8,0:0:0:0:
256,160,92017,1,8,0:0:0:0:
256,160,92188,1,0,0:0:0:0:
256,160,92360,1,0,0:0:0:0:
256,160,92617,1,0,0:0:0:0:
256,160,92874,1,0,0:0:0:0:
256,160,93045,1,0,0:0:0:0:
256,160,93217,1,8,0:0:0:0:
256,160,93388,1,8,0:0:0:0:
256,160,93560,1,0,0:0:0:0:
256,160,93731,1,0,0:0:0:0:
256,160,93988,1,0,0:0:0:0:
256,160,94245,1,0,0:0:0:0:
256,160,94417,1,0,0:0:0:0:
256,160,94503,1,0,0:0:0:0:
256,160,94588,1,0,0:0:0:0:
256,160,94760,1,8,0:0:0:0:
256,160,94931,1,4,0:0:0:0:
256,224,95789,1,4,0:0:0:0:
256,224,96132,1,0,0:0:0:0:
256,224,96303,1,0,0:0:0:0:
256,224,96474,1,8,0:0:0:0:
256,224,96817,1,0,0:0:0:0:
256,224,97160,1,0,0:0:0:0:
256,224,97503,1,8,0:0:0:0:
256,224,97674,1,0,0:0:0:0:
256,224,97846,1,8,0:0:0:0:
256,224,98017,1,0,0:0:0:0:
256,224,98189,1,8,0:0:0:0:
256,224,98532,1,0,0:0:0:0:
256,224,98703,1,0,0:0:0:0:
256,224,98874,1,0,0:0:0:0:
256,224,99217,1,8,0:0:0:0:
256,224,99560,1,0,0:0:0:0:
256,224,99903,1,0,0:0:0:0:
256,224,100074,1,0,0:0:0:0:
256,224,100246,1,0,0:0:0:0:
256,224,100417,1,0,0:0:0:0:
256,224,100589,1,8,0:0:0:0:
256,224,100674,1,8,0:0:0:0:
256,224,100760,1,8,0:0:0:0:
256,224,100932,1,8,0:0:0:0:
256,224,101103,1,8,0:0:0:0:
256,224,101189,1,8,0:0:0:0:
256,224,101274,1,8,0:0:0:0:
256,224,101617,1,0,0:0:0:0:
256,224,101789,1,0,0:0:0:0:
256,224,101960,1,0,0:0:0:0:
256,224,102303,1,0,0:0:0:0:
256,224,102646,1,0,0:0:0:0:
256,224,102989,1,0,0:0:0:0:
256,224,103160,1,0,0:0:0:0:
256,224,103332,1,8,0:0:0:0:
256,224,103503,1,0,0:0:0:0:
256,224,103674,1,8,0:0:0:0:
256,224,103846,1,0,0:0:0:0:
256,224,104017,1,8,0:0:0:0:
256,224,104189,1,0,0:0:0:0:
256,224,104360,1,0,0:0:0:0:
256,224,104703,1,8,0:0:0:0:
256,224,105046,1,0,0:0:0:0:
256,224,105217,1,8,0:0:0:0:
256,224,105389,1,8,0:0:0:0:
256,224,105560,1,0,0:0:0:0:
256,224,105732,1,8,0:0:0:0:
256,224,105903,1,8,0:0:0:0:
256,224,106074,1,0,0:0:0:0:
256,224,106246,1,8,0:0:0:0:
256,224,106332,1,8,0:0:0:0:
256,224,106417,1,8,0:0:0:0:
256,224,106589,1,8,0:0:0:0:
256,224,106674,1,8,0:0:0:0:
256,224,106760,1,0,0:0:0:0:
256,224,107103,1,0,0:0:0:0:
256,224,107274,1,0,0:0:0:0:
256,224,107446,1,8,0:0:0:0:
256,224,107789,1,0,0:0:0:0:
256,224,108132,1,0,0:0:0:0:
256,224,108474,1,8,0:0:0:0:
256,224,108646,1,0,0:0:0:0:
256,224,108817,1,8,0:0:0:0:
256,224,108989,1,0,0:0:0:0:
256,224,109160,1,8,0:0:0:0:
256,224,109503,1,0,0:0:0:0:
256,224,109674,1,0,0:0:0:0:
256,224,109846,1,0,0:0:0:0:
256,224,110189,1,0,0:0:0:0:
256,224,110532,1,0,0:0:0:0:
256,224,110874,1,0,0:0:0:0:
256,192,111046,1,0,0:0:0:0:
256,192,111217,1,0,0:0:0:0:
256,192,111389,1,0,0:0:0:0:
256,224,111560,1,8,0:0:0:0:
256,224,111646,1,8,0:0:0:0:
288,224,111732,1,8,0:0:0:0:
256,224,111903,1,8,0:0:0:0:
256,224,112074,1,8,0:0:0:0:
256,224,112160,1,8,0:0:0:0:
256,224,112246,1,0,0:0:0:0:
256,192,112589,1,0,0:0:0:0:
256,192,112760,1,0,0:0:0:0:
256,192,112932,1,8,0:0:0:0:
256,192,113274,1,8,0:0:0:0:
256,192,113446,1,0,0:0:0:0:
256,192,113617,1,8,0:0:0:0:
256,192,113960,1,8,0:0:0:0:
256,192,114132,1,0,0:0:0:0:
256,192,114303,1,8,0:0:0:0:
256,192,114474,1,8,0:0:0:0:
256,192,114646,1,0,0:0:0:0:
256,192,114817,1,0,0:0:0:0:
256,192,114989,1,0,0:0:0:0:
256,192,115160,1,0,0:0:0:0:
256,192,115332,1,8,0:0:0:0:
256,192,115417,1,0,0:0:0:0:
256,192,115503,1,0,0:0:0:0:
256,192,115674,1,8,0:0:0:0:
256,192,115846,1,0,0:0:0:0:
256,192,115932,1,0,0:0:0:0:
256,192,116017,1,8,0:0:0:0:
256,192,116189,1,0,0:0:0:0:
256,192,116360,1,8,0:0:0:0:
256,192,116446,1,0,0:0:0:0:
256,192,116532,1,0,0:0:0:0:
256,192,116703,1,12,0:0:0:0:
256,192,116874,12,0,117389,0:0:0:0:
256,160,117731,5,4,0:0:0:0:
256,160,117902,1,8,0:0:0:0:
256,160,117988,1,8,0:0:0:0:
256,160,118074,1,8,0:0:0:0:
256,160,118245,1,0,0:0:0:0:
256,160,118417,1,8,0:0:0:0:
256,160,118588,1,0,0:0:0:0:
256,160,118759,1,0,0:0:0:0:
256,160,118845,1,0,0:0:0:0:
256,160,119017,1,0,0:0:0:0:
256,160,119102,1,8,0:0:0:0:
256,160,119274,1,0,0:0:0:0:
256,160,119445,1,0,0:0:0:0:
256,160,119531,1,0,0:0:0:0:
256,160,119616,1,8,0:0:0:0:
256,160,119703,1,8,0:0:0:0:
256,160,119788,1,0,0:0:0:0:
256,160,119959,1,0,0:0:0:0:
256,160,120131,1,8,0:0:0:0:
256,160,120302,1,0,0:0:0:0:
256,160,120474,1,0,0:0:0:0:
256,160,120559,1,0,0:0:0:0:
256,160,120645,1,0,0:0:0:0:
256,160,120816,1,8,0:0:0:0:
256,160,120988,1,0,0:0:0:0:
256,160,121159,1,0,0:0:0:0:
256,160,121331,1,0,0:0:0:0:
256,160,121502,1,8,0:0:0:0:
256,160,121588,1,8,0:0:0:0:
256,160,121674,1,8,0:0:0:0:
256,160,121759,1,8,0:0:0:0:
256,160,121845,1,0,0:0:0:0:
256,160,122017,1,0,0:0:0:0:
256,160,122189,1,0,0:0:0:0:
256,160,122359,1,8,0:0:0:0:
256,160,122445,1,8,0:0:0:0:
256,160,122531,1,8,0:0:0:0:
256,160,122617,1,0,0:0:0:0:
256,160,122703,1,0,0:0:0:0:
256,160,122874,1,8,0:0:0:0:
256,160,123217,1,0,0:0:0:0:
256,160,123389,1,0,0:0:0:0:
256,160,123561,1,8,0:0:0:0:
256,160,123732,1,0,0:0:0:0:
256,160,123816,1,0,0:0:0:0:
256,160,123904,1,8,0:0:0:0:
256,160,124075,1,8,0:0:0:0:
256,160,124159,1,8,0:0:0:0:
256,160,124245,1,0,0:0:0:0:
256,160,124417,1,0,0:0:0:0:
256,160,124588,1,0,0:0:0:0:
256,160,124760,1,0,0:0:0:0:
256,160,124931,1,8,0:0:0:0:
256,128,125016,1,0,0:0:0:0:
256,160,125103,1,0,0:0:0:0:
256,160,125188,1,0,0:0:0:0:
256,160,125275,1,8,0:0:0:0:
256,160,125446,1,0,0:0:0:0:
256,160,125618,1,8,0:0:0:0:
256,160,125789,1,0,0:0:0:0:
256,160,125959,1,8,0:0:0:0:
256,160,126045,1,8,0:0:0:0:
256,160,126131,1,8,0:0:0:0:
256,160,126302,1,0,0:0:0:0:
256,160,126474,1,8,0:0:0:0:
256,160,126560,1,8,0:0:0:0:
256,160,126645,1,8,0:0:0:0:
256,160,126817,1,0,0:0:0:0:
256,160,126989,1,8,0:0:0:0:
256,160,127074,1,8,0:0:0:0:
256,160,127160,1,8,0:0:0:0:
256,160,127332,1,8,0:0:0:0:
256,160,127503,1,0,0:0:0:0:
256,160,127588,1,0,0:0:0:0:
256,160,127674,1,8,0:0:0:0:
256,160,127846,1,0,0:0:0:0:
256,160,127931,1,0,0:0:0:0:
256,160,128017,1,8,0:0:0:0:
256,160,128189,1,0,0:0:0:0:
256,160,128360,1,8,0:0:0:0:
256,160,128702,1,0,0:0:0:0:
256,160,128789,1,0,0:0:0:0:
256,160,128959,1,8,0:0:0:0:
256,160,129045,1,8,0:0:0:0:
256,160,129216,1,0,0:0:0:0:
256,160,129388,1,8,0:0:0:0:
256,160,129559,1,0,0:0:0:0:
256,160,129730,1,8,0:0:0:0:
256,160,129816,1,0,0:0:0:0:
256,160,129989,1,0,0:0:0:0:
256,160,130073,1,8,0:0:0:0:
256,160,130245,1,0,0:0:0:0:
256,160,130416,1,8,0:0:0:0:
256,160,130502,1,0,0:0:0:0:
256,160,130587,1,0,0:0:0:0:
256,160,130674,1,8,0:0:0:0:
256,160,130759,1,8,0:0:0:0:
256,160,130930,1,0,0:0:0:0:
256,160,131102,1,8,0:0:0:0:
256,160,131273,1,0,0:0:0:0:
256,160,131445,1,8,0:0:0:0:
256,160,131530,1,8,0:0:0:0:
256,160,131616,1,8,0:0:0:0:
256,160,131787,1,0,0:0:0:0:
256,160,131959,1,0,0:0:0:0:
256,160,132130,1,0,0:0:0:0:
256,160,132302,1,0,0:0:0:0:
256,160,132473,1,8,0:0:0:0:
256,160,132560,1,8,0:0:0:0:
256,160,132645,1,0,0:0:0:0:
256,160,132816,1,0,0:0:0:0:
256,160,132988,1,0,0:0:0:0:
256,160,133074,1,0,0:0:0:0:
256,160,133160,1,8,0:0:0:0:
256,160,133330,1,0,0:0:0:0:
256,160,133502,1,8,0:0:0:0:
256,160,133588,1,0,0:0:0:0:
256,160,133674,1,0,0:0:0:0:
256,160,133845,1,8,0:0:0:0:
256,160,134188,1,0,0:0:0:0:
256,160,134360,1,0,0:0:0:0:
256,160,134532,1,8,0:0:0:0:
256,160,134703,1,0,0:0:0:0:
256,160,134787,1,0,0:0:0:0:
256,160,134875,1,0,0:0:0:0:
256,160,135046,1,8,0:0:0:0:
256,160,135130,1,0,0:0:0:0:
256,160,135216,1,8,0:0:0:0:
256,160,135388,1,0,0:0:0:0:
256,160,135559,1,0,0:0:0:0:
256,160,135731,1,0,0:0:0:0:
256,160,135902,1,8,0:0:0:0:
256,128,135987,1,0,0:0:0:0:
256,160,136074,1,0,0:0:0:0:
256,160,136159,1,0,0:0:0:0:
256,160,136246,1,8,0:0:0:0:
256,160,136417,1,0,0:0:0:0:
256,160,136589,1,8,0:0:0:0:
256,160,136760,1,0,0:0:0:0:
256,160,136930,1,0,0:0:0:0:
256,160,137016,1,0,0:0:0:0:
256,160,137102,1,8,0:0:0:0:
256,160,137188,1,8,0:0:0:0:
256,160,137273,1,8,0:0:0:0:
256,160,137445,1,8,0:0:0:0:
256,160,137531,1,8,0:0:0:0:
256,160,137616,1,8,0:0:0:0:
256,160,137702,1,0,0:0:0:0:
256,160,137788,1,0,0:0:0:0:
256,160,137960,1,8,0:0:0:0:
256,160,138045,1,0,0:0:0:0:
256,160,138131,1,0,0:0:0:0:
256,160,138303,1,8,0:0:0:0:
256,160,138388,1,0,0:0:0:0:
256,160,138474,1,0,0:0:0:0:
256,160,138559,1,0,0:0:0:0:
256,160,138645,1,8,0:0:0:0:
256,160,138731,1,0,0:0:0:0:
256,160,138817,1,8,0:0:0:0:
256,160,138902,1,0,0:0:0:0:
256,160,138988,1,8,0:0:0:0:
256,160,139160,1,0,0:0:0:0:
256,160,139331,1,8,0:0:0:0:
256,160,139502,1,0,0:0:0:0:
256,160,139588,1,0,0:0:0:0:
256,160,139674,1,0,0:0:0:0:
256,160,139845,1,8,0:0:0:0:
256,160,139931,1,8,0:0:0:0:
256,160,140017,1,8,0:0:0:0:
256,160,140188,1,0,0:0:0:0:
256,160,140360,1,8,0:0:0:0:
256,160,140531,1,0,0:0:0:0:
256,160,140702,1,8,0:0:0:0:
256,160,140788,1,0,0:0:0:0:
256,160,140960,1,0,0:0:0:0:
256,160,141045,1,0,0:0:0:0:
256,160,141217,1,0,0:0:0:0:
256,160,141388,1,8,0:0:0:0:
256,160,141474,1,0,0:0:0:0:
256,160,141559,1,8,0:0:0:0:
256,160,141646,1,8,0:0:0:0:
256,160,141731,1,8,0:0:0:0:
256,160,141902,1,0,0:0:0:0:
256,160,142074,1,8,0:0:0:0:
256,160,142245,1,0,0:0:0:0:
256,160,142417,1,0,0:0:0:0:
256,160,142502,1,0,0:0:0:0:
256,160,142588,1,0,0:0:0:0:
256,160,142759,1,8,0:0:0:0:
256,160,142931,1,0,0:0:0:0:
256,160,143102,1,0,0:0:0:0:
256,160,143274,1,0,0:0:0:0:
256,160,143445,1,8,0:0:0:0:
256,160,143531,1,8,0:0:0:0:
256,160,143617,1,8,0:0:0:0:
256,160,143702,1,8,0:0:0:0:
256,160,143788,1,0,0:0:0:0:
256,160,143960,1,0,0:0:0:0:
256,160,144132,1,0,0:0:0:0:
256,160,144302,1,8,0:0:0:0:
256,160,144389,1,0,0:0:0:0:
256,160,144474,1,8,0:0:0:0:
256,160,144560,1,0,0:0:0:0:
256,160,144646,1,0,0:0:0:0:
256,160,144817,1,8,0:0:0:0:
256,160,145160,1,0,0:0:0:0:
256,160,145332,1,0,0:0:0:0:
256,160,145504,1,8,0:0:0:0:
256,160,145675,1,0,0:0:0:0:
256,160,145759,1,0,0:0:0:0:
256,160,145847,1,8,0:0:0:0:
256,160,146018,1,8,0:0:0:0:
256,160,146102,1,8,0:0:0:0:
256,160,146188,1,0,0:0:0:0:
256,160,146360,1,0,0:0:0:0:
256,160,146531,1,0,0:0:0:0:
256,160,146703,1,0,0:0:0:0:
256,160,146874,1,8,0:0:0:0:
256,128,146959,1,0,0:0:0:0:
256,160,147046,1,0,0:0:0:0:
256,160,147131,1,0,0:0:0:0:
256,160,147218,1,8,0:0:0:0:
256,160,147389,1,0,0:0:0:0:
256,160,147561,1,8,0:0:0:0:
256,160,147732,1,0,0:0:0:0:
256,160,147902,1,8,0:0:0:0:
256,160,147988,1,8,0:0:0:0:
256,160,148160,1,0,0:0:0:0:
256,160,148246,1,8,0:0:0:0:
256,160,148417,1,8,0:0:0:0:
256,160,148503,1,8,0:0:0:0:
256,160,148674,1,0,0:0:0:0:
256,160,148760,1,8,0:0:0:0:
256,160,148932,1,0,0:0:0:0:
256,160,149017,1,0,0:0:0:0:
256,160,149103,1,0,0:0:0:0:
256,160,149275,1,8,0:0:0:0:
256,160,149446,1,0,0:0:0:0:
256,160,149531,1,0,0:0:0:0:
256,160,149617,1,8,0:0:0:0:
256,160,149789,1,0,0:0:0:0:
256,160,149874,1,0,0:0:0:0:
256,160,149960,1,8,0:0:0:0:
256,160,150132,1,0,0:0:0:0:
256,160,150303,1,8,0:0:0:0:
256,160,150645,1,0,0:0:0:0:
256,160,150816,1,0,0:0:0:0:
256,160,150902,1,0,0:0:0:0:
256,160,150988,1,8,0:0:0:0:
256,160,151159,1,0,0:0:0:0:
256,160,151331,1,8,0:0:0:0:
256,160,151502,1,0,0:0:0:0:
256,160,151673,1,0,0:0:0:0:
256,160,151759,1,0,0:0:0:0:
256,160,151931,1,8,0:0:0:0:
256,160,152016,1,8,0:0:0:0:
256,160,152188,1,0,0:0:0:0:
256,160,152359,1,8,0:0:0:0:
256,160,152445,1,0,0:0:0:0:
256,160,152530,1,8,0:0:0:0:
256,160,152617,1,0,0:0:0:0:
256,160,152702,1,8,0:0:0:0:
256,160,152873,1,0,0:0:0:0:
256,160,153045,1,8,0:0:0:0:
256,160,153216,1,0,0:0:0:0:
256,160,153388,1,8,0:0:0:0:
256,160,153473,1,8,0:0:0:0:
256,160,153559,1,0,0:0:0:0:
256,160,153730,1,0,0:0:0:0:
256,160,153902,1,0,0:0:0:0:
256,160,154073,1,0,0:0:0:0:
256,160,154245,1,0,0:0:0:0:
256,160,154416,1,8,0:0:0:0:
256,160,154503,1,0,0:0:0:0:
256,160,154588,1,0,0:0:0:0:
256,160,154759,1,0,0:0:0:0:
256,160,154931,1,0,0:0:0:0:
256,160,155017,1,0,0:0:0:0:
256,160,155103,1,8,0:0:0:0:
256,160,155273,1,0,0:0:0:0:
256,160,155445,1,0,0:0:0:0:
256,160,155531,1,0,0:0:0:0:
256,160,155617,1,0,0:0:0:0:
256,160,155788,1,8,0:0:0:0:
256,160,156131,1,0,0:0:0:0:
256,160,156303,1,0,0:0:0:0:
256,160,156475,1,8,0:0:0:0:
256,160,156646,1,0,0:0:0:0:
256,160,156730,1,0,0:0:0:0:
256,160,156903,1,0,0:0:0:0:
256,160,156989,1,0,0:0:0:0:
256,160,157074,1,0,0:0:0:0:
256,160,157160,1,8,0:0:0:0:
256,160,157331,1,0,0:0:0:0:
256,160,157417,1,8,0:0:0:0:
256,160,157503,1,8,0:0:0:0:
256,160,157589,1,8,0:0:0:0:
256,160,157674,1,0,0:0:0:0:
256,160,157845,1,8,0:0:0:0:
256,128,157930,1,0,0:0:0:0:
256,160,158017,1,0,0:0:0:0:
256,160,158102,1,0,0:0:0:0:
256,160,158189,1,8,0:0:0:0:
256,160,158360,1,0,0:0:0:0:
256,160,158532,1,8,0:0:0:0:
256,160,158703,1,0,0:0:0:0:
256,160,158873,1,0,0:0:0:0:
256,160,158959,1,0,0:0:0:0:
256,160,159045,1,0,0:0:0:0:
256,160,159131,1,0,0:0:0:0:
256,160,159216,1,8,0:0:0:0:
256,160,159388,1,8,0:0:0:0:
256,160,159474,1,8,0:0:0:0:
256,160,159559,1,8,0:0:0:0:
256,160,159645,1,8,0:0:0:0:
256,160,159731,1,0,0:0:0:0:
256,160,159903,1,8,0:0:0:0:
256,160,159988,1,0,0:0:0:0:
256,160,160074,1,0,0:0:0:0:
256,160,160246,1,8,0:0:0:0:
256,160,160331,1,8,0:0:0:0:
256,160,160417,1,0,0:0:0:0:
256,160,160502,1,0,0:0:0:0:
256,160,160588,1,8,0:0:0:0:
256,160,160674,1,8,0:0:0:0:
256,160,160760,1,0,0:0:0:0:
256,160,160845,1,0,0:0:0:0:
256,160,160931,1,8,0:0:0:0:
256,160,161103,1,0,0:0:0:0:
256,160,161274,1,8,0:0:0:0:
256,160,161445,1,0,0:0:0:0:
256,160,161531,1,0,0:0:0:0:
256,160,161617,1,0,0:0:0:0:
