osu file format v13

[General]
AudioFilename: 1.mp3
AudioLeadIn: 0
PreviewTime: 51817
Countdown: 0
SampleSet: Normal
StackLeniency: 0.7
Mode: 0
LetterboxInBreaks: 1
WidescreenStoryboard: 1

[Editor]
DistanceSpacing: 0.7
BeatDivisor: 4
GridSize: 4
TimelineZoom: 2.999999

[Metadata]
Title:Masked bitcH (Remix)
TitleUnicode:Masked bitcH (Remix)
Artist:Megpoid GUMI
ArtistUnicode:Megpoid GUMI
Creator:safawu
Version:Insane
Source:Vocaloid
Tags:megpoid gumi vocaloid remix satuski_ga_tenkomori
BeatmapID:334823
BeatmapSetID:131761

[Difficulty]
HPDrainRate:6
CircleSize:4
OverallDifficulty:6
ApproachRate:9
SliderMultiplier:2
SliderTickRate:1

[Events]
//Background and Video events
0,0,"BG.jpg",0,0
//Break Periods
2,74045,82846
//Storyboard Layer 0 (Background)
//Storyboard Layer 1 (Fail)
//Storyboard Layer 2 (Pass)
//Storyboard Layer 3 (Foreground)
//Storyboard Sound Samples
//Background Colour Transformations
3,100,163,162,255

[TimingPoints]
8018,342.856249212981,4,1,0,70,1,0
51903,-100,4,1,0,70,0,1
73846,-100,4,1,0,70,0,0
117731,-100,4,1,0,70,0,1
139674,-66.6666666666667,4,1,0,70,0,1
161617,-100,4,1,0,70,0,0

[Colours]
Combo1 : 253,79,105
Combo2 : 146,254,118
Combo3 : 70,153,255
Combo4 : 255,225,106

[HitObjects]
176,208,6818,2,0,B|200:156|200:156|252:156,1,100
364,152,7160,2,0,L|420:152,4,50
280,64,7675,2,0,P|260:116|304:160,1,100
348,108,8017,6,0,P|376:168|300:308,1,200
256,144,8532,1,0,0:0:0:0:
256,144,8875,2,0,B|264:176|264:176|248:220|248:220|264:276,2,100
172,96,9389,6,0,P|228:52|340:100,1,200
224,184,9904,1,0,0:0:0:0:
224,184,10246,1,0,0:0:0:0:
264,56,10417,1,0,0:0:0:0:
340,172,10589,1,0,0:0:0:0:
204,92,10760,6,0,P|280:128|272:264,1,200
136,152,11275,2,0,P|224:84|336:120,1,200
200,232,11789,1,0,0:0:0:0:
256,80,11960,1,0,0:0:0:0:
200,232,12132,6,0,P|272:156|368:180,1,200
300,248,12646,1,0,0:0:0:0:
200,256,12817,1,0,0:0:0:0:
164,252,12903,1,0,0:0:0:0:
136,248,12990,1,0,0:0:0:0:
32,228,13160,2,0,B|32:284|32:284|68:320,1,100
256,192,13503,6,0,B|212:232|256:296|256:296|232:344|168:332,1,200
188,160,14018,1,0,0:0:0:0:
188,160,14360,2,0,P|232:128|312:144,1,100
264,280,14703,1,0,0:0:0:0:
180,72,14875,6,0,P|264:124|244:220,1,200
264,64,15389,1,0,0:0:0:0:
264,64,15733,1,0,0:0:0:0:
216,152,15903,1,0,0:0:0:0:
256,244,16075,1,0,0:0:0:0:
352,252,16246,6,0,P|308:328|180:300,1,200
304,148,16761,1,0,0:0:0:0:
304,148,17103,2,0,B|336:140|336:140|368:156|368:156|428:148,2,100
204,212,17618,5,0,0:0:0:0:
88,208,17789,2,0,L|28:200,2,50
256,128,18132,2,0,L|304:72,2,50
240,300,18475,2,0,L|272:356,2,50
204,212,18817,5,0,0:0:0:0:
240,96,18989,2,0,P|260:128|320:152,1,100
344,148,19246,1,0,0:0:0:0:
376,140,19332,1,0,0:0:0:0:
332,68,19503,1,0,0:0:0:0:
220,200,19675,2,0,P|232:260|288:280,1,100
376,140,20017,2,0,P|336:168|260:148,1,100
92,120,20360,6,0,P|132:176|160:188,1,100
188,196,20617,1,0,0:0:0:0:
220,200,20703,1,0,0:0:0:0:
204,84,20875,1,0,0:0:0:0:
188,280,21046,2,0,P|264:276|292:236,1,100
284,92,21389,2,0,P|256:124|264:192,1,100
352,160,21732,5,0,0:0:0:0:
264,232,21903,1,0,0:0:0:0:
232,240,21989,1,0,0:0:0:0:
200,248,22075,2,0,B|136:264|136:264|164:304,1,100
300,304,22417,2,0,B|352:288|352:288|388:224,1,100
392,104,22760,2,0,B|352:136|352:136|352:188,1,100
232,192,23103,5,0,0:0:0:0:
304,132,23274,1,0,0:0:0:0:
332,112,23360,1,0,0:0:0:0:
368,88,23446,2,0,B|428:52|428:52|380:24,1,100
236,56,23789,1,0,0:0:0:0:
236,56,23875,1,0,0:0:0:0:
236,56,23960,1,0,0:0:0:0:
196,144,24132,2,0,P|136:116|124:56,1,100
332,112,24475,5,0,0:0:0:0:
252,200,24646,2,0,L|316:180,2,50
312,80,24989,1,0,0:0:0:0:
380,172,25161,1,0,0:0:0:0:
184,96,25332,1,0,0:0:0:0:
104,216,25503,2,0,L|212:216,1,100
304,276,25846,5,0,0:0:0:0:
300,176,26017,2,0,L|300:120,2,50
356,92,26360,1,0,0:0:0:0:
284,20,26532,1,0,0:0:0:0:
184,28,26703,1,0,0:0:0:0:
136,116,26875,1,0,0:0:0:0:
200,192,27046,1,0,0:0:0:0:
300,176,27217,5,0,0:0:0:0:
200,156,27388,1,0,0:0:0:0:
200,192,27474,1,0,0:0:0:0:
200,232,27560,1,0,0:0:0:0:
328,188,27731,1,0,0:0:0:0:
328,192,27903,2,0,B|316:240|316:240|248:272,1,100
200,156,28246,2,0,B|212:108|212:108|280:76,1,100
256,192,28589,5,0,0:0:0:0:
256,192,28675,1,0,0:0:0:0:
256,192,28760,1,0,0:0:0:0:
256,320,28932,2,0,B|244:284|244:284|280:236|280:236|252:184,2,150
256,320,29617,1,0,0:0:0:0:
364,96,29960,6,0,P|408:160|404:212,1,100
408,212,30217,1,0,0:0:0:0:
400,240,30303,1,0,0:0:0:0:
280,164,30475,1,0,0:0:0:0:
316,92,30646,2,0,P|360:136|304:236,1,150
400,240,30989,2,0,P|348:280|288:264,1,100
200,160,31332,2,0,P|288:148|344:192,1,150
376,152,31675,2,0,P|364:224|304:220,1,100
220,100,32017,1,0,0:0:0:0:
220,100,32103,1,0,0:0:0:0:
220,100,32189,1,0,0:0:0:0:
256,192,32360,1,0,0:0:0:0:
288,44,32532,1,0,0:0:0:0:
172,204,32703,6,0,P|236:272|264:272,1,100
264,272,32960,1,0,0:0:0:0:
292,272,33046,2,0,P|352:252|368:220,1,100
376,196,33303,1,0,0:0:0:0:
380,156,33389,2,0,P|368:104|312:80,1,100
164,124,33732,2,0,P|224:144|280:120,1,100
124,44,34075,6,0,P|80:112|96:160,1,100
80,156,34332,1,0,0:0:0:0:
92,184,34417,2,0,P|168:240|208:240,1,100
256,152,34760,1,0,0:0:0:0:
256,152,34846,1,0,0:0:0:0:
256,152,34932,1,0,0:0:0:0:
304,232,35103,1,0,0:0:0:0:
212,68,35275,1,0,0:0:0:0:
208,264,35446,6,0,B|276:284|276:284|324:252,2,100
148,192,35961,1,0,0:0:0:0:
204,104,36132,2,0,B|256:104|256:104|304:136|304:136|380:136,1,150
324,92,36475,2,0,B|384:92|384:92|432:148,1,100
308,280,36817,2,0,B|256:280|256:280|208:248|208:248|132:248,1,150
188,292,37160,2,0,B|128:292|128:292|80:236,1,100
216,192,37503,5,0,0:0:0:0:
256,192,37589,1,0,0:0:0:0:
296,192,37675,1,0,0:0:0:0:
256,96,37846,1,0,0:0:0:0:
256,96,38017,2,0,B|192:140|120:96|120:96|80:160,1,200
256,192,38532,1,0,0:0:0:0:
256,288,38703,2,0,B|320:244|392:288|392:288|421:241,1,200
360,164,39217,5,0,0:0:0:0:
296,324,39389,1,0,0:0:0:0:
256,152,39560,1,0,0:0:0:0:
232,248,39732,1,0,0:0:0:0:
232,248,39818,1,0,0:0:0:0:
232,248,39903,2,0,P|276:224|336:248,1,100
322,235,40160,1,0,0:0:0:0:
320,236,40246,2,0,P|382:236|418:284,1,100
408,260,40503,1,0,0:0:0:0:
408,260,40589,2,0,P|448:280|448:356,1,100
320,236,40932,6,0,P|304:188|360:132,1,100
348,124,41189,1,0,0:0:0:0:
380,116,41275,1,0,0:0:0:0:
404,200,41447,1,0,0:0:0:0:
260,128,41617,2,0,P|204:184|112:168,1,150
92,184,41960,2,0,P|140:204|168:260,1,100
260,128,42303,2,0,P|272:204|212:284,1,150
200,248,42646,2,0,P|260:224|316:244,1,100
380,280,42989,2,0,B|416:324|416:324|480:324,2,100
372,144,43503,5,0,0:0:0:0:
312,264,43675,1,0,0:0:0:0:
372,144,43846,2,0,L|432:104,2,50
196,128,44189,1,0,0:0:0:0:
276,80,44360,2,0,P|268:172|204:216,1,150
172,184,44703,2,0,P|216:264|248:268,1,100
296,92,45046,2,0,B|384:84|408:172,1,150
356,176,45389,2,0,P|324:212|332:288,1,100
256,192,45732,1,0,0:0:0:0:
256,192,45817,1,0,0:0:0:0:
256,192,45903,1,0,0:0:0:0:
232,96,46075,1,0,0:0:0:0:
280,288,46246,1,0,0:0:0:0:
200,184,46418,5,0,0:0:0:0:
300,204,46590,1,0,0:0:0:0:
392,164,46761,1,0,0:0:0:0:
424,68,46933,1,0,0:0:0:0:
396,264,47275,1,0,0:0:0:0:
392,164,47446,1,0,0:0:0:0:
320,96,47617,1,0,0:0:0:0:
220,88,47790,1,0,0:0:0:0:
132,132,47960,2,0,B|152:176|152:176|216:184,1,100
296,188,48303,6,0,P|292:316|232:320,1,200
220,192,48818,1,0,0:0:0:0:
144,152,48989,2,0,P|192:272|276:268,1,200
180,72,49504,1,0,0:0:0:0:
268,40,49675,2,0,P|240:124|120:140,1,200
180,72,50189,1,0,0:0:0:0:
216,236,50361,1,0,0:0:0:0:
256,192,50532,12,0,51732,0:0:0:0:
192,104,51903,5,0,0:0:0:0:
200,128,51989,1,0,0:0:0:0:
208,152,52075,1,0,0:0:0:0:
216,176,52160,1,0,0:0:0:0:
224,200,52246,1,0,0:0:0:0:
304,112,52417,1,0,0:0:0:0:
208,256,52589,2,0,P|252:284|332:268,1,100
336,100,52932,5,0,0:0:0:0:
336,100,53103,2,0,L|220:100,1,100
120,212,53446,1,0,0:0:0:0:
232,352,53617,1,0,0:0:0:0:
296,192,53789,1,0,0:0:0:0:
208,260,53960,1,0,0:0:0:0:
208,260,54046,1,0,0:0:0:0:
208,260,54132,1,0,0:0:0:0:
200,120,54303,5,0,0:0:0:0:
208,260,54475,1,0,0:0:0:0:
348,256,54646,1,0,0:0:0:0:
340,116,54817,1,0,0:0:0:0:
160,192,54989,1,0,0:0:0:0:
316,304,55160,1,0,0:0:0:0:
172,296,55332,1,0,0:0:0:0:
392,188,55503,1,0,0:0:0:0:
200,120,55675,1,0,0:0:0:0:
340,116,55846,6,0,B|320:116|320:116|296:80|248:104|248:104|248:144|248:144|216:156|196:112,1,200,0|0,0:0|0:0,0:0:0:0:
172,296,56360,2,0,P|212:336|300:336,1,100
256,252,56703,1,0,0:0:0:0:
256,224,56789,1,0,0:0:0:0:
256,192,56875,1,0,0:0:0:0:
256,64,57046,2,0,B|240:96|240:96|272:124|272:124|248:160,1,100
140,192,57389,5,0,0:0:0:0:
168,192,57475,1,0,0:0:0:0:
200,192,57560,1,0,0:0:0:0:
224,192,57646,1,0,0:0:0:0:
256,192,57732,1,0,0:0:0:0:
308,276,57903,2,0,B|348:304|348:304|440:292,1,100
204,108,58246,2,0,B|164:80|164:80|72:92,1,100
148,184,58589,1,0,0:0:0:0:
196,272,58760,1,0,0:0:0:0:
256,192,58932,1,0,0:0:0:0:
88,264,59103,1,0,0:0:0:0:
312,276,59275,1,0,0:0:0:0:
204,108,59446,1,0,0:0:0:0:
204,108,59532,1,0,0:0:0:0:
204,108,59617,1,0,0:0:0:0:
200,216,59789,5,0,0:0:0:0:
336,104,59961,1,0,0:0:0:0:
264,244,60132,1,0,0:0:0:0:
268,72,60303,1,0,0:0:0:0:
332,224,60475,1,0,0:0:0:0:
204,108,60646,1,0,0:0:0:0:
360,164,60818,1,0,0:0:0:0:
172,160,60989,1,0,0:0:0:0:
336,104,61160,1,0,0:0:0:0:
268,168,61332,5,0,0:0:0:0:
268,200,61417,1,0,0:0:0:0:
268,232,61504,2,0,B|312:268|312:268|380:268,1,100
384,268,61760,1,0,0:0:0:0:
412,268,61847,2,0,L|488:336,1,100
456,352,62103,1,0,0:0:0:0:
432,368,62189,2,0,L|312:368,1,100
308,344,62446,1,0,0:0:0:0:
288,324,62532,2,0,B|264:284|264:284|200:284,1,100
256,192,62874,6,0,L|200:192,2,50
352,156,63217,2,0,P|400:128|472:148,1,100
400,304,63560,2,0,P|332:328|288:316,1,100
336,248,63903,1,0,0:0:0:0:
352,156,64074,1,0,0:0:0:0:
244,288,64246,1,0,0:0:0:0:
264,100,64417,1,0,0:0:0:0:
428,216,64589,1,0,0:0:0:0:
256,192,64760,1,0,0:0:0:0:
336,248,64931,1,0,0:0:0:0:
336,248,65017,1,0,0:0:0:0:
336,248,65103,1,0,0:0:0:0:
352,156,65274,6,0,B|300:156|300:156|252:128,1,100
428,216,65617,1,0,0:0:0:0:
256,192,65789,1,0,0:0:0:0:
124,172,65960,2,0,B|164:132|164:132|220:132,1,100
312,260,66303,1,0,0:0:0:0:
312,260,66388,1,0,0:0:0:0:
312,260,66474,2,0,P|236:256|208:216,1,100
240,120,66817,6,0,B|260:120|260:120|296:128|312:168|312:168|280:216|280:216|288:256|348:248,1,200,0|0,0:0|0:0,0:0:0:0:
388,224,67332,2,0,P|400:176|448:132,1,100
492,208,67674,1,0,0:0:0:0:
476,236,67760,1,0,0:0:0:0:
472,264,67846,1,0,0:0:0:0:
476,288,67932,1,0,0:0:0:0:
488,312,68017,2,0,P|448:288|356:284,1,100
320,196,68360,6,0,P|304:244|248:268,2,100
216,168,68874,1,0,0:0:0:0:
84,276,69046,2,0,P|164:232|192:248,1,100
260,252,69389,1,0,0:0:0:0:
144,328,69560,1,0,0:0:0:0:
96,140,69732,1,0,0:0:0:0:
272,96,69903,1,0,0:0:0:0:
432,288,70246,1,0,0:0:0:0:
432,288,70417,1,0,0:0:0:0:
128,156,70760,6,0,P|168:204|228:216,1,100
292,236,71103,1,0,0:0:0:0:
256,72,71274,1,0,0:0:0:0:
380,176,71446,2,0,P|320:156|260:192,1,100
152,236,71789,1,0,0:0:0:0:
312,272,71960,1,0,0:0:0:0:
176,64,72132,6,0,B|152:108|152:108|192:148,1,100
216,176,72389,1,0,0:0:0:0:
216,176,72474,2,0,B|264:196|264:196|320:168,1,100
340,148,72732,1,0,0:0:0:0:
340,148,72817,2,0,B|364:100|364:100|336:52,1,100
300,40,73075,1,0,0:0:0:0:
300,40,73160,2,0,B|248:24|248:24|180:56,1,100
176,64,73418,1,0,0:0:0:0:
176,64,73504,1,0,0:0:0:0:
256,132,73674,2,0,L|256:244,1,100
256,92,83446,6,0,L|324:80,2,50
256,296,83789,6,0,L|236:364,2,50
112,208,84132,6,0,L|184:232,2,50
320,192,84474,6,0,L|384:168,2,50
256,124,84817,6,0,P|328:96|388:112,1,100
336,180,85160,2,0,P|380:176|448:220,1,100
304,272,85503,2,0,P|236:308|176:280,2,100
304,272,86017,1,0,0:0:0:0:
220,216,86189,5,0,0:0:0:0:
248,120,86361,1,0,0:0:0:0:
340,88,86532,1,0,0:0:0:0:
424,144,86704,1,0,0:0:0:0:
328,184,86874,2,0,P|408:228|440:228,2,100
328,184,87389,1,0,0:0:0:0:
256,252,87560,6,0,B|196:268|196:268|128:236,1,100
384,188,87903,2,0,B|375:247|375:247|318:302,1,100
320,88,88246,2,0,B|372:80|372:80|444:116,1,100
192,148,88589,2,0,B|176:100|176:100|204:48,1,100
276,120,88932,5,0,0:0:0:0:
232,220,89104,1,0,0:0:0:0:
348,204,89274,1,0,0:0:0:0:
192,148,89447,1,0,0:0:0:0:
276,292,89618,1,0,0:0:0:0:
304,292,89703,1,0,0:0:0:0:
328,292,89789,1,0,0:0:0:0:
424,200,89960,2,0,B|384:152|384:152|344:148,1,100
224,112,90303,6,0,P|156:76|120:84,1,100
160,232,90646,2,0,P|200:200|272:228,1,100
408,248,90989,2,0,P|376:200|292:188,1,100
188,328,91332,2,0,P|260:284|304:304,1,100
240,116,91674,5,0,0:0:0:0:
116,68,91846,1,0,0:0:0:0:
208,156,92017,1,0,0:0:0:0:
84,108,92189,1,0,0:0:0:0:
176,200,92360,2,0,B|144:224|144:224|136:276|176:296,1,100
260,244,92703,2,0,B|288:264|288:264|308:300|264:344,1,100
312,180,93046,6,0,B|352:156|352:156|428:164,1,100
204,204,93389,2,0,B|148:228|148:228|80:220,1,100
144,128,93732,1,0,0:0:0:0:
236,52,93903,1,0,0:0:0:0:
356,80,94074,1,0,0:0:0:0:
376,192,94246,1,0,0:0:0:0:
272,264,94417,5,0,0:0:0:0:
272,264,94503,1,0,0:0:0:0:
272,264,94589,1,0,0:0:0:0:
184,200,94760,2,0,P|208:152|264:140,1,100
392,140,95103,2,0,P|348:88|300:84,1,100
256,192,95446,2,0,P|308:188|356:236,1,100
352,320,95789,6,0,B|296:292|296:292|220:320|220:320|148:300,1,200
256,192,96303,1,0,0:0:0:0:
160,64,96474,2,0,B|216:92|216:92|292:64|292:64|348:80,1,200
256,192,96989,1,0,0:0:0:0:
368,116,97160,2,0,B|412:152|400:212|400:212|352:232|380:304,1,200
256,192,97674,1,0,0:0:0:0:
220,288,97846,1,0,0:0:0:0:
256,296,97932,1,0,0:0:0:0:
292,288,98017,1,0,0:0:0:0:
256,192,98189,1,0,0:0:0:0:
416,112,98532,6,0,B|436:168|436:168|392:236|392:236|308:232,1,200
332,152,99046,1,0,0:0:0:0:
420,300,99217,2,0,B|396:240|396:240|332:212|332:212|232:264,1,200
328,316,99732,1,0,0:0:0:0:
148,188,99903,2,0,B|212:184|212:184|264:236|264:236|256:328,1,200
168,276,100417,1,0,0:0:0:0:
256,192,100589,1,0,0:0:0:0:
256,192,100675,1,0,0:0:0:0:
256,192,100760,1,0,0:0:0:0:
256,88,100932,1,0,0:0:0:0:
344,148,101103,5,0,0:0:0:0:
344,148,101189,1,0,0:0:0:0:
344,148,101274,2,0,B|404:164|408:212|408:212|320:264|372:324,1,200
440,288,101789,1,0,0:0:0:0:
336,296,101960,2,0,B|272:304|272:304|172:240,1,150
152,288,102303,2,0,B|136:220|136:220|180:152,1,150
148,108,102646,2,0,B|200:80|200:80|292:120,1,150
320,116,102989,2,0,B|336:156|336:156|284:236,1,100
256,288,103331,5,0,0:0:0:0:
256,288,103417,1,0,0:0:0:0:
256,288,103502,1,0,0:0:0:0:
256,192,103674,1,0,0:0:0:0:
160,196,103846,2,0,P|264:100|324:144,1,200
256,192,104360,1,0,0:0:0:0:
376,192,104532,2,0,L|504:192,2,100
256,192,105046,1,0,0:0:0:0:
220,112,105217,2,0,P|164:200|232:272,1,200
256,192,105732,2,0,L|380:192,1,100
304,272,106074,6,0,B|256:292|256:292|188:260,1,100
168,248,106332,1,0,0:0:0:0:
168,248,106417,2,0,B|152:204|152:204|180:152,1,100
208,124,106674,1,0,0:0:0:0:
208,124,106760,2,0,B|276:124|276:124|332:172|332:172|332:236,1,200
220,244,107274,1,0,0:0:0:0:
280,156,107446,6,0,P|328:244|256:328,1,200
280,156,107960,1,0,0:0:0:0:
196,204,108132,2,0,P|204:104|320:56,1,200
316,192,108645,1,0,0:0:0:0:
372,56,108817,1,0,0:0:0:0:
372,56,108903,1,0,0:0:0:0:
372,56,108988,1,0,0:0:0:0:
280,96,109160,1,0,0:0:0:0:
192,48,109332,5,0,0:0:0:0:
192,48,109417,1,0,0:0:0:0:
192,48,109503,2,0,B|216:104|156:120|156:120|128:168|176:232,1,200,0|0,0:0|0:0,0:0:0:0:
256,192,110017,1,0,0:0:0:0:
280,96,110189,2,0,P|360:128|356:204,1,150
312,180,110532,2,0,P|336:252|416:244,1,150
440,288,110874,2,0,P|436:172|384:168,1,150
448,120,111217,2,0,P|404:112|340:168,1,100
256,192,111560,1,0,0:0:0:0:
256,192,111646,1,0,0:0:0:0:
256,192,111731,1,0,0:0:0:0:
256,92,111903,1,0,0:0:0:0:
164,56,112074,5,0,0:0:0:0:
164,56,112160,1,0,0:0:0:0:
164,56,112246,2,0,B|216:92|136:196|136:196|216:232,1,200
256,264,112760,2,0,P|292:232|368:244,1,100
300,136,113103,2,0,L|180:68,2,100
384,88,113617,2,0,P|372:192|256:220,1,200
192,232,114132,2,0,L|92:232,1,100
280,152,114474,2,0,L|420:156,2,100
180,136,114989,5,0,0:0:0:0:
144,228,115160,1,0,0:0:0:0:
220,292,115331,1,0,0:0:0:0:
304,240,115503,1,0,0:0:0:0:
280,152,115674,1,0,0:0:0:0:
356,88,115845,1,0,0:0:0:0:
436,148,116017,1,0,0:0:0:0:
412,240,116188,1,0,0:0:0:0:
356,176,116360,1,0,0:0:0:0:
356,176,116446,1,0,0:0:0:0:
356,176,116531,1,0,0:0:0:0:
256,192,116703,12,0,117560,0:0:0:0:
84,128,117731,6,0,L|136:128,2,50
112,256,118074,2,0,P|140:200|192:184,1,100
332,248,118417,2,0,P|244:256|200:224,1,100
188,164,118760,1,0,0:0:0:0:
240,80,118931,1,0,0:0:0:0:
340,120,119274,1,0,0:0:0:0:
256,192,119617,1,0,0:0:0:0:
256,292,119788,1,0,0:0:0:0:
256,292,119874,1,0,0:0:0:0:
256,292,119960,1,0,0:0:0:0:
256,192,120131,5,0,0:0:0:0:
212,100,120303,1,0,0:0:0:0:
104,80,120474,1,0,0:0:0:0:
136,184,120645,1,0,0:0:0:0:
312,136,120817,1,0,0:0:0:0:
168,24,120988,1,0,0:0:0:0:
256,192,121160,5,0,0:0:0:0:
224,192,121245,1,0,0:0:0:0:
192,192,121331,2,0,B|148:192|148:192|100:236,1,100
196,320,121674,2,0,B|224:268|292:272|292:272|312:324|396:300,1,200
464,304,122189,1,0,0:0:0:0:
352,224,122360,1,0,0:0:0:0:
464,180,122531,1,0,0:0:0:0:
444,208,122617,1,0,0:0:0:0:
428,232,122703,1,0,0:0:0:0:
352,340,122874,2,0,L|416:248,1,100
292,192,123217,6,0,L|368:192,2,50
188,184,123560,2,0,B|220:128|220:128|260:120,1,100
324,200,123903,2,0,B|292:256|292:256|252:264,1,100
208,104,124246,2,0,B|260:76|260:76|328:88,1,100
304,280,124589,2,0,B|252:308|252:308|211:300,1,100
336,68,124931,2,0,B|389:87|389:87|420:136,1,100
176,316,125274,2,0,B|122:296|122:296|92:248,1,100
180,108,125617,5,0,0:0:0:0:
184,232,125789,1,0,0:0:0:0:
392,128,125960,2,0,P|352:208|308:212,1,100
240,204,126303,1,0,0:0:0:0:
224,76,126474,1,0,0:0:0:0:
152,296,126646,2,0,P|236:284|280:304,1,100
352,304,126989,1,0,0:0:0:0:
400,216,127160,1,0,0:0:0:0:
372,216,127246,1,0,0:0:0:0:
344,216,127331,2,0,B|300:216|300:216|300:132,1,100
300,120,127589,1,0,0:0:0:0:
264,116,127674,2,0,B|223:117|223:117|224:184,1,100
190,173,127932,1,0,0:0:0:0:
159,174,128017,2,0,L|35:170,1,100
60,172,128360,1,0,0:0:0:0:
256,128,128703,6,0,P|312:116|360:136,1,100
256,256,129046,2,0,P|200:268|152:248,1,100,0|0,0:0|0:0,0:0:0:0:
236,140,129389,2,0,P|316:160|348:220,1,150
347,215,129731,2,0,P|388:164|432:176,1,100
504,212,130246,1,0,0:0:0:0:
424,264,130588,1,0,0:0:0:0:
324,280,130759,1,0,0:0:0:0:
324,280,130845,1,0,0:0:0:0:
324,280,130931,1,0,0:0:0:0:
256,188,131102,5,0,0:0:0:0:
352,140,131274,1,0,0:0:0:0:
256,80,131445,1,0,0:0:0:0:
324,280,131616,1,0,0:0:0:0:
184,100,131788,1,0,0:0:0:0:
392,216,131959,1,0,0:0:0:0:
256,188,132131,5,0,0:0:0:0:
256,188,132216,1,0,0:0:0:0:
256,188,132303,2,0,L|256:304,1,100
176,144,132646,2,0,B|224:100|224:100|288:100|288:100|341:146,1,200
176,224,133159,1,0,0:0:0:0:
336,224,133331,1,0,0:0:0:0:
256,124,133502,1,0,0:0:0:0:
256,156,133588,1,0,0:0:0:0:
256,188,133674,1,0,0:0:0:0:
256,220,133760,1,0,0:0:0:0:
256,252,133846,2,0,B|264:292|264:292|244:332|244:332|264:360,1,100
136,196,134189,6,0,P|172:236|156:292,2,100
68,256,134702,1,0,0:0:0:0:
244,124,134874,2,0,B|228:224|100:188,1,150
128,140,135217,2,0,P|188:176|196:220,1,100
244,124,135731,1,0,0:0:0:0:
348,120,136074,1,0,0:0:0:0:
296,216,136245,1,0,0:0:0:0:
296,216,136331,1,0,0:0:0:0:
296,216,136417,1,0,0:0:0:0:
348,120,136589,5,0,0:0:0:0:
256,192,136760,1,0,0:0:0:0:
256,68,136931,1,0,0:0:0:0:
256,192,137102,1,0,0:0:0:0:
156,104,137274,1,0,0:0:0:0:
256,192,137445,1,0,0:0:0:0:
80,208,137617,1,0,0:0:0:0:
256,192,137788,1,0,0:0:0:0:
176,324,137960,1,0,0:0:0:0:
256,192,138131,1,0,0:0:0:0:
340,240,138303,6,0,B|364:284|364:284|324:324,1,100
300,352,138560,1,0,0:0:0:0:
300,352,138645,2,0,B|252:372|252:372|196:344,1,100
176,324,138903,1,0,0:0:0:0:
176,324,138988,2,0,B|152:276|152:276|180:228,1,100
216,216,139246,1,0,0:0:0:0:
216,216,139331,2,0,B|260:200|260:200|336:232,1,100
404,240,139674,5,0,0:0:0:0:
396,264,139760,1,0,0:0:0:0:
388,288,139846,2,0,B|376:320|376:320|296:344|296:344|264:328,2,150.000005722046
400,108,140360,2,0,B|352:72|352:72|352:144|264:156,1,150.000005722046
112,276,140703,2,0,B|160:312|160:312|160:240|248:228,1,150.000005722046
256,192,141046,1,0,0:0:0:0:
332,116,141217,1,0,0:0:0:0:
256,44,141389,1,0,0:0:0:0:
180,116,141560,1,0,0:0:0:0:
256,192,141731,1,0,0:0:0:0:
256,220,141817,1,0,0:0:0:0:
256,244,141903,1,0,0:0:0:0:
176,188,142074,5,0,0:0:0:0:
336,188,142246,1,0,0:0:0:0:
256,72,142417,2,0,B|204:52|204:52|136:76|136:76|116:136|116:136|64:172,1,225.000008583069
76,212,142760,2,0,P|152:204|224:260,1,150.000005722046
256,308,143103,2,0,B|308:328|308:328|376:304|376:304|396:244|396:244|448:208,1,225.000008583069
436,168,143446,2,0,P|360:176|288:120,1,150.000005722046
256,72,143789,5,0,0:0:0:0:
256,216,143960,1,0,0:0:0:0:
256,144,144131,1,0,0:0:0:0:
256,288,144303,1,0,0:0:0:0:
256,216,144474,1,0,0:0:0:0:
276,216,144560,1,0,0:0:0:0:
300,216,144646,1,0,0:0:0:0:
320,216,144731,1,0,0:0:0:0:
344,216,144817,2,0,B|376:196|376:196|432:236|432:236|476:216,1,150.000005722046
500,88,145160,6,0,B|464:72|464:72|400:120|400:120|324:97,1,150.000005722046
340,104,145417,1,0,0:0:0:0:
312,96,145503,2,0,B|280:80|280:80|200:80|200:80|164:56,1,150.000005722046
56,148,145846,2,0,B|88:164|88:164|168:164|168:164|204:188,1,150.000005722046
332,180,146189,5,0,0:0:0:0:
488,208,146360,1,0,0:0:0:0:
332,268,146531,1,0,0:0:0:0:
192,324,146703,1,0,0:0:0:0:
332,356,146874,1,0,0:0:0:0:
264,148,147046,1,0,0:0:0:0:
200,244,147217,1,0,0:0:0:0:
232,244,147303,1,0,0:0:0:0:
264,244,147389,1,0,0:0:0:0:
424,196,147560,5,0,0:0:0:0:
256,192,147732,1,0,0:0:0:0:
344,140,147903,1,0,0:0:0:0:
168,244,148074,1,0,0:0:0:0:
264,84,148246,1,0,0:0:0:0:
248,304,148417,1,0,0:0:0:0:
96,188,148589,1,0,0:0:0:0:
332,256,148760,1,0,0:0:0:0:
184,132,148932,1,0,0:0:0:0:
352,192,149103,5,0,0:0:0:0:
352,192,149274,2,0,L|440:192,2,75.0000028610231
180,284,149617,2,0,L|292:284,2,75.0000028610231
304,120,149960,2,0,L|408:120,2,75.0000028610231
104,224,150303,2,0,L|192:224,2,75.0000028610231
148,128,150646,6,0,P|216:88|280:120,1,150.000005722046
404,192,150989,2,0,P|372:236|276:236,1,150.000005722046
220,104,151331,2,0,B|288:140|244:272|244:272|168:248,1,225.000008583069
152,224,151674,2,0,P|216:208|268:300,1,150.000005722046
188,312,152017,5,0,0:0:0:0:
148,128,152188,1,0,0:0:0:0:
80,276,152360,1,0,0:0:0:0:
248,88,152531,1,0,0:0:0:0:
352,192,152703,1,0,0:0:0:0:
324,192,152788,1,0,0:0:0:0:
296,192,152874,1,0,0:0:0:0:
112,168,153046,6,0,B|156:168|156:168|216:192|216:192|288:196,1,150.000005722046
312,108,153389,1,0,0:0:0:0:
416,116,153560,1,0,0:0:0:0:
340,300,153731,1,0,0:0:0:0:
312,108,153903,1,0,0:0:0:0:
508,192,154074,5,0,0:0:0:0:
508,192,154159,1,0,0:0:0:0:
508,192,154245,1,0,0:0:0:0:
360,192,154417,1,0,0:0:0:0:
464,120,154589,2,0,B|416:152|416:152|416:224|416:224|468:260|468:260|468:332|468:332|376:376,1,300.000011444092
344,272,155102,1,0,0:0:0:0:
168,272,155274,1,0,0:0:0:0:
256,132,155445,1,0,0:0:0:0:
256,160,155531,1,0,0:0:0:0:
256,188,155617,1,0,0:0:0:0:
256,216,155703,1,0,0:0:0:0:
256,244,155789,2,0,B|236:296|236:296|272:336|272:336|256:388,1,150.000005722046
168,272,156131,6,0,L|144:192,1,75.0000028610231
196,192,156303,2,0,L|232:120,1,75.0000028610231
256,160,156474,2,0,L|336:132,1,75.0000028610231
308,184,156646,2,0,L|384:228,1,75.0000028610231
440,156,156817,2,0,P|444:272|300:280,1,225.000008583069
292,320,157160,2,0,P|332:259|404:253,1,150.000005722046
356,128,157503,1,0,0:0:0:0:
256,192,157674,1,0,0:0:0:0:
256,80,158017,1,0,0:0:0:0:
256,192,158189,1,0,0:0:0:0:
256,220,158274,1,0,0:0:0:0:
256,248,158360,1,0,0:0:0:0:
256,276,158446,1,0,0:0:0:0:
256,304,158531,1,0,0:0:0:0:
372,260,158703,5,0,0:0:0:0:
312,148,158874,1,0,0:0:0:0:
196,196,159046,1,0,0:0:0:0:
256,304,159217,1,0,0:0:0:0:
228,112,159389,1,0,0:0:0:0:
404,184,159560,1,0,0:0:0:0:
176,268,159731,1,0,0:0:0:0:
336,340,159903,1,0,0:0:0:0:
160,180,160074,1,0,0:0:0:0:
408,280,160246,1,0,0:0:0:0:
360,184,160417,6,0,B|396:248|396:248|344:328,1,150.000005722046
336,340,160674,1,0,0:0:0:0:
336,340,160760,2,0,B|264:364|264:364|160:328,1,150.000005722046
172,312,161017,1,0,0:0:0:0:
173,312,161103,2,0,B|132:248|132:248|168:184,1,150.000005722046,0|0,0:0|0:0,0:0:0:0:
192,156,161360,1,0,0:0:0:0:
192,156,161445,2,0,B|264:136|264:136|344:164,1,150.000005722046
