osu file format v9

[General]
AudioFilename: Juu Mensou.mp3
AudioLeadIn: 0
PreviewTime: 168128
Countdown: 0
SampleSet: Normal
StackLeniency: 0.7
Mode: 0
LetterboxInBreaks: 0

[Editor]
DistanceSpacing: 2
BeatDivisor: 4
GridSize: 8

[Metadata]
Title:Juu Mensou
Artist:Megpoid GUMI
Creator:m i z u k i
Version:Insane
Source:Vocaloid
Tags:yuzuki YM mizuki y_u_z_u_k_i kaichi HannyaG

[Difficulty]
HPDrainRate:6
CircleSize:4
OverallDifficulty:8
ApproachRate:8
SliderMultiplier:1.5
SliderTickRate:1

[Events]
//Background and Video events
0,0,"BG.jpg"
Video,0,"video.avi"
//Break Periods
2,78602,80986
2,118039,124025
//Storyboard Layer 0 (Background)
//Storyboard Layer 1 (Fail)
//Storyboard Layer 2 (Pass)
//Storyboard Layer 3 (Foreground)
//Storyboard Sound Samples
//Background Colour Transformations
3,100,163,162,255

[TimingPoints]
3403,416.666666666667,4,1,0,70,1,0
49959,-200,4,1,0,70,0,0
50372,-200,4,1,0,50,0,0
50580,-100,4,1,0,70,0,0
53292,-200,4,1,0,70,0,0
53705,-200,4,1,0,50,0,0
53913,-100,4,1,0,70,0,0
56626,-200,4,1,0,70,0,0
57038,-200,4,1,0,50,0,0
57247,-100,4,1,0,70,0,0
59959,-200,4,1,0,70,0,0
60372,-200,4,1,0,50,0,0
60580,-100,4,1,0,70,0,0
63292,-200,4,1,0,70,0,0
63705,-200,4,1,0,50,0,0
63913,-100,4,1,0,70,0,0
66626,-200,4,1,0,70,0,0
67038,-200,4,1,0,50,0,0
67247,-100,4,1,0,70,0,0
69959,-200,4,1,0,70,0,0
70372,-200,4,1,0,50,0,0
70684,-100,4,1,0,70,0,0
76622,-200,4,1,0,70,0,0
76830,-200,4,1,0,30,0,0
78497,-100,4,1,0,70,0,0
83393,-100,4,1,0,70,0,1
104955,-100,4,1,0,50,0,1
105372,-100,4,1,0,60,0,1
105788,-100,4,1,0,70,0,1
115065,346.820809248555,4,1,0,70,1,0
168041,-100,4,1,0,20,0,0
168215,-100,4,1,0,30,0,0
168388,-100,4,1,0,40,0,0
168562,-100,4,1,0,50,0,0
168735,-100,4,1,0,60,0,0
168908,-100,4,1,0,70,0,0
170556,-100,4,1,0,70,0,1
198301,-200,4,1,0,70,0,0
198908,-200,4,1,0,50,0,0
199169,-200,4,1,0,70,0,0
200296,-200,4,1,0,50,0,0
200556,-200,4,1,0,70,0,0
201683,-200,4,1,0,50,0,0
201943,-200,4,1,0,70,0,0
203070,-200,4,1,0,50,0,0
203330,-200,4,1,0,70,0,0

[Colours]
Combo1 : 21,196,196
Combo2 : 251,101,36
Combo3 : 46,199,41
Combo4 : 233,211,22

[HitObjects]
120,80,3403,2,0,B|96:128|104:176,1,75
192,160,3819,2,0,B|200:200|176:240,1,75,8|0
120,296,4236,1,0
180,232,4444,1,0
240,296,4653,1,8
304,232,4861,1,0
368,296,5069,6,0,B|408:264|400:216,1,75,0|0
472,176,5486,1,8
416,104,5694,1,0
360,176,5903,1,0
360,176,6111,2,0,B|208:176,1,150,0|8
208,88,6736,6,0,B|120:112|88:184,1,150,0|8
16,224,7361,1,0
16,224,7465,1,0
16,224,7569,2,0,B|53:297|165:321,1,150,0|8
184,240,8194,1,0
184,240,8298,1,0
184,240,8403,2,0,B|264:240|320:304|320:320,1,150,0|8
392,256,9028,1,0
312,208,9236,2,0,B|312:168,4,37.5,8|0|0|0|8
152,120,10069,6,0,B|152:16,1,75,0|0
72,88,10486,2,0,B|72:168,1,75,8|0
152,208,10903,1,0
152,296,11111,1,0
152,208,11319,2,0,B|240:208,1,75,8|0
224,296,11736,6,0,B|320:296,1,75
328,208,12152,2,0,B|232:208,1,75,8|0
224,120,12569,1,0
256,32,12777,2,0,B|360:40|400:112,1,150,0|8
448,160,13402,6,0,B|368:168|312:248,1,150,0|8
248,184,14027,1,0
208,160,14132,1,0
168,184,14236,1,0
136,272,14444,1,0
96,296,14548,1,0
56,272,14652,1,8
56,272,14861,1,0
56,184,15069,2,0,B|56:144|80:80|184:80,1,150,0|8
328,72,15902,5,0
336,112,16007,1,0
344,152,16111,1,0
352,192,16215,1,0
360,232,16319,1,8
192,304,16736,6,0,B|288:304,2,75,0|0|8
104,304,17361,1,0
104,216,17569,2,0,B|8:216,2,75,0|0|8
192,216,18194,1,0
192,128,18402,2,0,B|288:128,2,75,0|0|8
104,128,19028,1,0
104,40,19236,1,0
192,40,19444,2,0,B|360:40,1,150,0|8
424,80,20069,6,0,B|456:144|432:224|416:232,1,150,0|8
336,208,20694,1,0
336,208,20798,1,0
336,208,20903,2,0,B|264:256|168:200,1,150,0|8
152,136,21528,1,0
152,136,21632,1,0
152,136,21736,2,0,B|104:192|96:296,1,150,0|8
176,320,22361,1,0
256,272,22569,2,0,B|296:272,4,37.5,8|0|0|0|8
336,112,23403,6,0,B|312:152|320:208,1,75
408,184,23819,2,0,B|432:232|392:288,1,75,8|0
320,256,24236,1,0
256,192,24444,1,0
192,256,24653,1,8
128,192,24861,1,0
72,120,25069,6,0,B|160:120,1,75
144,32,25486,2,0,B|232:32,1,75,8|0
224,120,25903,1,0
312,120,26111,2,0,B|464:120,1,150,0|8
464,208,26736,6,0,B|304:208,1,150,0|8
224,208,27361,1,0
240,248,27465,1,0
224,288,27569,1,0
144,248,27778,1,0
128,208,27882,1,0
144,168,27986,1,8
144,168,28194,1,0
192,88,28403,5,4
232,80,28507,1,0
272,88,28611,1,0
304,112,28715,1,0
320,152,28819,1,0
304,192,28923,1,0
272,216,29028,1,0
224,216,29132,1,0
184,192,29236,1,0
176,152,29340,1,0
216,128,29444,1,0
256,152,29548,1,0
244,196,29653,1,4
376,72,30069,6,0,B|432:144,1,75,4|0
344,176,30486,2,0,B|304:248,1,75
392,272,30903,1,8
392,272,31007,1,8
320,328,31215,2,0,B|296:296|296:296|288:320|288:320|256:272,1,112.5,8|0
176,192,31736,5,0
432,192,32153,1,8
216,328,32569,1,0
304,88,32986,1,8
392,328,33403,6,0,B|296:208,1,150,0|0
192,64,34236,2,0,B|264:160,2,112.5,8|0|0
352,64,35069,5,8
216,120,35278,1,0
368,120,35486,1,0
232,64,35694,1,0
336,168,35903,1,8
280,32,36111,1,0
288,184,36319,1,0
336,48,36528,1,0
232,176,36736,6,0,B|208:240|248:304|296:320,1,150,12|0
400,176,37569,1,8
408,224,37673,1,0
400,272,37778,1,0
376,312,37882,1,0
336,336,37986,1,0
80,320,38403,5,8
296,184,38819,1,0
40,184,39236,1,8
256,320,39653,1,0
168,80,40069,6,0,B|168:256,1,150,8|0
264,80,40902,1,0
256,128,41007,1,0
264,176,41111,1,0
288,216,41215,1,0
328,240,41319,1,8
328,240,41527,5,0
480,240,41736,1,0
352,320,41944,1,0
408,176,42152,1,8
452,320,42361,1,0
328,240,42569,5,0
480,240,42777,1,0
352,320,42986,1,8
408,176,43194,1,0
452,320,43402,1,0
256,192,43507,12,0,44652
256,192,45069,12,0,46319
256,80,46736,6,0,B|256:40,4,37.5,4|0|0|0|8
112,192,47569,2,0,B|72:192,4,37.5,0|0|0|0|8
256,304,48402,6,0,B|256:344,2,37.5,0|0|8
400,192,48819,2,0,B|440:192,2,37.5,0|0|8
256,192,49236,5,0
256,344,49444,1,0
256,192,49652,1,0
256,40,49861,1,0
112,120,50069,6,0,B|112:200,1,75,0|0
424,152,50902,6,0,B|424:56,1,75
336,104,51319,2,0,B|336:208,1,75
400,240,51736,2,0,B|352:280|272:272|264:264,2,112.5
448,312,52569,1,0
400,240,52777,1,0
448,160,52986,2,0,B|360:160,1,75
400,72,53402,6,0,B|488:72,1,75,0|0
184,336,54236,5,0
184,336,54444,2,0,B|248:288,2,75
152,248,55069,2,0,B|104:276|104:276|56:248,2,112.5
152,160,55902,1,0
104,80,56111,1,0
56,160,56319,1,0
104,336,56736,6,0,B|104:256,1,75,0|0
344,72,57569,6,0,B|256:72,1,75
304,152,57986,2,0,B|392:152,1,75
344,232,58402,2,0,B|304:232|304:232|312:248|312:248|248:248,2,112.5
384,312,59236,1,0
296,344,59444,1,0
208,312,59652,1,0
120,344,59861,1,0
120,256,60069,6,0,B|120:168,1,75,0|0
296,144,60902,6,0,B|344:112|408:104|424:104,2,112.5
224,88,61736,2,0,B|184:152,1,75
96,168,62152,2,0,B|136:232,1,75
48,248,62569,2,0,B|8:336,1,75
104,336,62986,1,0
192,320,63194,1,0
280,336,63402,6,0,B|280:248,1,75,4|0
184,56,64236,6,0,B|104:56,3,75
40,112,65069,1,0
16,152,65173,1,0
96,184,65382,1,0
120,224,65486,1,0
32,248,65694,1,0
96,312,65902,5,0
184,312,66111,1,0
96,312,66319,1,0
184,312,66527,1,0
272,312,66736,6,0,B|272:232,1,75,0|0
152,88,67569,6,0,B|112:128|80:200,2,112.5,0|0|0
224,136,68402,1,0
152,88,68611,1,0
224,136,68819,1,0
152,88,69027,1,0
240,56,69236,1,0
328,80,69444,1,0
392,144,69652,1,0
416,232,69861,1,0
416,232,70069,6,0,B|328:232,1,75,4|0
104,328,70902,6,0,B|72:248,1,75
168,256,71319,2,0,B|200:176,1,75,0|0
112,152,71736,2,0,B|104:64,1,75
192,104,72152,2,0,B|288:120,1,75
296,32,72569,2,0,B|392:16,1,75
384,112,72986,2,0,B|472:128,1,75
400,240,73402,6,0,B|392:304|312:320,2,112.5,4|0|0
312,240,74236,2,0,B|296:208|240:192|184:200|160:240,1,150,0|0
177,220,74861,5,0
48,296,75069,1,8
104,152,75277,1,0
152,296,75486,1,0
24,220,75694,1,0
24,128,75902,5,8
96,72,76111,1,0
184,64,76319,1,0
272,88,76527,1,0
336,152,76736,2,0,B|360:232|304:328|216:328|176:320|136:304,1,300,8|0
144,168,81736,5,4
144,168,81944,1,0
80,104,82153,1,0
80,104,82257,1,0
80,104,82361,1,0
144,40,82569,1,0
144,40,82673,1,0
208,104,82882,1,0
208,104,82986,1,0
306,105,83194,1,0
256,188,83403,6,0,B|256:340,1,150,4|0
64,336,84236,1,8
32,248,84444,2,0,B|32:184|80:128|128:128,1,150,0|0
232,48,85069,5,8
232,200,85278,1,0
176,64,85486,1,0
280,168,85694,1,0
144,112,85903,2,0,B|144:160|144:160|120:144|120:144|120:216,1,150,8|2
120,264,86423,1,2
120,312,86528,1,2
40,272,86736,6,0,B|56:304|104:336|200:320,1,150,0|8
248,272,87361,2,0,B|248:224|248:184,4,75,0|0|0|8|0
328,320,88403,2,0,B|400:352,1,75
400,256,88819,2,0,B|464:216,1,75,8|0
464,120,89236,2,0,B|448:80|416:56|416:56|416:80|416:80|384:48|352:32|352:32,1,150,0|8
381,50,89861,1,0
288,64,90069,6,0,B|216:40|152:72|128:120,1,150,4|8
64,136,90694,1,0
64,136,90798,1,0
64,136,90903,2,0,B|80:208|128:240|152:256,1,150,0|8
149,254,91423,1,0
149,254,91528,1,0
256,152,91736,5,0
184,288,91944,1,0
304,192,92153,1,8
232,328,92361,1,0
352,232,92569,1,2
352,232,92673,1,0
352,232,92778,1,0
352,232,92882,1,0
352,232,92986,1,2
472,80,93403,6,0,B|432:40|352:32|328:48,1,150,0|8
332,45,93923,1,0
332,45,94028,1,0
240,80,94236,2,0,B|208:120|256:176,1,75
336,152,94653,2,0,B|356:196|332:244,1,75,8|0
256,272,95069,5,0
208,272,95173,1,0
160,272,95278,1,0
88,200,95486,1,8
136,200,95590,1,0
184,200,95694,1,0
256,128,95903,1,0
208,128,96007,1,0
160,128,96111,1,0
112,128,96215,1,0
64,128,96319,1,8
256,128,96736,6,0,B|416:128|416:128,1,150,4|8
406,128,97361,1,0
408,224,97569,1,0
406,128,97778,1,0
408,224,97986,1,8
488,176,98194,1,0
392,176,98403,6,0,B|240:176,1,150,0|8
144,176,99028,1,0
120,216,99132,1,0
144,256,99236,1,0
120,296,99340,1,0
144,336,99444,1,0
232,296,99653,5,8
232,296,99757,1,0
232,296,99861,1,0
232,296,99965,1,0
232,296,100069,2,0,B|288:240|296:168|288:136,1,150,0|8
344,80,100694,1,0
384,104,100798,1,0
408,144,100903,2,0,B|432:192|432:272|392:304,1,150,0|8
406,288,101528,5,0
256,288,101736,1,0
392,224,101944,1,0
296,336,102153,1,8
336,192,102361,1,0
360,344,102569,1,0
168,344,102986,6,0,B|168:272|168:272|152:296|152:296|152:224,1,150,8|4
152,246,103611,1,0
54,246,103819,2,0,B|38:206|38:158|62:118|94:94,2,150,8|0|8
104,336,104861,1,0
200,336,105069,2,2,B|200:296,2,37.5
296,304,105486,2,2,B|264:256,2,37.5
360,224,105903,2,2,B|320:208,2,37.5
392,128,106319,5,8
360,32,106528,1,0
264,64,106736,1,0
296,160,106944,1,0
200,160,107153,5,8
200,256,107361,1,0
296,256,107569,1,0
296,160,107778,5,0
392,160,107986,1,8
392,64,108194,1,0
296,64,108403,2,0,B|280:80|280:80|264:64|264:64|248:80|248:80|232:64|232:64|216:80|216:80|200:64|200:64|184:80|184:80|168:64|168:64|152:80|152:80|136:64|136:64|120:80|120:80|104:64|104:64|88:80|88:80|72:64|72:64,1,300,0|8
40,264,109653,6,0,B|128:264,1,75,8|0
192,200,110069,2,0,B|104:200,1,75,4|0
192,264,110486,2,0,B|288:264,1,75,8|0
344,200,110903,2,0,B|256:200,1,75,0|0
344,264,111319,2,0,B|424:264,1,75,8|0
416,168,111736,5,0
416,168,111840,1,0
416,168,111944,1,2
344,96,112153,1,0
344,96,112257,1,0
344,96,112361,1,2
272,168,112569,1,0
272,168,112673,1,0
272,168,112778,1,2
272,168,112986,1,4
96,96,113403,6,0,B|48:144|40:224,2,112.5,6|0|2
176,40,114236,5,0
312,96,114444,1,0
176,152,114653,1,0
256,192,115065,12,0,117839
256,192,124775,6,0,B|256:144,14,37.5
104,192,126163,5,0
176,88,126336,1,0
256,192,126510,1,8
176,292,126683,1,0
408,192,126856,5,0
336,296,127030,1,0
256,192,127203,1,8
336,92,127377,1,0
256,128,127550,6,0,B|256:40,1,75
320,192,127897,2,0,B|416:192,1,75,8|0
256,256,128244,2,0,B|256:352,1,75
192,192,128591,2,0,B|112:192,1,75,8|0
24,192,128937,5,4
32,168,129024,1,0
48,144,129111,1,0
72,128,129197,1,0
96,120,129284,2,0,B|112:112|136:112,3,37.5,8|0|0|0
160,112,129631,5,0
184,120,129718,1,0
208,120,129804,1,0
232,112,129891,1,0
256,104,129978,2,0,B|272:96|296:96,3,37.5,8|0|0|0
320,104,130325,2,0,B|344:112|368:112,3,37.5,0|0|0|0
384,104,130671,2,0,B|408:96|424:96,3,37.5,8|0|0|0
448,96,131018,5,0
488,216,131192,1,0
376,280,131365,2,0,B|344:312|264:264|224:280,1,150,12|0
152,224,131885,6,0,B|104:176|96:144|96:144,2,75,0|8|0
224,168,132406,2,0,B|224:192|224:192|280:224,1,75
296,120,132752,2,0,B|320:72|320:72|312:48,1,75,8|0
224,64,133099,6,0,B|128:64,1,75
149,64,133446,2,0,B|88:128,1,75,8|0
97,118,133793,2,0,B|96:216,1,75
96,193,134140,1,8
272,160,134486,5,0
312,144,134573,1,0
352,160,134660,1,0
392,144,134747,1,0
432,160,134833,1,8
288,264,135180,1,0
248,280,135267,1,0
208,264,135354,1,0
168,280,135440,1,0
128,264,135527,1,8
112,88,135874,6,0,B|144:168,1,75
224,200,136221,2,0,B|248:112,1,75,8|0
328,88,136567,2,0,B|376:128,4,37.5,2|0|0|0|2
464,200,137261,6,0,B|464:160,3,37.5
464,200,137608,2,0,B|456:280|408:304|360:296,1,150
372,297,138128,1,8
372,297,138301,1,8
192,304,138648,6,0,B|128:248,1,75,2|0
224,232,138995,2,0,B|224:152,1,75,0|0
136,160,139342,2,0,B|112:88,1,75,2|0
200,80,139689,2,0,B|272:40,1,75,0|0
352,80,140036,5,0
360,120,140122,1,0
368,160,140209,1,0
376,200,140296,1,0
384,240,140382,1,8
216,304,140729,6,0,B|144:336|88:280,2,112.5
136,264,141423,2,0,B|72:224,1,75,2|0
160,216,141770,2,0,B|136:128,1,75,0|0
208,200,142117,2,0,B|256:128,1,75,2|0
256,224,142463,2,0,B|352:208,1,75,0|0
328,120,142810,5,0
144,120,143157,1,0
64,280,143504,1,0
104,288,143591,1,0
144,296,143677,1,0
184,304,143764,1,0
224,312,143851,1,0
312,312,144024,6,0,B|312:240|312:240|328:256|328:256|328:192,1,150,2|0
480,200,144544,1,2
392,80,144718,1,0
304,200,144891,1,0
304,48,145065,5,0
392,168,145238,1,2
480,48,145411,1,0
392,168,145585,2,0,B|392:216,1,37.5,2|0
168,168,145932,6,0,B|216:240|288:224,2,112.5
168,168,146625,1,2
48,256,146799,1,0
88,240,146885,1,0
128,256,146972,1,2
128,344,147145,1,0
168,360,147232,1,0
208,344,147319,1,2
208,256,147492,5,0
248,240,147579,1,0
288,256,147666,1,8
312,296,147752,1,0
352,312,147839,1,0
392,296,147926,1,8
416,256,148012,1,0
456,240,148099,1,0
496,256,148186,1,8
480,168,148359,6,0,B|440:136|440:136|440:160|440:160|376:112,1,150
336,32,148880,1,0
296,40,148966,1,0
256,64,149053,2,0,B|208:96|208:184|240:208,1,150
168,256,149573,5,0
168,256,149660,1,0
168,256,149747,1,2
96,312,149920,1,0
96,312,150007,1,0
96,312,150093,1,2
24,256,150267,1,0
24,256,150354,1,0
24,256,150440,1,2
24,256,150527,1,0
24,256,150614,1,0
24,256,150700,1,0
24,256,150787,1,2
96,200,150960,5,0
96,152,151047,1,0
96,104,151134,2,0,B|256:104,1,150
416,48,151828,2,0,B|472:88|464:152,2,112.5,2|0|0
352,112,152521,6,0,B|352:192,1,75,8|0
272,152,152868,2,0,B|272:64,1,75
192,112,153215,2,0,B|192:200,2,75,8|0|0
64,240,153908,6,0,B|96:296|168:304,2,112.5,2|0|0
48,152,154602,1,8
96,152,154689,1,0
144,152,154775,1,0
192,152,154862,1,0
240,152,154949,1,0
240,152,155122,5,0
392,152,155296,1,8
264,232,155469,1,0
312,88,155643,1,0
368,232,155816,1,0
240,152,155989,5,8
392,152,156163,1,0
264,232,156336,1,0
312,88,156510,1,0
368,232,156683,1,8
112,80,157030,6,0,B|112:200,2,112.5,2|0|0
112,80,157723,1,8
200,48,157897,1,0
200,48,158070,1,0
288,80,158244,1,0
288,80,158417,1,8
336,152,158591,1,0
336,152,158764,1,0
288,224,158937,1,0
288,224,159111,1,8
200,248,159284,1,0
200,248,159371,1,0
200,248,159458,1,4
256,192,159544,12,0,161885
144,96,162579,5,0
368,288,162926,1,0
192,64,163273,5,0
320,320,163619,1,0
248,56,163966,5,0
264,328,164313,1,0
304,64,164660,5,0
212,304,165007,1,0
256,192,165093,12,0,167434
101,258,168128,5,0
101,258,168301,1,0
176,304,168475,1,0
176,304,168648,1,0
256,256,168822,1,0
256,256,168995,1,0
176,208,169169,6,0,B|176:304,1,75
176,208,169515,2,0,B|176:112,1,75
176,88,169775,1,0
176,40,169862,1,0
344,136,170209,5,8
408,64,170382,1,0
472,136,170556,2,0,B|472:304,1,150,4|8
376,288,171076,5,0
376,288,171163,1,0
376,288,171249,2,0,B|312:336|224:320|232:320,1,150,0|8
233,320,171683,1,0
233,320,171770,1,0
144,272,171943,6,0,B|80:192,1,75,0|0
8,168,172290,2,0,B|80:88,1,75,8|0
152,136,172637,2,0,B|144:32,1,75,0|0
240,88,172984,5,8
240,88,173070,1,0
240,88,173157,1,0
240,88,173244,1,0
240,88,173330,2,0,B|320:80|384:152,1,150,4|8
472,168,173851,1,0
472,168,173937,1,0
472,168,174024,2,0,B|424:256|336:232,1,150,0|8
350,235,174544,1,0
280,168,174718,6,0,B|232:152|232:152|200:168,1,75,0|0
240,256,175065,2,0,B|224:272|224:272|152:248,1,75,8|0
128,240,175325,1,0
80,224,175411,1,0
152,48,175758,6,0,B|176:80|224:96|264:80|296:24,2,150,8|0|8
80,112,176625,1,0
80,112,176712,1,0
80,112,176799,2,0,B|112:192,1,75
296,144,177319,5,0
296,144,177492,1,4
368,208,177666,1,0
368,208,177839,1,8
296,272,178012,1,0
296,272,178186,1,0
296,272,178359,1,0
200,272,178533,5,8
120,216,178706,1,0
72,128,178880,1,0
72,32,179053,1,0
72,32,179226,5,8
72,128,179400,1,0
120,216,179573,1,0
200,272,179747,1,0
296,272,179920,1,8
296,272,180093,1,0
384,232,180267,5,0
368,208,180354,1,0
376,184,180440,1,0
360,168,180527,1,0
368,144,180614,2,0,B|312:120,3,37.5,8|0|0|0
312,120,180960,2,0,B|256:128,3,37.5,8|0|0|0
248,136,181307,2,0,B|184:128,4,37.5,8|0|0|0|8
160,192,182001,5,2
160,192,182088,1,0
160,192,182174,1,0
160,192,182261,1,0
160,192,182348,2,0,B|176:256|120:312|72:304,1,150,6|8
184,336,182868,1,0
280,304,183041,1,0
376,336,183215,1,0
472,304,183388,5,8
376,280,183562,1,0
280,304,183735,1,0
184,280,183908,1,0
88,304,184082,1,8
48,216,184255,5,0
48,216,184342,1,0
48,216,184429,2,0,B|24:152|56:80|88:72,1,150,0|8
160,128,184949,1,0
160,128,185036,1,0
160,128,185122,2,0,B|208:96|280:104|328:152,1,150,0|8
301,131,185643,1,0
360,216,185816,5,0
304,296,185989,1,0
248,216,186163,1,8
192,296,186336,1,0
136,216,186510,1,0
80,136,186856,5,8
96,112,186943,1,0
120,104,187030,1,0
144,104,187117,1,0
168,112,187203,2,0,B|208:136,3,37.5,0|0|0|0
224,120,187550,6,0,B|272:112,1,37.5,8|0
288,120,187723,2,0,B|344:144,1,37.5
352,128,187897,2,0,B|408:112,1,37.5,0|0
416,128,188070,2,0,B|464:144,1,37.5
464,168,188244,2,0,B|424:224,4,37.5,8|0|0|0|0
304,280,188937,5,2
112,280,189284,1,2
40,96,189631,6,0,B|40:176,1,75,8|0
128,136,189978,2,0,B|128:56,1,75
216,96,190325,2,0,B|216:184,1,75,8|0
304,136,190671,2,0,B|304:40,1,75
392,96,191018,2,0,B|392:184,1,75,8|0
344,256,191365,5,2
320,256,191452,1,0
296,248,191538,1,0
272,240,191625,1,0
248,232,191712,1,2
224,240,191799,1,0
200,248,191885,1,0
176,256,191972,1,0
152,256,192059,1,2
88,72,192406,6,0,B|32:104,2,37.5,8|0|0
88,72,192752,2,0,B|128:96,2,37.5
88,72,193099,2,0,B|88:24,2,37.5,8|0|0
88,168,193446,6,0,B|88:256,1,75
184,216,193793,2,0,B|240:272,1,75,8|0
288,184,194140,2,0,B|368:184,1,75
336,88,194486,2,0,B|408:48,1,75,8|0
440,144,194833,2,0,B|440:240,2,75,2|0|2
440,144,195527,5,0
368,328,195874,1,0
296,144,196221,1,0
296,144,196394,1,0
296,144,196567,1,8
224,328,196914,5,0
152,144,197261,1,0
80,328,197608,1,0
80,328,197781,1,0
80,328,197955,1,8
16,144,198301,6,0,B|16:96|64:48|128:64,1,150
208,64,199342,5,0
160,136,199689,2,0,B|160:184|208:232|272:216,1,150,0|0
312,144,200729,5,0
360,216,201076,2,0,B|360:264|312:312|248:296,1,150
208,224,202117,5,0
152,296,202463,2,0,B|152:248|104:200|40:216,1,150
256,192,203504,5,4
256,192,203677,1,4
256,192,203851,1,4
256,192,203937,12,4,209400
