osu file format v9

[General]
AudioFilename: Ikasama Life Game.mp3
AudioLeadIn: 0
PreviewTime: 58789
Countdown: 0
SampleSet: Normal
StackLeniency: 0.4
Mode: 0
LetterboxInBreaks: 1

[Editor]
Bookmarks: 19260,78060,78889,87660,135660,140460,148785,178860,188460,219660
DistanceSpacing: 1
BeatDivisor: 4
GridSize: 16

[Metadata]
Title:Ikasama Life Game
Artist:Megpoid GUMI
Creator:manten
Version:Normal
Source:kemu
Tags:vocaloid AngelHoney wring Backfire Love

[Difficulty]
HPDrainRate:2
CircleSize:3
OverallDifficulty:2
ApproachRate:2
SliderMultiplier:0.999999999999999
SliderTickRate:1

[Events]
//Background and Video events
Video,0,"movie.AVI"
0,0,"BG.png"
//Break Periods
2,78263,86104
2,179064,186904
//Storyboard Layer 0 (Background)
//Storyboard Layer 1 (Fail)
//Storyboard Layer 2 (Pass)
//Storyboard Layer 3 (Foreground)
//Storyboard Sound Samples
//Background Colour Transformations
3,100,163,162,255

[TimingPoints]
10864,300,4,1,1,90,1,0
30139,-100,4,1,2,70,0,0
39589,-100,4,1,1,80,0,0
48739,-100,4,1,2,80,0,0
49189,-100,4,1,1,80,0,0
50239,-100,4,1,2,80,0,0
51589,-100,4,1,1,80,0,0
52639,-100,4,1,2,80,0,0
53989,-100,4,1,1,80,0,0
55039,-100,4,1,2,80,0,0
56389,-100,4,1,2,70,0,0
57664,-100,4,1,2,90,0,0
58864,-100,4,1,1,100,0,1
58939,-100,4,1,1,100,0,0
87739,-100,4,1,2,70,0,0
95839,-100,4,1,2,50,0,0
96739,-100,4,1,1,90,0,0
106264,-100,4,1,2,90,0,0
106789,-100,4,1,1,80,0,0
107839,-100,4,1,2,80,0,0
109189,-100,4,1,1,80,0,0
110314,-100,4,1,2,80,0,0
111589,-100,4,1,1,80,0,0
112639,-100,4,1,2,80,0,0
113989,-100,4,1,2,50,0,0
115189,-100,4,1,2,90,0,0
116464,-100,4,1,1,100,0,1
116539,-100,4,1,1,100,0,0
135664,-100,4,2,0,100,0,0
140089,-100,4,1,2,80,0,0
153889,-100,4,1,2,70,0,0
154189,-100,4,1,2,80,0,0
154489,-100,4,1,2,90,0,0
154789,-100,4,1,1,80,0,0
159664,-100,4,1,1,100,0,0
188389,-100,4,1,2,70,0,0
195664,-100,4,2,2,60,0,0
196789,-100,4,1,2,90,0,0
198064,-100,4,1,1,100,0,1
198139,-100,4,1,1,100,0,0

[Colours]
Combo1 : 128,0,128
Combo2 : 255,0,0
Combo3 : 255,128,0

[HitObjects]
80,128,20164,1,8
160,192,20464,2,0,B|240:240|384:208|432:128,1,300,4|8
384,48,21664,2,0,B|288:96|272:224|400:288,1,300,0|8
480,336,22864,2,0,B|384:320|320:352,2,150,0|8|8
512,240,24064,2,0,B|448:192|448:192|384:224|304:224|256:176|256:128,1,300,0|8
240,48,25264,6,0,B|304:96|336:176|288:288|224:320,1,300,4|8
160,368,26464,2,0,B|240:288|352:304|432:224,1,300,0|8
464,144,27664,6,0,B|384:128|320:96,2,150,0|8|8
480,240,28864,2,0,B|384:192|304:256|304:256|368:320|288:352,1,300,0|8
208,368,30064,6,0,B|16:304,1,200,4|0
80,224,30964,2,0,B|176:192,1,99.9999999999999,8|0
272,176,31564,2,0,B|176:160|80:96,1,200,8|8
16,32,32464,6,0,B|96:96|80:224|80:224|160:272,1,300,0|8
208,368,33664,2,0,B|288:320|352:320,2,150,0|8|8
112,368,34864,6,0,B|128:256|80:160,1,200,4|0
32,80,35764,2,0,B|144:48,1,99.9999999999999,8|0
192,128,36364,2,0,B|272:80|336:64,2,150,8|0|8
112,176,37564,6,0,B|208:144|320:176,1,200,4|8
400,224,38464,2,0,B|336:176|240:192|160:256|160:336,1,300,4|8
64,352,39664,6,0,B|64:256|32:144,1,200,4|8
48,48,40564,2,0,B|112:64|160:64,1,99.9999999999999,0|8
240,48,41164,6,0,B|144:128|144:240,1,200,0|8
128,320,42064,2,0,B|160:208|272:160|384:192,1,300,0|8
432,112,43264,2,0,B|336:96|288:32,2,150,0|8|8
480,192,44464,1,4
384,240,44764,6,0,B|272:272,1,99.9999999999999,0|8
208,208,45364,2,0,B|112:240,1,99.9999999999999,0|8
16,272,45964,2,0,B|112:256|224:304,1,200,0|8
304,336,46864,6,0,B|240:288|240:176|320:96|384:96,1,300,0|12
464,96,48064,2,0,B|384:80|304:32,1,150,0|8
224,48,48814,2,0,B|64:80,2,150,8|8|8
416,160,50314,6,0,B|256:192,1,150,0|8
176,208,51064,1,0
96,272,51364,1,8
192,304,51664,2,0,B|352:336,1,150,8|8
464,176,52714,6,0,B|304:144,1,150,0|8
224,128,53464,1,0
128,112,53764,1,8
32,96,54064,2,0,B|112:128|160:208,1,150,8|8
240,368,55114,6,0,B|256:288|320:224,1,150,0|8
400,208,55864,1,8
496,176,56164,1,8
416,112,56464,6,0,B|480:192|480:304,2,200,0|8|12
336,48,57964,1,8
240,80,58264,1,8
144,112,58564,1,8
48,144,58864,6,0,B|128:176|192:224,1,150,4|8
256,272,59614,1,0
336,336,59914,2,0,B|384:304|432:288,1,99.9999999999999,0|8
512,240,60514,2,0,B|448:208|384:128,1,150,0|8
352,48,61264,6,0,B|272:80|192:80,1,150,0|8
112,80,62014,1,0
48,160,62314,2,0,B|128:160|208:208|256:304,1,250,0|8
336,336,63364,6,0,B|448:320,1,99.9999999999999,0|4
256,80,64564,2,0,B|144:96,1,99.9999999999999,0|0
336,336,65764,5,8
240,288,66064,2,0,B|176:256|80:240,1,150,0|0
32,160,66814,1,8
128,128,67114,2,0,B|208:112|272:64,1,150,8|4
368,64,67864,1,8
512,208,68464,6,0,B|432:224|384:288,1,150,4|8
320,368,69214,1,0
224,352,69514,2,0,B|112:320,1,99.9999999999999,0|8
80,240,70114,2,0,B|160:240|240:208,1,150,0|8
320,176,70864,6,0,B|224:224|160:320,1,200,0|8
112,112,72064,2,0,B|224:64,1,99.9999999999999
288,32,72664,1,8
464,144,73264,6,0,B|368:176|304:272,1,200,4|8
112,288,74464,2,0,B|208:240|256:144,1,200,0|8
64,64,75664,5,4
256,48,76264,1,4
432,144,76864,2,0,B|320:192,1,99.9999999999999,12|8
288,272,77464,2,0,B|384:304,2,99.9999999999999,8|0|4
32,320,87664,6,0,B|128:304|240:320,1,200,4|0
320,368,88564,2,0,B|432:336,1,99.9999999999999,8|0
464,256,89164,2,0,B|352:240|272:160,1,200,8|8
240,80,90064,6,0,B|304:160|224:208|224:208|144:256|224:336,1,300,0|8
320,368,91264,2,0,B|384:336|480:336,2,150,0|8|8
288,272,92464,6,0,B|224:192|112:160,1,200,4|0
48,96,93364,2,0,B|144:48,1,99.9999999999999,8|0
224,96,93964,2,0,B|352:144|480:96,1,250,8|8
112,288,95914,6,0,B|320:352,1,200
320,240,96814,2,0,B|480:208,1,150,4|4
496,112,97564,6,0,B|400:80,1,99.9999999999999,8|0
304,48,98164,2,0,B|192:80,1,99.9999999999999,8|0
112,112,98764,2,0,B|224:96|304:160,1,200,8|8
384,224,99664,6,0,B|480:192,1,99.9999999999999,0|8
464,96,100264,1,0
368,64,100564,1,8
272,32,100864,6,0,B|176:64|112:64,2,150,0|0|8
368,64,102064,1,4
416,144,102364,6,0,B|448:240,1,99.9999999999999,8|0
480,336,102964,2,0,B|368:320,1,99.9999999999999,8|0
288,320,103564,2,0,B|192:320|80:352,1,200,8|8
32,272,104464,6,0,B|80:160|240:192|256:80,1,300,0|4
352,48,105664,2,0,B|384:112|464:144,1,150,0|8
512,224,106414,2,0,B|432:240|368:272,2,150,8|12|8
368,368,107914,6,0,B|208:336,1,150,0|8
128,320,108664,1,0
32,288,108964,1,8
112,224,109264,2,0,B|256:144,1,150,8|8
400,272,110314,6,0,B|320:288|240:336,1,150,4|8
176,368,111064,1,0
96,320,111364,1,8
112,224,111664,2,0,B|144:144|112:64,1,150,8|8
304,32,112714,6,0,B|272:112|320:192,1,150,0|8
384,240,113464,1,0
464,304,113764,1,8
368,336,114064,6,0,B|272:336|160:368,2,200,0|0|8
304,256,115564,1,8
208,240,115864,1,8
112,224,116164,1,8
16,208,116464,6,0,B|96:192|176:144,1,150,4|8
240,96,117214,1,0
320,32,117514,2,0,B|432:64,1,99.9999999999999,0|8
480,144,118114,2,0,B|400:160|336:208,1,150,0|8
320,304,118864,6,0,B|256:256|160:256,1,150,0|8
80,256,119614,1,0
128,176,119914,2,0,B|256:176|368:80,1,250,0|8
464,80,120964,6,0,B|432:192,1,99.9999999999999,0|4
192,352,122164,2,0,B|224:256,1,99.9999999999999
464,80,123364,6,0,B|432:192,1,99.9999999999999,8|0
368,256,123964,2,0,B|288:256|208:304,1,150,0|8
128,320,124714,2,0,B|208:272|224:208,1,150,8|4
224,112,125464,1,12
288,304,126064,6,0,B|368:272|448:288,1,150,4|8
480,192,126814,2,0,B|368:176,2,99.9999999999999,0|0|8
480,96,127714,2,0,B|400:80|336:48,1,150,0|8
240,32,128464,6,0,B|160:80|48:96,1,200,0|8
112,288,129664,2,0,B|208:240,1,99.9999999999999
288,192,130264,1,8
192,144,130564,6,0,B|96:112,1,99.9999999999999,0|4
352,272,131764,2,0,B|448:304,1,99.9999999999999
256,64,132964,6,0,B|144:80,1,99.9999999999999,0|4
96,160,133564,2,0,B|128:208|128:272,1,99.9999999999999,0|4
208,320,134164,2,0,B|304:272|416:288,1,200,0|8
464,208,135064,2,0,B|368:176,2,99.9999999999999,0|8|4
464,160,140464,6,0,B|384:144|352:64|352:64|256:208|208:16|160:64|160:64|144:64,1,400,4|0
48,240,142264,1,8
224,336,142864,6,0,B|272:288|352:304|352:304|336:224|400:176|400:176|352:128|272:144,1,400,8|0
96,112,144664,1,8
80,304,145264,6,0,B|144:352|176:256|176:256|304:224|256:320|256:320|320:288|384:336,1,400,4|0
464,144,147064,1,8
288,32,147664,6,0,B|224:112|128:64|128:64|96:144|208:192|80:272,1,400,8|4
32,336,149164,1,8
128,352,149464,1,8
224,368,149764,1,8
320,384,150064,6,0,B|304:288|432:288|432:288|368:240|400:160,1,300,12|8
432,80,151264,6,0,B|384:144|288:144|288:144|224:96|160:144,1,300,0|8
80,208,152464,6,0,B|176:240|224:288,1,150,0|8
256,368,153214,2,0,B|416:304,1,150,8|0
480,256,153964,1,12
400,208,154264,1,12
320,160,154564,1,12
240,112,154864,6,0,B|160:160|48:160,1,200,4|8
160,320,156064,2,0,B|256:288|368:320,1,200,0|8
480,160,157264,6,0,B|368:176|272:112,1,200,4|4
192,304,158464,2,0,B|272:249|383:265,1,200,4|4
208,176,159664,6,0,B|48:160,2,150,4|0|8
304,160,160864,2,0,B|416:128,1,99.9999999999999,0|8
480,192,161464,2,0,B|400:224|352:304,2,150,0|0|8
496,96,162664,1,0
400,64,162964,1,8
304,112,163264,2,0,B|192:144,1,99.9999999999999,0|8
144,224,163864,2,0,B|256:256,1,99.9999999999999,0|8
336,288,164464,6,0,B|240:256|128:304,1,200
48,336,165364,1,8
64,240,165664,2,0,B|128:48,1,200,0|0
224,48,166564,6,0,B|432:64,2,200,8|0|8
128,32,168064,1,0
160,128,168364,1,8
192,224,168664,2,0,B|224:320,1,99.9999999999999
320,336,169264,5,4
448,176,169864,1,8
288,48,170464,2,0,B|80:80,1,200,0|0
48,160,171364,1,8
112,224,171664,6,0,B|192:240|256:304,1,150,0|8
336,336,172414,2,0,B|448:304,1,99.9999999999999,0|0
400,208,173014,2,0,B|240:160,1,150,8|8
112,288,174064,6,0,B|224:320,1,99.9999999999999,4|0
304,272,174664,2,0,B|416:304,1,99.9999999999999
400,192,175264,2,0,B|288:160,1,99.9999999999999
256,80,175864,2,0,B|160:48,1,99.9999999999999
256,192,176464,12,4,178864
480,320,188464,6,0,B|368:272|224:304,1,250,4|8
160,368,189514,2,0,B|48:336,1,99.9999999999999,0|8
48,240,190114,2,0,B|128:224|192:176,1,150,0|8
192,80,190864,6,0,B|288:112|400:96,1,200,0|8
448,288,192064,2,0,B|336:272|240:336,1,200,0|8
160,352,192964,6,0,B|64:320,1,99.9999999999999
256,80,194164,2,0,B|368:112,1,99.9999999999999
128,336,195664,6,0,B|208:288|288:352|288:352|304:240|368:272,1,300,0|0
448,304,196864,2,0,B|336:256|272:176,1,200,0|8
112,288,198064,6,0,B|192:272|272:288,1,150,4|8
320,368,198814,1,0
416,336,199114,2,0,B|480:256,1,99.9999999999999,0|8
496,160,199714,2,0,B|416:160|336:128,1,150,0|8
256,96,200464,6,0,B|320:144|368:224,1,150,0|0
416,288,201214,1,8
320,304,201514,2,0,B|192:256|64:304,1,250,0|8
32,208,202564,6,0,B|128:160,1,99.9999999999999,0|4
400,288,203764,2,0,B|304:336,1,99.9999999999999
96,128,204964,6,0,B|192:80,1,99.9999999999999,8|0
272,48,205564,2,0,B|336:96|432:96,1,150,8|0
464,176,206314,2,0,B|384:192|320:256,1,150,8|4
272,320,207064,1,8
336,128,207664,6,0,B|256:112|176:64,1,150,4|8
112,32,208414,1,0
48,112,208714,2,0,B|96:144|112:192,1,99.9999999999999,0|8
144,288,209314,2,0,B|224:256|304:272,1,150,0|8
384,304,210064,6,0,B|288:272|224:160,1,200,0|8
96,320,211264,2,0,B|208:304,2,99.9999999999999,0|0|8
80,224,212164,6,0,B|128:112,1,99.9999999999999,0|4
400,224,213364,2,0,B|448:320,1,99.9999999999999
144,288,214564,5,0
224,240,214864,2,0,B|320:208|416:128,1,200,4|4
464,64,215764,1,0
368,48,216064,2,0,B|256:32,1,99.9999999999999,8|8
176,64,216664,1,8
160,256,217264,6,0,B|48:288,2,99.9999999999999,8|8|8
256,224,218164,1,0
352,192,218464,2,0,B|240:192|160:144,1,200,8|8
80,80,219364,1,0
176,48,219664,1,4
