osu file format v9

[General]
AudioFilename: GUMIFor_my_soulPV_re.mp3
AudioLeadIn: 1000
PreviewTime: 49341
Countdown: 0
SampleSet: Normal
StackLeniency: 0.7
Mode: 0
LetterboxInBreaks: 1

[Editor]
DistanceSpacing: 0.8
BeatDivisor: 4
GridSize: 8

[Metadata]
Title:For my soul
Artist:Megpoid GUMI
Creator:val0108
Version:Normal
Source:Vocaloid
Tags:junky Parmy darubisshuP karu

[Difficulty]
HPDrainRate:4
CircleSize:3
OverallDifficulty:4
ApproachRate:4
SliderMultiplier:1
SliderTickRate:1

[Events]
//Background and Video events
0,0,"GUMI.jpg"
Video,0,"asdasd.AVI"
//Break Periods
2,74195,84675
2,101352,109938
2,141774,145306
//Storyboard Layer 0 (Background)
//Storyboard Layer 1 (Fail)
//Storyboard Layer 2 (Pass)
//Storyboard Layer 3 (Foreground)
//Storyboard Sound Samples
//Background Colour Transformations
3,100,163,162,255

[TimingPoints]
732,315.789473684211,4,1,0,74,1,0
49363,-100,4,1,0,72,0,1
69574,-100,4,1,0,66,0,0
73916,-100,4,1,0,14,0,0
74074,-100,4,1,0,81,0,0
146626,-200,4,1,0,66,0,0
156732,-100,4,1,0,65,0,1
176942,-100,4,1,0,68,0,0

[Colours]
Combo1 : 191,96,0
Combo2 : 183,0,91
Combo3 : 0,0,213
Combo4 : 0,181,0

[HitObjects]
72,128,24100,2,0,B|144:56|144:56|256:56,1,200
320,80,25047,1,8
384,128,25363,2,0,B|384:240|384:240|304:304,1,200
232,296,26310,1,8
152,296,26626,2,0,B|48:296,2,100
144,136,27889,6,2,B|256:136,1,100
232,216,28521,2,2,B|352:216,1,100
416,216,29153,2,0,B|416:96,2,100
304,328,30416,5,0
256,264,30732,1,0
184,224,31047,1,0
120,184,31363,1,0
64,128,31679,2,0,B|168:72|272:128,1,200
256,120,32942,1,8
256,120,33574,1,8
256,120,34205,5,2
256,280,34837,2,0,B|208:176|88:232,1,200
88,72,36100,1,2
256,120,36732,5,8
256,280,37363,2,0,B|304:176|424:232,1,200
424,72,38626,1,2
432,232,39258,6,0,B|456:360|288:320,1,200
344,168,40521,2,0,B|256:96|144:152,1,200
56,272,41784,6,0,B|-8:176|112:88,1,200
240,24,43047,2,0,B|272:136|160:208,1,200
120,256,43995,1,2
168,320,44310,6,0,B|384:320,1,200
416,256,45258,1,0
368,192,45574,2,0,B|152:192,1,200
120,128,46521,1,0
168,64,46837,6,0,B|368:64,1,200
424,128,47784,1,0
368,184,48100,2,0,B|168:184,1,200
168,184,49047,1,0
96,112,49363,5,0
96,112,49679,1,8
72,192,49995,1,0
72,192,50310,1,8
96,272,50626,1,0
96,272,50942,1,8
160,328,51258,6,2,B|288:328|360:256,1,200
456,152,52521,2,2,B|392:64|280:40,1,200
256,200,53784,5,0
256,200,54100,1,0
256,280,54416,6,0,B|368:280,1,100,0|8
360,200,55047,2,0,B|360:96,1,100,0|8
280,96,55679,2,0,B|176:96,1,100,0|8
176,176,56310,2,2,B|176:288,1,100,2|10
128,336,56942,6,0,B|48:192|128:32,1,300,0|8
200,56,58205,2,0,B|128:184|216:352,1,300,0|8
256,256,59468,6,0,B|360:256,1,100,0|8
304,192,60100,2,0,B|192:192,1,100,0|8
256,128,60732,2,0,B|368:128,1,100,0|8
352,48,61363,1,2
272,48,61679,1,10
192,48,61995,6,0,B|192:160|376:288,1,300,0|8
304,336,63258,2,0,B|128:200|120:88,1,300,0|8
56,104,64521,6,0,B|56:224,1,100,0|8
120,152,65153,2,0,B|120:264,1,100,0|8
120,336,65784,2,0,B|224:336,1,100,0|8
224,256,66416,1,2
224,176,66732,1,10
264,104,67047,6,0,B|368:136,3,100,0|8|0|8
376,208,68310,2,0,B|272:240,3,100,0|8|0|8
200,256,69573,6,0,B|88:128,2,150
256,192,70837,12,0,73995
96,296,85995,6,0,B|208:296,1,100,0|8
280,296,86626,2,0,B|384:296,1,100,0|8
440,240,87258,2,0,B|440:120,1,100,0|8
440,56,87889,1,2
360,56,88205,1,10
304,112,88521,6,0,B|224:184,1,100,0|8
240,96,89153,2,0,B|136:112,1,100,0|8
192,48,89784,2,0,B|80:48,1,100,0|8
48,112,90416,2,2,B|48:176,4,50
112,256,91679,5,0
272,256,92310,1,0
192,120,92942,1,0
320,24,93574,6,0,B|416:144|328:320,1,300,0|8
256,312,94837,2,0,B|160:192|248:16,1,300,0|8
160,32,96100,1,2
120,184,96732,6,2,B|320:184,1,200
400,184,97679,1,8
480,184,97995,1,8
400,184,98310,1,8
320,184,98626,1,8
120,184,99258,6,2,B|320:184,1,200
320,264,100205,1,0
240,264,100521,1,0
160,264,100837,1,0
80,264,101152,1,0
256,192,111258,5,0
256,192,113784,1,0
328,176,115047,5,0
296,104,115363,1,0
216,104,115679,1,0
184,176,115995,1,0
256,208,116310,2,0,B|256:360,1,150,2|2
256,192,116942,8,0,118837
192,72,119468,6,0,B|128:152,1,100
184,208,120100,2,0,B|256:280,1,100
296,208,120732,1,0
368,248,121047,1,0
376,160,121363,2,2,B|368:88|352:64|304:40|136:88,1,300
80,144,122626,1,0
40,216,122942,1,0
40,296,123258,2,2,B|144:296,1,100
144,216,123889,5,0
200,272,124205,1,0
272,240,124521,1,0
320,304,124837,1,0
400,288,125153,2,2,B|472:176|376:40|176:48,1,400
256,192,128942,5,4
256,192,131468,6,0,B|144:192,1,100
256,192,132100,2,0,B|256:88,1,100
256,192,132732,2,0,B|368:192,1,100
256,192,133363,2,2,B|256:312,1,100
156,192,133995,6,0,B|256:192,1,100
256,92,134626,2,0,B|256:192,1,100
356,192,135258,2,0,B|256:192,1,100
256,192,135889,1,2
256,192,136205,1,2
256,192,136521,8,0,141574
344,112,146626,6,0,B|312:64,1,50
264,64,147258,2,0,B|208:88,1,50
216,136,147889,2,0,B|264:160,1,50
256,208,148521,1,2
224,248,148837,1,2
224,296,149153,6,0,B|264:336,1,50
312,328,149784,2,0,B|352:296,1,50
392,264,150416,2,2,B|392:64,1,200
296,64,152310,6,0,B|240:64,1,50
192,64,152942,2,0,B|136:64,1,50
88,64,153574,2,2,B|32:64,1,50
40,112,154205,6,0,B|96:112,1,50
144,112,154837,2,0,B|200:112,1,50
248,112,155468,2,0,B|304:112,1,50
256,176,156100,5,2
256,176,156416,1,2
320,240,156731,5,0
320,240,157047,1,8
376,184,157363,1,0
376,184,157679,1,8
392,104,157995,1,0
392,104,158310,1,8
336,48,158626,6,2,B|208:48|136:120,1,200
56,232,159889,2,2,B|120:320|232:344,1,200
256,184,161153,5,0
256,184,161468,1,0
256,104,161784,6,0,B|144:104,1,100,0|8
152,184,162416,2,0,B|152:288,1,100,0|8
232,288,163047,2,0,B|336:288,1,100,0|8
336,208,163679,2,2,B|336:96,1,100,2|10
384,48,164310,6,0,B|464:192|384:352,1,300,0|8
312,328,165574,2,0,B|384:200|296:32,1,300,0|8
256,128,166837,6,0,B|152:128,1,100,0|8
208,192,167468,2,0,B|320:192,1,100,0|8
256,256,168100,2,0,B|144:256,1,100,0|8
160,336,168731,1,2
240,336,169047,1,10
320,336,169363,6,0,B|320:224|136:96,1,300,0|8
200,40,170626,2,0,B|368:152|408:272,1,300,0|8
480,280,171889,6,0,B|480:160,1,100,0|8
408,208,172521,2,0,B|408:96,1,100,0|8
408,24,173153,2,0,B|304:24,1,100,0|8
304,104,173784,1,2
304,184,174100,1,10
264,256,174416,6,0,B|160:224,3,100,0|8|0|8
128,160,175679,2,0,B|232:128,3,100,0|8|0|8
256,192,176942,8,0,180416
