osu file format v9

[General]
AudioFilename: GUMIFor_my_soulPV_re.mp3
AudioLeadIn: 1000
PreviewTime: 49341
Countdown: 0
SampleSet: Normal
StackLeniency: 0.7
Mode: 0
LetterboxInBreaks: 1

[Editor]
DistanceSpacing: 0.8
BeatDivisor: 4
GridSize: 8

[Metadata]
Title:For my soul
Artist:Megpoid GUMI
Creator:val0108
Version:Hard
Source:Vocaloid
Tags:Junky Parmy darubisshuP karu

[Difficulty]
HPDrainRate:5
CircleSize:4
OverallDifficulty:7
ApproachRate:7
SliderMultiplier:1.4
SliderTickRate:1

[Events]
//Background and Video events
0,0,"GUMI.jpg"
Video,0,"asdasd.AVI"
//Break Periods
2,71036,80042
2,101036,110358
//Storyboard Layer 0 (Background)
//Storyboard Layer 1 (Fail)
//Storyboard Layer 2 (Pass)
//Storyboard Layer 3 (Foreground)
//Storyboard Sound Samples
//Background Colour Transformations
3,100,163,162,255

[TimingPoints]
732,315.789473684211,4,1,0,27,1,0
10826,-100,4,1,0,63,0,0
49363,-100,4,1,0,60,0,1
69574,-100,4,1,0,60,0,0
116773,-50,4,1,0,60,0,0
117649,-100,4,1,0,60,0,0
128863,-100,4,2,0,60,0,0
129021,-100,4,1,0,60,0,0
147246,-200,4,1,0,60,0,0
156495,-100,4,1,0,60,0,0
156732,-100,4,1,0,60,0,1
176942,-100,4,1,0,60,0,0

[Colours]
Combo1 : 174,87,0
Combo2 : 183,0,91
Combo3 : 0,0,213
Combo4 : 0,187,0

[HitObjects]
96,96,731,2,0,B|176:96,1,70
208,56,1047,1,0
248,96,1205,1,0
248,152,1363,2,0,B|248:232,2,70
248,96,1837,2,0,B|304:56|304:56|384:56,1,140
376,112,2310,1,0
336,152,2468,1,0
368,200,2626,2,2,B|392:224|392:224|400:280,3,70
400,320,3258,6,0,B|312:320,1,70
280,344,3574,1,0
232,320,3732,1,0
216,264,3889,2,0,B|216:168,2,70
184,312,4363,2,0,B|144:344|144:344|40:344,1,140
88,296,4837,1,0
56,248,4995,1,0
104,216,5153,2,2,B|104:128,1,70
152,160,5468,2,2,B|152:72,1,70
192,48,5784,5,0
192,48,5942,1,0
248,48,6100,1,0
248,48,6258,1,0
296,80,6416,2,0,B|448:80,1,140
440,136,6889,2,0,B|368:136,1,70
368,192,7205,2,0,B|280:192,1,70
240,200,7521,1,0
216,248,7679,2,2,B|146:248,1,70
240,304,7995,2,2,B|336:304,1,70
368,304,8310,5,0
368,304,8468,1,0
424,304,8626,1,0
424,304,8784,1,0
448,256,8942,2,0,B|448:176,1,70
408,152,9258,1,0
384,200,9416,2,0,B|304:200,1,70
352,160,9732,2,0,B|352:80,1,70
352,32,10047,1,0
352,32,10205,2,2,B|208:32,1,140,2|6
144,112,10837,5,0
144,112,10995,1,0
96,144,11153,1,0
96,144,11310,1,0
120,192,11468,2,0,B|64:248,2,70
176,184,11942,2,0,B|240:120,1,70
264,96,12258,2,0,B|328:136,1,70
296,184,12574,1,0
336,224,12732,2,0,B|336:304,3,70
280,296,13363,5,0
280,296,13521,1,0
224,296,13679,2,0,B|136:296,1,70
160,240,13995,2,0,B|72:240,2,70
192,192,14468,2,0,B|192:104,1,70
248,104,14784,2,0,B|336:104,2,70
208,64,15258,5,2
368,200,15574,1,2
104,192,15889,5,0
104,192,16047,1,0
104,192,16205,2,0,B|176:152,1,70
160,216,16521,2,0,B|224:248,2,70
208,192,16995,2,0,B|272:144,1,70
280,200,17310,2,0,B|344:240,1,70
360,184,17626,1,0
400,224,17784,2,0,B|416:264|416:264|400:288,1,70
368,336,18100,2,0,B|328:368|328:368|296:352,1,70
256,328,18416,5,0
256,328,18574,1,0
208,296,18732,2,0,B|136:256,1,70
96,240,19047,2,0,B|120:168,1,70
136,120,19363,1,0
136,120,19521,2,0,B|232:152,1,70
232,192,19837,2,0,B|304:160,2,70
272,232,20310,2,0,B|368:224,1,70
312,272,20626,2,0,B|368:336,1,70
264,312,20942,5,0
264,312,21100,1,0
264,312,21258,1,0
264,312,21416,2,0,B|120:312,1,140
80,280,21889,1,0
128,248,22047,1,0
184,248,22205,2,0,B|256:248,2,70
184,192,22679,1,0
184,192,22837,1,0
184,192,22995,2,0,B|104:192,1,70
56,192,23310,2,0,B|56:120,1,70
112,120,23626,1,0
120,64,23784,2,0,B|190:64,1,70
256,80,24100,6,0,B|312:64|312:64|384:104,1,140,0|8
408,152,24574,1,0
432,200,24732,2,0,B|432:280|432:280|376:304,1,140,0|8
336,344,25205,1,0
280,336,25363,2,0,B|192:336,1,70
160,312,25679,1,8
128,264,25837,2,0,B|272:264|272:264|272:264,1,140
248,208,26310,2,2,B|168:208,1,70,10|2
96,168,26626,6,0,B|88:96|88:96|160:80,1,140,0|8
208,72,27100,1,0
232,24,27258,2,0,B|384:24,1,140,0|8
392,72,27732,1,0
392,128,27889,2,0,B|248:128,1,140,0|8
208,168,28363,2,2,B|440:168,1,210,2|10
256,296,29153,5,0
256,296,29468,1,8
72,296,29784,2,0,B|216:296,1,140,2|8
440,296,30416,2,0,B|296:296,1,140,2|8
72,192,31047,2,0,B|224:192,1,140,2|8
440,192,31679,2,0,B|288:192,1,140,2|8
72,88,32310,2,0,B|224:88,1,140,2|8
440,88,32942,2,0,B|288:88,1,140,2|8
256,264,33574,6,2,B|256:328,4,35
112,312,34205,6,0,B|88:264,2,35
56,152,34837,2,0,B|64:96|64:96|136:40,1,140
144,160,35468,2,0,B|200:128|200:128|264:168,1,140
224,272,36100,2,2,B|288:232,1,70
312,288,36416,2,2,B|368:240,1,70
408,168,36732,6,2,B|440:216,2,35
488,272,37363,2,0,B|480:336|480:336|408:376,1,140
384,264,37995,2,0,B|320:296|320:296|256:256,1,140
272,152,38626,2,2,B|216:200,1,70
200,144,38942,2,2,B|144:192,1,70
48,208,39258,6,0,B|64:392|256:280,1,280
232,176,40205,1,0
280,72,40521,2,0,B|504:64|360:240,1,280
296,320,41468,1,2
408,264,41784,2,0,B|192:240|288:80,1,280
144,88,42732,1,0
152,200,43047,2,0,B|160:272|88:328,1,140
32,232,43679,2,2,B|32:160,1,70
88,152,43995,2,2,B|88:72,1,70
72,24,44310,6,0,B|48:200|264:152,1,280
248,264,45258,1,0
144,296,45574,2,0,B|112:120|328:176,1,280
320,288,46521,1,2
432,280,46837,2,0,B|496:80|280:160,1,280
256,48,47784,1,0
256,224,48100,5,0
256,224,48258,1,0
256,224,48416,1,0
256,224,48574,1,0
256,224,48732,2,2,B|160:224,1,70
256,224,49047,2,2,B|344:224,1,70
256,224,49363,6,2,B|256:304,1,70
216,328,49679,1,8
176,288,49837,1,0
136,328,49995,2,2,B|48:328,1,70
16,296,50310,1,8
61,251,50468,1,0
120,264,50626,2,2,B|120:192,1,70
64,200,50942,2,2,B|64:112,1,70,10|2
120,128,51258,2,0,B|200:120,3,70,0|0|8|0
224,104,51889,6,0,B|288:56|288:56|376:56,1,140,0|8
472,224,52521,2,0,B|417:280|417:280|352:280,1,140,0|8
224,328,53153,6,2,B|144:328,1,70
224,328,53468,2,0,B|296:328,1,70,10|2
352,328,53784,1,0
352,328,53942,1,0
352,328,54100,1,8
352,328,54258,1,0
352,328,54416,6,2,B|352:256,1,70
408,240,54732,1,8
448,200,54889,1,0
392,184,55047,2,2,B|392:112,1,70
352,72,55363,1,8
312,112,55521,1,0
272,152,55679,2,2,B|184:152,1,70
200,96,55995,2,2,B|120:96,1,70,10|2
72,96,56310,2,0,B|8:144,3,70,0|0|8|0
48,184,56942,6,0,B|48:328,1,140,0|8
48,184,57574,2,0,B|200:184,1,140,0|8
400,184,58205,2,0,B|248:184,1,140,0|8
432,288,58837,5,0
392,328,58995,1,0
352,288,59153,1,8
312,328,59310,1,0
272,288,59468,2,0,B|192:288,1,70
168,240,59784,2,2,B|240:240,1,70,10|2
272,192,60100,2,0,B|192:192,1,70
168,144,60416,2,2,B|240:144,1,70,10|2
296,144,60732,2,0,B|368:144,1,70
400,96,61047,2,2,B|312:96,1,70,10|2
272,96,61363,2,2,B|192:96,1,70
144,96,61679,2,2,B|56:96,1,70,10|2
96,48,61995,6,0,B|392:48,1,280
408,160,62942,1,0
368,264,63258,2,0,B|224:264,1,140
116,288,63889,1,0
116,288,64047,1,0
116,288,64205,1,0
116,288,64363,1,0
116,288,64521,6,0,B|48:216,1,70
120,232,64837,2,2,B|176:168,1,70,10|2
112,192,65153,2,0,B|48:128,1,70
120,144,65468,2,2,B|176:80,1,70,10|2
216,120,65784,2,0,B|304:120,1,70
344,120,66100,2,2,B|432:120,1,70,10|2
400,176,66416,2,2,B|328:176,1,70
272,176,66732,2,2,B|184:176,1,70,10|2
144,176,67047,6,0,B|50:349|260:343,1,280
360,296,67995,1,0
432,216,68310,2,0,B|506:0|289:126,1,280
192,88,69258,1,0
296,56,69574,6,0,B|336:88,2,35
200,112,70047,2,0,B|160:144,2,35
256,208,70521,2,0,B|256:288,2,70
96,88,80942,6,0,B|176:48|264:56,1,140
416,160,81574,2,0,B|336:120|248:128,1,140
96,224,82205,2,0,B|176:184|264:192,1,140
416,296,82837,2,0,B|336:256|248:264,1,140
416,296,83468,6,0,B|336:336|248:328,1,140
96,224,84100,2,0,B|176:264|264:256,1,140
416,160,84732,2,0,B|336:200|248:192,1,140
96,88,85363,2,0,B|176:128|264:120,1,140
352,288,85995,6,0,B|200:288,1,140,0|8
160,264,86468,1,0
112,240,86626,2,0,B|200:104,1,140,0|8
192,64,87100,1,0
248,64,87258,2,0,B|320:24|400:80,1,140,0|8
424,104,87732,1,0
328,168,88047,5,2
288,128,88205,1,2
248,88,88363,1,2
200,88,88521,2,0,B|200:232,1,140,0|8
168,272,88995,1,0
136,224,89153,2,0,B|80:168,1,70
40,144,89468,1,8
40,200,89626,2,0,B|40:280|40:280|104:312,2,140
152,72,90574,5,2
152,72,90732,1,2
152,72,90889,1,2
152,72,91047,2,0,B|208:48|304:40,1,140,0|8
344,48,91521,1,0
328,104,91679,2,0,B|240:112|176:136,1,140,0|8
152,176,92153,1,0
200,208,92310,2,0,B|272:160|352:176,1,140,0|8
416,280,92942,5,0
416,280,93100,1,0
416,280,93258,1,0
416,280,93416,2,0,B|200:280,1,210
206,280,94205,1,4
206,280,94837,1,0
206,280,95468,1,4
80,96,96100,5,0
80,96,96732,1,0
184,64,97047,1,0
296,64,97363,1,0
400,104,97679,1,0
336,192,97995,2,2,B|196:192,1,140
80,288,98626,5,0
80,288,99258,1,0
184,320,99574,1,0
296,320,99889,1,0
400,280,100205,1,0
332,192,100521,2,2,B|192:192,1,140
256,192,111258,5,0
256,192,113784,5,0
256,192,115047,5,0
256,192,115363,1,0
256,192,115679,1,0
256,192,115995,1,0
256,304,116310,5,0
256,304,116784,2,2,B|280:296|280:296|232:296|232:296|280:288|280:288|232:288|232:288|280:280|280:280|232:280|232:280|280:272|280:272|232:272|232:272|280:264|280:264|232:264|232:264|272:256|272:256|240:256|240:256|272:248|272:248|240:248|240:248|272:240|272:240|240:240|240:240|256:240|256:240|256:224|256:224|256:192,1,700
256,96,117889,5,0
152,48,118205,1,0
72,128,118521,1,0
80,240,118837,2,0,B|168:360,1,140,0|8
136,248,119468,2,0,B|296:296,1,140,0|8
184,216,120100,2,0,B|336:160,1,140,0|8
392,88,120732,2,2,B|468:155|407:234,1,140
256,192,121363,8,0,123889
256,192,124521,5,0
256,192,125153,8,0,126416
256,192,128942,5,0
152,224,131468,6,0,B|272:304,1,140
360,160,132100,2,0,B|240:80,1,140
152,224,132732,2,0,B|272:304,1,140
360,160,133363,2,0,B|240:80,1,140
288,296,133995,6,0,B|368:176,1,140
224,88,134626,2,0,B|144:208,1,140
288,296,135258,2,0,B|368:176,1,140
416,80,135889,1,0
416,80,136205,1,0
304,72,136521,6,0,B|160:72,1,140
192,192,137153,2,0,B|48:192,1,140
280,304,137784,2,0,B|136:304,1,140
416,152,138416,2,0,B|272:152,1,140
448,320,139047,6,0,B|304:320,1,140
160,216,139679,2,0,B|16:216,1,140
440,120,140310,2,0,B|296:120,1,140
256,224,140942,5,2
256,224,141258,1,2
304,72,141574,6,0,B|160:72,1,140
200,208,142205,2,0,B|56:208,1,140
240,328,142837,2,0,B|96:328,1,140
160,128,143468,2,0,B|16:128,1,140
288,208,144100,6,0,B|144:208,1,140
408,152,144731,2,0,B|264:152,1,140
256,192,145363,8,0,146626
256,192,147258,5,0
168,248,147889,1,0
72,192,148521,2,2,B|72:112,1,70
72,64,149153,1,0
184,56,149784,1,0
296,56,150416,1,0
392,112,151047,6,2,B|440:176,1,70
456,216,151679,1,0
352,168,152310,1,0
328,280,152942,1,0
256,192,153574,2,2,B|176:192,2,70
256,192,154837,2,2,B|336:192,2,70
256,192,156100,1,0
256,192,156416,1,0
256,80,156731,6,2,B|184:80,1,70
184,136,157047,1,0
184,136,157205,1,0
128,136,157363,2,2,B|88:200,1,70
128,232,157679,1,0
128,232,157837,1,0
88,272,157995,2,2,B|144:336,1,70
134,324,158310,2,2,B|208:328,1,70
264,328,158626,5,0
376,248,158942,1,0
376,112,159258,2,0,B|312:40|312:40|248:40,1,140
136,272,159889,2,0,B|200:344|200:344|264:344,1,140
56,248,160521,5,0
56,248,160679,1,0
56,248,160837,1,0
56,248,160995,1,0
56,248,161153,2,2,B|-8:184,1,70
56,248,161468,2,2,B|128:312,1,70
56,248,161784,6,2,B|128:176,1,70
144,160,162100,1,0
184,120,162258,1,0
232,96,162416,2,2,B|320:80,1,70
360,88,162731,1,0
408,120,162889,1,0
416,176,163047,2,2,B|312:176,1,70
344,232,163363,2,2,B|414:232,1,70
416,288,163679,6,0,B|248:288,1,140
96,248,164310,1,0
208,328,164626,1,0
344,304,164942,1,0
408,184,165258,1,0
352,56,165574,2,0,B|288:56,2,35
312,112,165889,2,0,B|256:112,2,35
256,192,166205,6,2,B|184:192,1,70
256,192,166521,2,2,B|336:192,1,70
376,208,166837,6,2,B|288:336,1,140
296,323,167310,1,0
240,312,167468,2,2,B|88:248,1,140
80,208,167942,1,0
128,184,168100,1,0
72,168,168258,1,0
120,136,168416,1,0
64,120,168574,1,0
112,88,168731,6,0,B|176:56|248:64,1,140
360,64,169363,1,0
392,168,169679,1,0
296,232,169995,2,0,B|224:288,1,70
192,304,170310,1,0
256,192,170626,8,0,171889
256,192,172205,5,0
256,80,172521,1,0
160,144,172837,1,0
160,256,173153,1,0
256,312,173468,1,0
352,256,173784,1,0
352,144,174100,1,0
448,88,174416,6,2,B|248:16|32:96,1,420
48,264,175679,2,2,B|248:336|464:256,1,420
256,192,176942,8,0,180416
232,88,180731,5,0
232,88,180889,1,0
288,88,181047,2,0,B|376:88,1,70
352,144,181363,2,0,B|440:144,2,70
320,192,181837,2,0,B|320:280,1,70
264,280,182153,2,0,B|176:280,2,70
304,320,182626,5,0
144,184,182942,1,0
408,192,183258,5,0
408,192,183416,1,0
408,192,183574,2,0,B|336:232,1,70
352,168,183889,2,0,B|288:136,2,70
304,192,184363,2,0,B|240:240,1,70
232,184,184679,2,0,B|168:144,1,70
128,104,184995,1,0
128,104,185153,2,0,B|160:80|160:80|192:48,3,70
256,56,185784,5,0
256,56,185942,1,0
304,88,186100,2,0,B|376:128,1,70
416,144,186416,2,0,B|392:216,1,70
376,264,186731,1,0
376,264,186889,2,0,B|280:232,1,70
280,192,187205,2,0,B|208:224,2,70
240,152,187679,2,0,B|144:160,1,70
200,112,187995,2,0,B|144:48,1,70
96,56,188310,5,0
96,56,188468,1,0
48,80,188626,2,0,B|48:160,1,70
48,208,188942,2,0,B|48:296,2,70
96,176,189416,6,2,B|144:232|240:208,1,140
216,152,189889,2,2,B|256:128|296:136,1,70
272,192,190205,2,2,B|320:208|352:176,1,70
336,128,190521,2,2,B|400:128|416:160,1,70
