osu file format v9

[General]
AudioFilename: Dokugaron.mp3
AudioLeadIn: 0
PreviewTime: 63306
Countdown: 0
SampleSet: Soft
StackLeniency: 0.6
Mode: 0
LetterboxInBreaks: 0

[Editor]
DistanceSpacing: 1.3
BeatDivisor: 4
GridSize: 4

[Metadata]
Title:Dokugaron -code:altered-
Artist:Megpoid GUMI
Creator:No_Gu
Version:TuHard
Source:Tambourine-P
Tags:ORYO OHAGI vocaloid vocaloid2 vocaloid3 tutuhaha KanaRin climbb65588

[Difficulty]
HPDrainRate:6
CircleSize:4
OverallDifficulty:6
ApproachRate:8
SliderMultiplier:1.6
SliderTickRate:1

[Events]
//Background and Video events
Video,0,"PV.flv"
0,0,"BG.jpg"
//Break Periods
2,13795,23633
2,46156,50599
2,87953,95093
2,101436,110599
2,187529,194868
//Storyboard Layer 0 (Background)
//Storyboard Layer 1 (Fail)
//Storyboard Layer 2 (Pass)
//Storyboard Layer 3 (Foreground)
//Storyboard Sound Samples
//Background Colour Transformations
3,100,163,162,255

[TimingPoints]
2473,337.078651685393,4,1,1,50,1,0
2810,337.078651685393,4,1,1,50,1,0
24384,-100,4,2,1,70,0,0
26743,-100,4,1,1,70,0,0
26912,-100,4,2,1,70,0,0
29440,-100,4,1,1,70,0,0
29608,-100,4,2,1,70,0,0
32136,-100,4,1,1,70,0,0
32305,-100,4,2,1,70,0,0
37530,-100,4,1,1,70,0,0
37614,-100,4,2,1,70,0,0
40226,-100,4,1,1,70,0,0
40395,-100,4,2,1,70,0,0
42923,-100,4,1,1,70,0,0
43091,-100,4,2,1,70,0,0
45114,-100,4,2,2,40,0,0
45788,-100,4,2,1,70,0,0
51350,-100,4,2,2,70,0,0
56069,-100,4,2,1,70,0,0
63316,-100,4,2,2,70,0,0
63484,-100,4,2,2,70,0,1
68204,-100,4,2,2,70,0,1
68372,-100,4,2,1,70,0,1
68541,-100,4,2,2,70,0,1
68709,-100,4,2,2,70,0,1
71912,-100,4,2,1,70,0,1
73007,-100,4,2,2,70,0,1
73260,-100,4,2,1,70,0,1
73765,-100,4,2,1,70,0,0
74270,-100,4,2,2,70,0,1
84046,-100,4,1,1,70,0,1
85057,-100,4,2,1,70,0,0
111350,-100,4,1,1,70,0,0
112024,-100,4,1,1,70,0,0
122810,-100,4,2,2,70,0,0
124664,-100,4,2,2,50,0,0
124833,-100,4,2,2,70,0,0
125001,-100,4,2,2,50,0,0
125170,-100,4,2,2,70,0,0
125339,-100,4,2,2,50,0,0
125507,-100,4,2,2,70,0,0
128204,-100,4,2,1,70,0,0
132923,-100,4,1,1,70,0,0
138822,-100,4,1,1,5,0,0
138989,-100,4,2,2,70,0,1
148766,-100,4,1,1,70,0,1
149607,-100,4,1,1,70,0,1
149692,-100,4,2,2,70,0,0
149776,-100,4,2,2,70,0,1
159215,-100,4,1,1,70,0,1
159889,-100,4,1,1,70,0,1
160478,-100,4,2,2,70,0,0
160562,-100,4,2,2,70,0,1
170339,-100,4,1,2,70,0,1
171181,-100,4,1,2,70,0,1
171265,-100,4,2,2,70,0,0
171349,-100,4,2,2,70,0,1
175732,-100,4,1,2,70,0,1
175816,-100,4,1,2,20,0,1
175900,-100,4,2,2,70,0,1
181125,-100,4,1,2,70,0,1
182135,-100,4,2,2,70,0,0
195619,-100,4,1,2,70,0,0

[Colours]
Combo1 : 202,121,0
Combo2 : 3,167,3
Combo3 : 4,4,176
Combo4 : 179,4,4

[HitObjects]
256,96,2810,1,4
256,96,2978,1,0
156,132,3147,2,0,B|80:204,1,80,8|0
132,288,3484,2,0,B|204:248,1,80
310,249,3821,2,0,B|380:288,1,80,8|0
372,75,4158,6,0,B|340:148,2,80,0|0|8
272,52,4663,1,0
168,60,4832,2,0,B|204:132,1,80,0|8
108,271,5169,2,0,B|120:192,1,80,0|8
220,220,5506,6,0,B|252:300|344:328,1,160,4|8
404,248,6012,1,0
364,152,6180,2,0,B|332:72|240:44,1,160,0|8
172,116,6686,1,0
76,156,6854,6,0,B|44:240,2,80,0|0|8
156,224,7360,1,0
256,248,7529,2,0,B|288:332,2,80,0|8|0
296,152,8034,1,8
344,60,8203,5,4
356,268,8540,1,8
256,248,8708,1,0
156,224,8877,2,0,B|76:180,2,80,0|0|8
256,40,9551,6,0,B|300:112|404:124,1,160,0|8
468,188,10057,1,0
384,252,10225,2,0,B|344:324,1,80,0|8
292,232,10562,2,0,B|260:144,1,80,0|8
184,92,10899,6,0,B|96:76|20:144,1,160,4|8
72,228,11405,1,0
172,192,11574,2,0,B|208:212|228:252,2,80,0|0|8
340,68,12248,5,0
464,236,12585,1,8
376,292,12753,1,0
280,336,12922,1,0
252,236,13090,2,0,B|236:199,2,40
256,96,13427,2,0,B|256:44,2,40,0|0|4
388,80,24383,5,4
256,240,24720,2,0,B|192:300,1,80,8|0
100,328,25057,2,0,B|24:288|12:192,1,160,0|8
88,128,25562,2,0,B|164:104|220:24,1,160
308,76,26068,1,8
396,132,26236,1,0
320,200,26405,2,0,B|340:240|384:260,2,80,2|0|2
224,240,26911,1,0
120,244,27079,6,0,B|56:192,2,80,4|0|8
244,76,27753,1,0
344,44,27922,1,0
440,84,28090,1,8
304,240,28427,1,0
220,180,28596,1,0
144,108,28765,1,8
144,108,28933,2,0,B|60:140|28:220,1,160,0|0
172,275,29439,2,0,B|132:272|96:296,1,80,2|0
304,240,29776,6,0,B|352:304|448:320,1,160,4|8
420,216,30281,1,0
344,148,30450,2,0,B|316:108|260:104,1,80
118,104,30787,2,0,B|146:65|184:64,1,80,8|0
96,252,31124,2,0,B|160:192,1,80
205,348,31461,2,0,B|228:272,1,80,8|0
244,168,31798,1,2
276,68,31967,1,0
344,148,32135,1,2
320,248,32304,1,0
324,352,32472,6,0,B|424:340|472:264,1,160,0|8
448,176,32978,1,0
344,148,33147,2,0,B|252:116,1,80
200,44,33484,2,0,B|116:76,1,80,8|0
289,202,33821,2,0,B|132:176,1,160,0|8
271,357,34326,2,0,B|132:280,1,160,0|8
368,76,35001,5,0
368,76,35169,2,0,B|320:152|232:176,1,160,4|8
148,136,35675,1,0
52,176,35843,2,0,B|40:268|108:344,1,160,0|8
192,292,36349,2,0,B|232:208|316:176,1,160
462,246,36854,6,0,B|408:188,1,80,8|0
368,92,37192,2,0,B|272:32,1,80,2|0
200,84,37529,1,2
200,84,37697,1,0
112,144,37866,6,0,B|64:228,1,80,4|0
252,312,38203,2,0,B|291:242,1,80,8|0
263,94,38540,2,0,B|224:164,1,80
392,264,38877,2,0,B|431:194,1,80,8|0
368,112,39214,5,0
263,94,39383,1,0
172,44,39551,1,8
84,104,39720,1,0
172,156,39888,2,0,B|144:196|96:208,1,80,2|0
84,104,40225,1,2
204,272,40394,1,0
263,94,40562,6,0,B|324:36|424:48,1,160,4|8
384,148,41068,1,0
304,212,41236,2,0,B|320:300|252:372,1,160,0|8
204,272,41742,1,0
188,168,41911,2,0,B|132:160|104:108,1,80
204,68,42248,2,0,B|236:32|276:32,1,80,8|0
308,128,42585,2,0,B|340:152|400:148,1,80,2|0
372,44,42922,1,2
320,244,43090,1,0
139,239,43259,6,0,B|180:312|264:332,1,160,4|8
320,244,43765,1,0
240,176,43933,2,0,B|176:104,1,80
276,60,44270,1,8
372,44,44439,1,0
477,273,44607,6,0,B|496:192|440:124,1,160,0|8
340,144,45113,1,8
240,176,45281,2,0,B|148:232,1,80,8|8
92,152,45618,1,8
256,280,45787,1,8
420,152,45956,1,6
256,60,51349,5,6
156,92,51517,1,0
68,152,51686,1,2
164,196,51854,1,0
256,240,52023,2,0,B|288:312|384:340,1,160,2|2
388,236,52529,2,0,B|364:152|408:72,1,160,2|0
304,48,53034,6,0,B|220:112|220:108,1,80,2|0
140,60,53371,2,0,B|96:148,1,80,2|0
136,232,53708,1,2
136,232,53877,1,0
244,236,54045,6,0,B|260:320|352:356,1,160,6|2
364,252,54551,1,0
316,160,54720,2,0,B|328:120|364:88,2,80,2|0|2
216,136,55225,2,0,B|136:116|88:20,2,160,0|2|0
152,220,56068,2,0,B|84:308,1,80,8|0
16,224,56405,1,8
200,340,56574,1,0
256,140,56742,5,4
412,280,56911,1,0
352,196,57079,2,0,B|376:88,1,80,8|0
218,69,57416,2,0,B|256:140,1,80
184,216,57753,2,0,B|144:296,1,80,8|0
232,352,58090,5,0
336,356,58259,1,0
412,280,58427,1,8
468,192,58596,1,0
420,100,58765,2,0,B|392:52|344:40,1,80
210,43,59102,2,0,B|238:90|268:96,1,80,8|0
204,180,59439,6,0,B|156:248|56:256,1,160,4|8
92,152,59944,1,0
256,280,60113,2,0,B|308:340|412:352,1,160,0|8
372,248,60618,1,0
418,50,60787,6,0,B|336:88|312:164,1,160,0|8
214,32,61293,2,0,B|180:104|212:188,1,160
76,177,61798,2,0,B|84:216|124:240,1,80,8|0
208,300,62135,5,8
412,264,62388,1,8
460,60,62641,1,8
116,240,63147,2,0,B|196:240,1,80,8|0
160,92,63484,6,0,B|200:108|220:148,1,80,6|0
293,239,63821,2,0,B|312:276|352:292,1,80,10|0
484,180,64158,2,0,B|456:196|444:248,1,80,2|0
372,172,64495,2,0,B|352:128|292:112,1,80,10|0
224,68,64832,5,2
124,40,65001,1,0
40,100,65169,1,10
108,180,65338,2,0,B|176:236|192:332,1,160
84,320,65843,1,10
236,180,66012,1,0
400,141,66180,6,0,B|376:224|300:260,1,160,6|10
143,56,66686,2,0,B|220:96|236:180,1,160
53,182,67192,2,0,B|96:168|132:184,1,80,10|0
160,284,67529,5,2
256,320,67697,1,0
352,284,67866,1,10
288,204,68034,2,0,B|316:116|404:76,1,160
440,176,68540,1,10
256,76,68708,6,0,B|168:104|96:56,1,160,4|2
48,148,69214,1,10
236,236,69551,6,0,B|274:166,1,80
442,266,69888,2,0,B|403:335,1,80,10|0
197,99,70225,2,0,B|235:29,1,80
416,128,70562,2,0,B|376:197,1,80,10|0
236,248,70899,6,0,B|274:177,1,80,10|0
444,280,71236,2,0,B|404:349,1,80,10|0
156,304,71574,5,4
76,236,71742,1,0
80,132,71911,1,8
184,124,72079,2,0,B|236:44|320:36,1,160
414,188,72585,2,0,B|380:168|364:128,1,80,8|0
256,308,72922,5,8
192,228,73090,1,0
184,124,73259,2,0,B|196:76|244:48,1,80,8|0
192,228,73596,5,8
332,76,73765,1,4
332,76,74102,5,0
408,148,74270,2,0,B|456:176|468:224,1,80,6|0
376,264,74607,2,0,B|360:312|316:336,1,80,10|0
256,256,74944,2,0,B|216:272|168:260,1,80,2|0
100,192,75281,1,10
92,88,75450,1,0
184,40,75618,6,0,B|204:124|288:168,1,160,6|10
380,192,76124,1,0
251,318,76293,2,0,B|288:308|312:268,2,80,2|0|10
220,220,76798,1,0
120,248,76967,6,0,B|116:160|196:104,1,160,6|10
288,84,77472,2,0,B|316:168|404:200,1,160
474,36,77978,2,0,B|440:52|424:96,1,80,10|0
332,284,78315,5,2
240,336,78484,1,0
136,320,78652,1,10
64,244,78821,2,0,B|92:160|192:128,1,160
108,56,79326,1,10
232,220,79495,1,4
232,220,80001,5,10
440,228,80338,2,0,B|385:170,1,80,10|0
248,310,80675,2,0,B|303:366,1,80,10|0
442,85,81012,2,0,B|387:27,1,80,10|0
238,170,81349,2,0,B|294:226,1,80,10|0
440,240,81686,6,0,B|384:181,1,80,10|0
248,320,82023,2,0,B|304:377,1,80,10|0
340,264,82360,5,4
240,232,82529,1,0
136,244,82697,1,8
56,312,82866,2,0,B|108:240|88:148,1,160
208,124,83371,2,0,B|192:88|148:76,1,80,8|0
44,64,83708,5,4
108,144,83877,1,0
136,244,84045,1,8
212,316,84214,1,0
312,284,84383,1,8
380,208,84551,1,0
476,172,84720,1,8
476,172,84888,1,0
256,192,84972,12,4,87753
256,192,95843,12,12,101236
256,104,111349,5,0
152,124,111517,1,0
88,208,111686,1,0
76,312,111854,1,0
180,296,112023,6,0,B|188:240|224:216,1,80,4|0
316,252,112360,2,0,B|340:208|400:204,1,80,8|0
364,104,112697,2,0,B|360:52|324:28,1,80
256,104,113034,1,8
256,104,113203,1,0
168,48,113371,6,0,B|92:96|76:184,1,160,0|8
60,276,113877,1,0
230,215,114045,2,0,B|184:212|156:240,1,80,0|8
352,172,114383,2,0,B|316:144|268:148,1,80,8|0
396,252,114720,6,0,B|468:200|468:96,1,160,4|8
372,76,115225,1,8
276,40,115394,2,0,B|256:84|200:100,1,80
116,84,115731,2,0,B|136:120|128:160,1,80,8|0
72,248,116068,5,0
148,320,116236,1,0
212,236,116405,1,8
288,308,116574,1,0
340,216,116742,2,0,B|368:168|360:120,1,80,8|8
456,188,117079,1,8
276,80,117248,1,0
59,155,117416,6,0,B|140:128|176:52,1,160,4|8
208,152,117922,1,8
140,232,118090,2,0,B|104:260|100:312,1,80
273,290,118427,2,0,B|232:296|204:328,1,80,8|0
360,308,118765,6,0,B|436:264|456:172,1,160,0|8
452,80,119270,1,0
290,167,119439,2,0,B|332:160|356:124,1,80,8|0
124,176,119776,2,0,B|148:144|192:136,1,80,8|0
216,236,120113,5,4
124,284,120281,1,0
32,236,120450,1,8
28,132,120618,1,8
116,72,120787,1,0
208,124,120956,1,0
304,168,121124,2,0,B|348:148|372:88,1,80,8|0
309,322,121461,6,0,B|384:296|408:204,1,160,0|8
464,120,121967,1,0
368,80,122135,2,0,B|340:48|276:48,1,80,8|8
144,136,122472,2,0,B|172:104|236:104,1,80,8|0
216,208,122809,6,0,B|184:292|88:328,1,160,6|2
84,220,123315,1,0
144,136,123484,2,0,B|192:64|288:56,1,160,2|2
376,92,123989,2,0,B|404:140|452:152,1,80,0|2
348,208,124326,2,0,B|328:260|356:304,1,80,0|2
244,272,124663,2,0,B|192:288|172:336,1,80,8|2
92,264,125001,1,8
115,138,125169,2,0,B|156:152|168:196,1,80,0|8
296,31,125506,6,0,B|320:112|272:184,1,160,6|2
204,104,126012,1,0
272,184,126180,2,0,B|248:264|296:336,1,160,2|2
376,268,126686,1,0
464,212,126854,2,0,B|440:168|384:156,1,80,2|0
360,68,127192,2,0,B|312:48|260:72,1,80,2|0
176,48,127529,2,0,B|128:64|112:124,1,80,2|0
32,44,127866,1,2
184,188,128034,1,0
348,316,128203,6,0,B|336:268|292:248,1,80,4|0
364,168,128540,2,0,B|332:132|264:136,1,80,8|0
125,238,128877,2,0,B|164:224|184:188,1,80
116,52,129214,2,0,B|144:80|188:84,1,80,8|0
292,92,129551,5,0
364,168,129720,1,0
296,244,129888,1,8
208,300,130057,1,0
70,183,130225,2,0,B|76:216|124:240,1,80
79,47,130562,2,0,B|120:56|136:100,1,80,8|0
208,172,130899,6,0,B|300:180|356:272,1,160,4|8
416,324,131405,1,0
436,220,131574,2,0,B|428:128|344:80,1,160,0|8
256,60,132079,1,0
156,92,132248,2,0,B|128:160|36:204,1,160,0|8
174,262,132753,2,8,B|140:288|100:288,2,80
256,196,133259,1,8
256,196,133427,1,0
300,288,133596,5,8
476,176,133849,1,8
312,48,134102,1,8
136,304,134607,5,8
104,100,134860,1,8
300,168,135113,1,8
468,352,135450,6,0,B|436:328,2,40
256,104,138315,5,0
360,124,138484,1,0
424,208,138652,1,0
436,312,138821,1,0
332,296,138989,6,0,B|324:240|288:216,1,80,6|0
164,140,139326,2,0,B|171:195|196:210,1,80,10|0
91,195,139663,2,0,B|60:168|59:124,1,80,2|0
194,69,140001,2,0,B|160:92|164:140,1,80,10|0
268,128,140338,5,2
352,64,140506,1,0
452,88,140675,1,10
380,160,140843,2,0,B|312:208|304:312,1,160
480,263,141349,2,0,B|440:260|408:292,1,80,10|0
204,328,141686,5,6
104,296,141854,1,0
40,212,142023,1,10
40,108,142192,2,0,B|92:48|192:48,1,160
184,152,142697,1,10
252,232,142866,1,0
324,308,143034,6,0,B|372:300|404:248,1,80,2|0
452,184,143371,1,10
372,116,143540,2,0,B|332:48|224:60,1,160
184,152,144045,1,10
324,308,144214,1,4
88,116,144720,5,10
288,56,145057,2,0,B|384:56,1,80,10|0
200,240,145394,2,0,B|108:240,1,80,10|0
312,144,145731,2,0,B|404:144,1,80,10|0
224,328,146068,2,0,B|144:328,1,80,10|0
304,264,146405,5,10
208,120,146574,1,0
308,240,146742,1,10
204,144,146911,1,0
60,292,147079,6,0,B|36:256|40:196,1,80,4|0
64,116,147416,1,8
252,288,147585,2,0,B|168:268|132:192,1,160
274,78,148090,2,0,B|248:112|208:120,1,80,8|0
284,192,148427,5,0
380,236,148596,1,0
364,132,148765,2,0,B|396:96|440:92,1,80,8|0
476,188,149102,1,0
292,288,149270,1,8
292,288,149607,5,0
196,332,149776,2,0,B|144:320|132:272,1,80,6|0
56,216,150113,1,10
152,172,150281,2,0,B|228:144|268:60,1,160,0|0
164,44,150787,1,10
368,76,150956,1,0
368,76,151124,6,0,B|392:128|448:140,1,80,6|0
396,232,151461,1,10
332,316,151630,2,0,B|272:264|164:272,1,160
230,126,152135,2,0,B|192:132|164:168,1,80,10|0
80,228,152472,5,6
184,220,152641,1,0
284,192,152809,1,10
316,92,152978,2,0,B|368:32|476:40,1,160
416,207,153484,2,0,B|424:164|463:144,1,80,10|0
340,276,153821,6,0,B|256:264|212:188,1,160,6|10
79,281,154326,2,0,B|72:196|124:132,1,160
52,56,154832,1,10
212,188,155001,1,4
404,108,155506,5,2
224,56,155843,2,0,B|128:56,1,80,10|0
312,240,156180,2,0,B|404:240,1,80,10|0
200,144,156517,2,0,B|108:144,1,80,10|0
288,328,156854,2,0,B|368:328,1,80,10|0
208,264,157192,5,10
304,120,157360,1,0
204,240,157529,1,10
308,144,157697,1,0
464,280,157866,6,0,B|416:268|392:228,2,80,6|0|10
480,176,158371,2,0,B|412:116|408:32,1,160
304,40,158877,1,10
204,60,159045,1,0
132,136,159214,5,8
44,192,159383,1,0
132,248,159551,1,8
204,324,159720,1,0
304,344,159888,1,8
304,344,160057,1,0
304,40,160394,5,8
304,40,160562,2,0,B|368:36|400:64,1,80,6|0
432,144,160899,1,10
340,192,161068,1,0
252,248,161236,2,0,B|204:240|172:200,1,80,2|0
76,216,161574,2,0,B|56:180|64:128,1,80,10|0
116,48,161911,6,0,B|160:124|248:136,1,160,6|10
396,336,162416,2,0,B|352:260|264:248,1,160
168,228,162922,1,10
344,156,163090,1,0
473,38,163259,6,0,B|468:76|436:108,1,80,6|0
344,156,163596,1,10
240,156,163765,1,0
240,156,163933,2,0,B|192:76,2,80,2|0|10
245,295,164439,6,0,B|228:260,2,40,0|0|6
374,253,164776,2,0,B|336:244,2,40,0|0|10
431,132,165113,2,0,B|396:152,2,40,0|0|2
348,68,165450,1,0
192,44,165618,1,10
248,192,165787,1,4
84,308,166293,1,10
92,100,166630,6,0,B|92:192,1,80,10|0
256,304,166967,2,0,B|256:216,1,80,10|0
196,60,167304,2,0,B|196:140,1,80,10|0
420,100,167641,2,0,B|420:192,1,80,10|0
256,304,167978,2,0,B|256:216,1,80,10|0
316,60,168315,2,0,B|316:140,1,80,10|0
388,216,168652,5,6
360,316,168821,1,0
256,304,168989,1,10
152,316,169158,1,0
153,143,169326,2,0,B|128:168|124:216,1,80,2|0
314,77,169663,2,0,B|272:88|256:128,1,80,10|0
296,224,170001,5,10
360,316,170169,1,0
360,316,170338,1,0
456,276,170506,2,8,B|476:232,2,40
468,116,170843,1,4
44,116,171180,5,8
80,212,171349,2,0,B|176:212,1,80,6|0
292,304,171686,2,0,B|212:304,1,80,10|0
256,208,172023,1,2
272,52,172192,1,0
408,132,172360,1,10
408,132,172529,1,0
360,224,172697,6,0,B|348:180|308:140,1,80,2|0
220,128,173034,1,10
36,309,173203,2,0,B|112:272|140:192,1,160
100,96,173708,1,10
204,276,173877,1,0
364,344,174045,6,0,B|284:344,1,80,4|0
412,252,174383,1,10
308,236,174551,2,0,B|276:152|180:120,1,160
252,40,175057,1,10
112,192,175225,1,0
252,40,175394,6,0,B|352:40|348:40,1,80,2|0
432,68,175731,1,10
352,132,175899,2,0,B|264:160|228:256,1,160
128,56,176574,1,6
256,340,177079,5,10
56,284,177416,1,10
200,152,177753,1,10
380,52,178090,2,0,B|380:144,1,80,10|0
300,280,178427,2,0,B|300:200,1,80,10|0
208,328,178765,2,0,B|112:328,1,80,10|0
8,232,179102,2,0,B|88:232,1,80,10|0
192,220,179439,5,6
292,196,179607,1,0
368,124,179776,1,10
272,84,179944,2,0,B|304:168|384:204,1,160
240,320,180450,2,0,B|280:312|308:280,1,80,10|0
188,112,180787,5,6
100,164,180956,1,0
80,268,181124,1,10
144,348,181293,2,8,B|144:264|64:208,1,160
76,108,181798,1,8
256,212,181967,1,0
256,192,182051,12,0,184832
256,192,187192,5,2
256,92,195618,5,4
160,132,195787,1,0
72,188,195956,2,0,B|112:280,1,80,8|8
204,228,196293,1,0
256,320,196461,2,0,B|256:364,2,40,0|0|8
308,228,196798,1,8
484,192,196967,6,0,B|404:192,1,80
356,100,197304,2,0,B|256:100,1,80,8|0
188,48,197641,1,0
108,116,197809,2,0,B|83:147,2,40,0|0|8
164,216,198147,6,0,B|152:272,2,40,0|0|4
256,172,198484,1,0
384,304,198652,2,8,B|328:248,1,80
384,160,198989,1,0
292,36,199158,1,0
156,116,199326,1,8
292,36,199495,1,8
272,136,199663,6,0,B|256:224,1,80
168,268,200001,1,0
320,300,200169,1,0
168,268,200338,1,8
100,192,200506,2,0,B|56:192,2,40,0|0|8
224,132,200843,6,0,B|184:132,2,40,0|0|4
308,192,201180,1,0
400,240,201349,2,0,B|460:172,1,80,8|8
376,112,201686,1,0
288,56,201854,1,0
352,140,202023,1,8
208,84,202192,1,8
224,240,202360,5,0
120,228,202529,2,0,B|88:204,2,40
112,124,202866,2,0,B|96:80,2,40
208,84,203203,2,0,B|216:28,2,40
364,156,203540,2,0,B|284:156,1,80,10|4
256,332,205731,5,2
256,316,206068,1,2
256,300,206405,2,0,B|256:216,1,80,2|0
256,116,206742,2,0,B|256:56,2,40
176,184,207079,5,0
336,200,207248,1,8
160,216,207416,1,0
352,168,207585,1,8
