osu file format v9

[General]
AudioFilename: Dokugaron.mp3
AudioLeadIn: 0
PreviewTime: 63306
Countdown: 0
SampleSet: Soft
StackLeniency: 0.7
Mode: 0
LetterboxInBreaks: 0

[Editor]
DistanceSpacing: 1
BeatDivisor: 4
GridSize: 4

[Metadata]
Title:Dokugaron -code:altered-
Artist:Megpoid GUMI
Creator:No_Gu
Version:Normal+
Source:Tambourine-P
Tags:ORYO OHAGI vocaloid vocaloid2 vocaloid3 tutuhaha KanaRin climbb65588

[Difficulty]
HPDrainRate:2
CircleSize:3
OverallDifficulty:2
ApproachRate:5
SliderMultiplier:1.2
SliderTickRate:1

[Events]
//Background and Video events
Video,0,"PV.flv"
0,0,"BG.jpg"
//Break Periods
2,11099,23183
2,46156,50149
2,85257,94643
2,101436,110149
2,187529,194418
//Storyboard Layer 0 (Background)
//Storyboard Layer 1 (Fail)
//Storyboard Layer 2 (Pass)
//Storyboard Layer 3 (Foreground)
//Storyboard Sound Samples
//Background Colour Transformations
3,100,163,162,255

[TimingPoints]
2473,337.078651685393,4,1,1,50,1,0
2810,337.078651685393,4,1,1,50,1,0
24384,-100,4,2,1,70,0,0
26743,-100,4,1,1,70,0,0
26912,-100,4,2,1,70,0,0
29440,-100,4,1,1,70,0,0
29608,-100,4,2,1,70,0,0
32136,-100,4,1,1,70,0,0
32305,-100,4,2,1,70,0,0
34833,-100,4,2,2,70,0,0
35170,-100,4,2,1,70,0,0
37530,-100,4,1,1,70,0,0
37614,-100,4,2,1,70,0,0
40226,-100,4,1,1,70,0,0
40395,-100,4,2,1,70,0,0
42923,-100,4,1,1,70,0,0
43091,-100,4,2,1,70,0,0
45114,-100,4,2,2,40,0,0
45788,-100,4,2,1,70,0,0
51349,-200,4,2,2,70,0,0
56069,-100,4,2,1,70,0,0
59945,-100,4,2,2,70,0,0
60451,-100,4,2,1,70,0,0
60788,-100,4,2,2,70,0,0
61125,-100,4,2,1,70,0,0
62136,-100,4,2,1,70,0,0
62557,-80,4,2,1,70,0,0
63148,-100,4,2,1,70,0,0
63484,-100,4,2,2,70,0,1
68204,-80,4,2,2,70,0,1
68372,-80,4,2,1,70,0,1
68541,-80,4,2,2,70,0,1
68708,-100,4,2,2,70,0,1
71912,-100,4,2,1,70,0,1
73007,-100,4,2,2,70,0,1
73260,-100,4,2,1,70,0,1
73765,-100,4,2,1,70,0,0
74270,-100,4,2,2,70,0,1
84046,-100,4,1,1,70,0,1
85057,-100,4,2,1,70,0,0
112024,-100,4,1,1,70,0,0
122810,-200,4,2,2,70,0,0
124664,-200,4,2,2,50,0,0
124833,-200,4,2,2,70,0,0
125001,-200,4,2,2,50,0,0
125170,-200,4,2,2,70,0,0
125339,-200,4,2,2,50,0,0
125507,-200,4,2,2,70,0,0
128203,-100,4,2,1,70,0,0
132923,-100,4,1,1,70,0,0
138822,-80,4,1,1,5,0,0
138989,-100,4,2,2,70,0,1
148766,-100,4,1,1,70,0,1
149608,-80,4,1,1,70,0,1
149692,-100,4,2,2,70,0,0
149776,-100,4,2,2,70,0,1
159215,-100,4,1,1,70,0,1
159889,-80,4,1,1,70,0,1
160478,-100,4,2,2,70,0,0
160562,-100,4,2,2,70,0,1
170339,-100,4,1,2,70,0,1
171265,-100,4,1,2,70,0,0
171349,-100,4,2,2,70,0,1
181125,-100,4,1,2,70,0,1
182135,-100,4,2,2,70,0,0
195619,-100,4,1,2,70,0,0

[Colours]
Combo1 : 202,121,0
Combo2 : 3,167,3
Combo3 : 4,4,176
Combo4 : 179,4,4

[HitObjects]
256,192,2473,1,0
192,92,2810,6,0,B|152:140|80:132,1,120,6|8
20,232,3484,1,0
60,280,3652,2,0,B|128:272|164:328,3,120,2|2|2|2
224,316,4832,2,0,B|268:192|268:192,1,120,8|0
372,156,5506,6,0,B|328:280|328:280,1,120,4|8
448,236,6180,1,0
456,176,6349,2,0,B|500:136|512:60,3,120,2|2|2|2
396,108,7697,2,0,B|260:68|260:68,1,120
228,104,8203,6,8,B|172:136|100:116,1,120,4|8
20,196,8877,1,0
52,248,9045,2,0,B|76:312|148:304,3,120,2|2|2|2
196,272,10225,2,0,B|332:272,1,120,0|8
404,192,10899,5,4
88,64,24383,6,0,B|108:124|184:156,1,120,4|8
228,164,24888,1,0
336,220,25225,1,0
392,236,25394,2,0,B|452:260|472:320,1,120,8|0
352,328,26068,1,8
240,268,26405,2,0,B|208:324|208:324,2,60,2|0|2
176,168,27079,6,0,B|208:112|276:92,1,120,4|8
152,60,27753,2,0,B|120:116|52:136,1,120,0|8
20,248,28427,1,0
60,292,28596,1,0
112,324,28765,2,0,B|164:368|232:364,1,120,8|2
244,248,29439,2,0,B|256:284|288:296,1,60,2|0
340,276,29776,6,0,B|400:264|456:308,1,120,4|8
480,188,30450,2,0,B|456:164|464:128,2,60,0|0|8
364,148,31124,1,0
308,252,31461,1,8
252,276,31630,1,0
196,300,31798,2,0,B|160:352|88:368,1,120,2|2
48,256,32472,6,0,B|92:220|92:220|128:220|172:204,1,120,4|8
64,132,33147,2,0,B|119:117|119:117|151:133|198:137,1,120,0|8
132,24,33821,2,0,B|187:34|187:34|211:62|251:85,1,120,0|8
312,168,34495,2,0,B|328:200|360:208,2,60,8|0|8
192,180,35169,6,0,B|148:228|148:228|132:288,1,120,4|8
156,336,35675,1,0
272,300,36012,1,0
312,344,36180,2,0,B|360:348|404:316|404:316|444:320|488:308,1,180,8|0
500,248,36854,2,0,B|448:208|452:136,1,120,8|2
368,56,37529,1,2
328,172,37866,5,4
352,228,38034,1,0
372,284,38203,2,0,B|276:268|220:164,1,180,8|0
196,132,38877,2,0,B|180:228|76:284,1,180,8|0
56,320,39551,2,0,B|92:320|116:356,1,60,8|0
164,364,39888,2,0,B|220:344|288:360,1,120,2|2
268,240,40562,6,0,B|328:216|388:240,1,120,4|8
480,312,41236,2,0,B|420:336|360:312,1,120,0|8
304,296,41742,2,0,B|280:332|244:344,1,60,0|0
196,236,42248,1,8
168,184,42416,1,0
136,132,42585,2,0,B|68:144|28:204,1,120,2|2
64,308,43259,6,0,B|128:292|200:320,1,120,4|8
300,284,43933,2,0,B|272:152|272:152,1,120,4|8
232,56,44607,2,0,B|176:24|96:68|120:140,1,180,8|8
164,176,45281,2,0,B|196:200|212:236,1,60,8|8
168,268,45618,2,8,B|132:280|116:308,1,60
80,348,45956,1,12
64,72,51349,6,0,B|64:140|64:140,1,60,6|2
164,200,52023,2,0,B|192:252|192:252,1,60,2|2
312,252,52697,6,0,B|312:251|340:199,1,60,2|2
440,131,53371,2,0,B|440:139|440:71,1,60,2|2
320,88,54045,6,0,B|280:136|208:136,1,120,6|2
96,160,55057,2,0,B|136:108,1,60,2|2
136,232,55731,2,0,B|172:240|192:264,1,60,2|8
276,344,56405,1,8
328,316,56574,1,0
380,288,56742,6,0,B|400:228|380:168,1,120,4|8
252,100,57416,1,0
192,92,57585,2,0,B|172:60|180:16,2,60,0|8|0
204,152,58090,2,0,B|84:216|84:216,1,120,0|8
68,324,58765,2,0,B|28:324|8:292,2,60,0|0|8
176,272,59439,6,0,B|260:292|300:284,1,120,4|8
460,156,60113,1,2
444,100,60281,1,2
432,40,60450,1,8
320,88,60787,1,2
316,148,60956,1,2
260,172,61124,1,8
140,164,61461,2,0,B|124:228|52:256|52:256,1,120,0|8
152,328,62135,5,8
216,264,62388,1,8
236,352,62641,2,0,B|288:312|288:312|336:332|404:308,1,149.999997764826,8|0
432,304,63147,1,12
460,188,63484,6,0,B|436:128|376:108,1,120,6|10
292,104,63989,1,0
236,164,64158,2,0,B|180:172|120:140,1,120,2|10
48,292,64832,1,2
128,312,65001,2,0,B|164:320|204:292,1,60,0|10
308,188,65506,1,2
376,236,65675,2,0,B|408:252|416:284,1,60,0|10
392,360,66012,1,0
476,344,66180,6,0,B|520:292|488:212,1,120,6|10
380,108,66854,2,0,B|416:92|428:44,2,60,2|0|10
344,32,67360,1,0
296,100,67529,2,0,B|224:52|168:84|168:84,1,120,2|10
120,136,68034,2,0,B|44:144|28:240|72:276,1,180,0|2
148,304,68708,6,0,B|244:280|320:344,1,180,0|10
448,232,69551,2,0,B|380:220|352:160,1,120,10|10
188,156,70225,2,0,B|256:140|276:68|276:68,1,120,10|10
112,128,70899,2,0,B|96:60|24:40|24:40,1,120,10|10
52,212,71574,6,0,B|112:236|112:236|148:288,1,120,14|8
312,260,72248,2,0,B|252:284|252:284|216:336,1,120,8|8
152,376,72753,1,0
68,356,72922,1,8
20,288,73090,1,0
52,212,73259,2,0,B|92:160|176:164|208:212,1,180,0|8
364,148,74102,6,0,B|304:88|304:88,1,60,8|6
284,180,74439,2,0,B|316:244|316:244,1,60,0|10
480,248,74944,2,0,B|464:316|408:340,1,120,2|10
248,292,75618,2,0,B|212:312|200:360,2,60,2|0|10
132,168,76293,1,2
292,116,76630,1,10
424,220,76967,6,0,B|368:248|368:248|348:308|348:308,1,120,6|10
432,308,77472,1,0
304,200,77809,1,0
236,248,77978,1,10
160,96,78315,2,0,B|181:160|135:230,1,120,2|10
48,348,78989,1,2
132,332,79158,1,0
200,280,79326,2,0,B|264:256|340:272,1,120,10|2
372,332,79832,6,0,B|440:296,1,60,0|10
456,140,80338,2,0,B|332:100,1,120,10|10
452,228,81012,2,0,B|321:221,1,120,10|10
472,312,81686,2,0,B|344:339,1,120,10|10
196,280,82360,5,4
76,160,82697,2,0,B|140:160|192:104,1,120,10|0
236,48,83203,1,0
264,128,83371,1,10
432,132,83708,1,0
324,260,84045,2,0,B|384:300,1,60,8|0
232,204,84551,1,0
172,264,84720,1,8
256,120,85057,5,4
256,192,95843,12,4,101236
120,64,111349,6,8,B|76:128,2,60
216,132,112023,6,0,B|276:116|336:132,2,120,4|8|0
260,244,113034,2,0,B|200:260|140:244,2,120,8|0|8
356,312,114045,2,0,B|400:272|468:280,1,120,0|8
480,160,114720,5,0
372,104,115057,2,0,B|320:160|184:124|192:32,2,240,8|8|8
424,212,116742,1,0
336,296,117079,1,8
232,240,117416,5,4
268,124,117753,2,0,B|136:140,1,120,8|0
60,56,118427,1,8
32,172,118765,2,0,B|76:296,1,120,0|8
188,312,119439,2,0,B|232:364,2,60,0|0|8
188,252,119944,1,0
220,200,120113,6,0,B|272:224|344:200,1,120,4|8
392,176,120618,1,0
312,88,120956,1,0
256,64,121124,2,0,B|188:72|148:124,1,120,8|0
56,192,121798,1,8
92,240,121967,1,0
148,256,122135,2,0,B|220:260|272:228|252:188|192:184|168:212|220:260|296:292,1,240,8|6
380,224,123147,6,0,B|400:288,1,60,2|2
448,172,123821,2,0,B|476:112,1,60,2|2
380,44,124495,2,0,B|392:80,2,30,0|8|0
320,48,125001,2,0,B|308:12,2,30,8|0|8
316,108,125506,6,0,B|252:96|196:116,2,120,6|2|2
408,188,127192,1,2
440,304,127529,1,2
340,236,127866,1,2
368,352,128203,6,0,B|308:364|248:352,1,120,4|8
160,272,128877,1,0
248,192,129214,2,0,B|280:136|352:136,2,120,8|0|8
136,152,130225,2,0,B|100:96,2,60,0|0|8
196,48,130899,6,0,B|256:68|316:48,1,120,4|8
376,152,131574,2,0,B|408:101,2,60,0|0|8
256,168,132248,2,0,B|256:240,2,60,0|0|8
164,92,132922,6,0,B|148:156|96:192|96:192|148:216|164:304,1,240
208,360,133849,1,0
248,280,134102,1,0
260,100,134607,1,0
340,56,134860,1,0
340,148,135113,2,0,B|376:132|408:144|408:144|452:104|520:124,1,180,0|4
256,192,135703,12,0,138315
256,192,138821,5,0
256,192,138989,2,0,B|320:168|336:104,1,120,6|10
384,40,139495,1,0
464,188,139832,1,0
464,188,140001,2,0,B|484:248|468:316,1,120,10|2
300,348,140675,1,10
172,240,141012,2,0,B|160:168|92:160,1,120,2|10
88,244,141517,1,0
136,316,141686,6,0,B|205:336|242:279,1,120,6|10
352,156,142360,2,0,B|416:176,2,60,2|0|10
208,68,143034,2,0,B|128:164,1,120,2|10
92,236,143540,2,0,B|148:256|196:220|196:220|256:148,1,180,0|10
392,92,144383,6,0,B|456:208,1,120,2|10
308,104,145057,2,0,B|372:220,1,120,10|10
224,120,145731,2,8,B|288:236,1,120,10|10
140,136,146405,2,0,B|204:252,1,120,10|10
188,324,146911,1,0
120,276,147079,6,0,B|88:332|24:352,2,120,4|8|0
128,192,147922,1,0
68,132,148090,1,8
236,108,148427,2,0,B|260:236,1,120,4|8
364,96,149102,2,0,B|344:168,1,60,0|8
456,332,149607,1,8
456,332,149776,6,0,B|392:296|320:312,1,120,6|10
264,340,150281,2,0,B|256:272|200:256|200:256|240:192,1,180,0|10
136,64,151124,1,2
40,204,151461,2,0,B|156:148,1,120,10|2
256,280,152135,1,10
364,152,152472,6,0,B|472:204,2,120,6|10|2
280,168,153315,1,0
304,88,153484,1,10
252,248,153821,2,0,B|192:220|128:248,1,120,6|10
80,308,154326,1,0
32,148,154663,2,0,B|28:120|32:88,2,60,0|10|4
256,36,155506,5,10
388,140,155843,1,10
388,308,156180,1,10
256,204,156517,1,10
124,308,156854,1,10
124,140,157192,1,10
256,36,157529,2,0,B|256:108,2,60,10|0|6
412,96,158203,5,8
356,160,158371,1,0
440,180,158540,2,0,B|464:240|444:300,1,120,0|8
280,332,159214,2,0,B|216:308|156:332|156:332|136:268|76:248,1,240
0,184,160057,1,8
212,200,160394,5,8
156,140,160562,2,0,B|200:92|172:28,1,120,6|10
100,76,161068,1,0
268,60,161405,1,0
348,32,161574,2,0,B|368:112|292:144,1,120,10|6
164,216,162248,2,0,B|120:284,1,60,10|0
300,272,162753,2,0,B|328:200,2,60,0|10|0
348,340,163259,6,0,B|396:296|472:308,1,120,6|10
500,144,163933,1,2
352,64,164270,2,0,B|292:172,1,120,10|2
136,224,164944,1,10
256,340,165281,1,2
376,224,165618,2,0,B|412:176,1,60,10|4
176,84,166293,6,0,B|144:116|96:124|96:124|48:108,1,120,10|10
232,140,166967,2,0,B|216:182|176:210|176:210|126:215,1,120,10|10
308,164,167641,2,0,B|311:209|287:250|287:250|244:277,1,120,10|10
386,157,168315,2,0,B|408:196|403:244|403:244|376:286,1,120,10|6
456,116,168989,6,0,B|412:60|340:88,1,120,10|0
196,152,169663,2,0,B|156:224,1,60,8|0
124,276,170001,1,4
292,248,170338,2,0,B|336:264|376:248|376:248|420:224|472:228,1,180
480,60,171180,1,8
412,108,171349,6,0,B|344:124|272:112,1,120,6|10
212,100,171854,1,0
52,52,172192,1,0
96,124,172360,2,0,B|120:184|112:264,1,120,10|2
256,332,173034,1,10
408,256,173371,2,0,B|452:232|436:160|384:168,1,120,2|10
256,72,174045,5,6
96,128,174383,2,0,B|148:160|216:140|216:140|212:196|268:256,2,240,10|10|10
36,68,175899,1,0
12,148,176068,1,2
36,228,176236,1,0
104,280,176405,2,0,B|168:320,1,60,10|4
368,176,177079,6,8,B|336:120|336:120|280:100,1,120,10|10
280,268,177753,2,8,B|274:203|274:203|232:161,1,120,10|10
160,316,178427,2,8,B|182:255|182:255|161:199,1,120,10|10
32,307,179102,2,8,B|77:261|77:261|82:202,1,120,10|6
192,80,179776,5,8
256,136,179944,1,0
320,80,180113,2,0,B|364:136|320:196,1,120,0|8
256,344,180787,1,4
180,192,181124,2,0,B|128:232|128:304|128:304|88:304|56:332,2,180,8|0|4
256,192,182220,12,0,184832
256,192,187192,5,2
108,84,195618,6,0,B|172:60|240:84,1,120,4|8
268,124,196124,1,8
188,212,196461,1,0
188,212,196630,2,0,B|124:232|104:292,2,120,8|0|8
228,324,197641,2,0,B|352:280,1,120,0|8
396,176,198315,6,0,B|336:144|344:72,1,120,4|8
296,40,198821,1,8
192,100,199158,2,0,B|168:176,1,60,0|8
152,212,199495,1,0
272,216,199832,2,0,B|304:288,1,60,0|8
360,168,200338,2,0,B|480:200,1,120,0|8
424,92,201012,6,4,B|356:88|316:44,1,120,4|8
268,8,201517,2,8,B|244:96|144:140,1,180
164,256,202360,2,0,B|116:216,1,60
84,268,202697,2,0,B|68:200,1,60
24,248,203034,2,0,B|40:176,1,60
8,136,203371,2,0,B|48:116|104:140|104:140|128:116,1,120,0|4
256,192,203793,12,0,206405
280,208,206742,6,0,B|312:224|320:256,2,60
228,180,207248,2,0,B|196:164|188:132,2,60,0|0|0
