osu file format v9

[General]
AudioFilename: Dokugaron.mp3
AudioLeadIn: 0
PreviewTime: 63306
Countdown: 0
SampleSet: Soft
StackLeniency: 0.6
Mode: 0
LetterboxInBreaks: 0
UseSkinSprites: 1

[Editor]
DistanceSpacing: 0.5
BeatDivisor: 4
GridSize: 4

[Metadata]
Title:Dokugaron -code:altered-
Artist:Megpoid GUMI
Creator:No_Gu
Version:Insane
Source:Tambourine-P
Tags:ORYO OHAGI vocaloid vocaloid2 vocaloid3 tutuhaha KanaRin climbb65588

[Difficulty]
HPDrainRate:7
CircleSize:4
OverallDifficulty:8
ApproachRate:9
SliderMultiplier:1.7
SliderTickRate:1

[Events]
//Background and Video events
Video,0,"PV.flv"
0,0,"BG.jpg"
//Break Periods
2,11099,23783
2,46156,50749
2,85257,95243
2,101436,110749
2,187529,195018
//Storyboard Layer 0 (Background)
//Storyboard Layer 1 (Fail)
//Storyboard Layer 2 (Pass)
//Storyboard Layer 3 (Foreground)
Sprite,Foreground,Centre,"approachcircle.png",275,331 F,0,207248,207417,0,0.3339921 S,0,207248,207754,2.13664,0.5840003 C,0,207248,207754,3,167,3 F,0,207417,207754,0.3339921,1
Sprite,Foreground,Centre,"hitcircle.png",275,331 F,0,207248,207417,0,0.3339921 S,0,207248,207754,0.58 C,0,207248,207754,3,167,3 F,0,207417,207754,0.3339921,1
Sprite,Foreground,Centre,"hitcircleoverlay.png",275,331 F,0,207248,207417,0,0.3339921 S,0,207248,207754,0.58 F,0,207417,207754,0.3339921,1
Sprite,Foreground,Centre,"default-1.png",275,331 F,0,207248,207417,0,0.3339921 S,0,207248,207754,0.5 F,0,207417,207754,0.3339921,1
//Storyboard Sound Samples
//Background Colour Transformations
3,100,163,162,255

[TimingPoints]
2473,337.078651685393,4,1,1,50,1,0
2810,337.078651685393,4,1,1,50,1,0
24384,-100,4,2,1,70,0,0
26743,-100,4,1,1,70,0,0
26912,-100,4,2,1,70,0,0
29440,-100,4,1,1,70,0,0
29608,-100,4,2,1,70,0,0
32136,-100,4,1,1,70,0,0
32305,-100,4,2,1,70,0,0
34833,-100,4,2,2,70,0,0
35170,-100,4,2,1,70,0,0
37530,-100,4,1,1,70,0,0
37614,-100,4,2,1,70,0,0
40226,-100,4,1,1,70,0,0
40395,-100,4,2,1,70,0,0
42923,-100,4,1,1,70,0,0
43091,-100,4,2,1,70,0,0
45114,-100,4,2,2,40,0,0
45788,-100,4,2,1,70,0,0
51349,-200,4,2,2,70,0,0
56069,-100,4,2,1,70,0,0
59945,-100,4,2,2,70,0,0
60451,-100,4,2,1,70,0,0
60619,-100,4,2,2,70,0,0
61125,-100,4,2,1,70,0,0
61294,-100,4,2,2,70,0,0
61799,-100,4,2,1,70,0,0
62641,-80,4,2,1,70,0,0
63316,-80,4,2,2,70,0,0
63484,-100,4,2,2,70,0,1
68203,-80,4,2,2,70,0,1
68372,-80,4,2,1,70,0,1
68541,-80,4,2,2,70,0,1
68709,-100,4,2,2,70,0,1
71912,-100,4,2,1,70,0,1
73007,-100,4,2,2,70,0,1
73260,-100,4,2,1,70,0,1
73765,-100,4,2,1,70,0,0
74270,-100,4,2,2,70,0,1
84046,-100,4,1,1,70,0,1
85057,-100,4,2,1,70,0,0
111349,-200,4,1,1,70,0,0
112023,-100,4,1,1,70,0,0
122809,-200,4,2,2,70,0,0
124664,-200,4,2,2,50,0,0
124833,-200,4,2,2,70,0,0
125001,-200,4,2,2,50,0,0
125170,-200,4,2,2,70,0,0
125339,-200,4,2,2,50,0,0
125507,-200,4,2,2,70,0,0
128203,-100,4,2,1,70,0,0
132923,-100,4,1,1,70,0,0
137978,-100,4,2,2,5,0,0
138316,-100,4,1,1,70,0,0
138653,-80,4,1,1,70,0,0
138822,-80,4,1,1,5,0,0
138989,-100,4,2,2,70,0,1
148766,-100,4,1,1,70,0,1
149607,-80,4,1,1,70,0,1
149692,-100,4,2,2,70,0,0
149776,-100,4,2,2,70,0,1
159215,-100,4,1,1,70,0,1
159888,-80,4,1,1,70,0,1
160478,-100,4,2,2,70,0,0
160562,-100,4,2,2,70,0,1
170339,-100,4,1,2,70,0,1
170675,-80,4,1,2,70,0,1
171181,-80,4,1,2,70,0,1
171265,-100,4,2,2,70,0,0
171349,-100,4,2,2,70,0,1
175732,-100,4,1,2,70,0,1
175816,-100,4,1,2,20,0,1
175900,-100,4,2,2,70,0,1
181125,-100,4,1,2,70,0,1
182135,-100,4,2,2,70,0,0
195619,-100,4,1,2,70,0,0

[Colours]
Combo1 : 202,121,0
Combo2 : 3,167,3
Combo3 : 4,4,176
Combo4 : 179,4,4

[HitObjects]
256,192,2473,1,0
112,104,2810,6,0,B|48:176|48:176,1,85,6|0
116,328,3147,2,0,B|180:256|180:256,1,85,8|0
308,164,3484,1,0
320,332,3652,5,2
336,324,3989,1,2
352,316,4326,1,2
460,184,4495,5,8
436,104,4663,1,0
380,168,4832,2,0,B|328:240|328:240,1,85,0|0
388,300,5169,2,0,B|316:220|316:220,1,85,8|0
316,224,5422,1,0
300,212,5506,6,0,B|268:324|268:324,1,85,4|0
124,216,5843,2,0,B|156:104|156:104,1,85,8|0
276,20,6180,2,0,B|244:132|244:132,1,85,0|2
252,120,6686,5,2
256,136,7023,1,2
268,148,7360,1,2
344,300,7529,6,0,B|295:207,1,85,0|0
304,224,7781,1,0
304,224,7866,1,0
220,220,8034,1,0
204,236,8118,1,0
188,252,8203,6,0,B|144:292|80:284,1,85,4|0
168,348,8540,2,0,B|208:328|264:344,1,85,8|0
376,228,8877,1,0
328,300,9045,1,2
216,172,9383,5,2
204,160,9720,1,2
36,176,9888,6,0,B|100:248|100:248,1,85,8|0
76,324,10225,2,0,B|116:344|180:336,1,85
180,332,10478,1,0
200,324,10562,1,8
216,312,10647,1,0
228,296,10731,1,0
236,276,10815,1,0
240,256,10899,5,4
176,64,24383,6,0,B|208:152|312:168,1,170,4|8
188,292,24888,2,0,B|156:204|52:188,1,170,0|0
54,317,25394,2,0,B|36:276|0:252,1,85,8|0
63,190,25731,1,0
92,112,25899,1,0
92,112,25984,1,0
92,112,26068,1,8
148,176,26236,1,0
148,176,26321,1,0
148,176,26405,2,0,B|208:236,1,85,2|0
284,276,26742,2,0,B|260:316|212:324,1,85,2|0
344,212,27079,6,0,B|394:139|488:132,1,170,4|8
320,100,27585,1,0
280,264,27753,2,0,B|229:336|135:343,1,170,0|8
304,372,28259,1,0
328,204,28427,2,0,B|304:160|252:152,1,85
184,184,28765,2,0,B|208:228|260:236,1,85,8|0
356,164,29102,2,0,B|332:120|280:112,1,85,2|0
152,212,29439,2,0,B|176:256|228:264,1,85,2|0
220,284,29692,1,0
212,304,29776,6,0,B|288:292|356:336|356:336,1,127.5,4|0
352,340,30113,2,0,B|380:308|424:288,1,85,8|0
472,128,30450,1,0
456,140,30534,2,0,B|424:172|376:184,1,85
364,188,30787,1,8
372,104,30956,1,0
296,136,31124,1,0
232,24,31293,1,0
116,76,31461,1,8
168,192,31630,1,0
92,296,31798,2,0,B|180:272|180:272,1,85,2|0
324,348,32135,2,0,B|232:312|232:312,1,85,2|0
416,312,32472,6,0,B|388:252|432:188|500:200,1,170,4|8
496,284,32978,1,0
496,284,33147,2,0,B|436:312|372:268|384:200,1,170,0|8
468,204,33652,1,0
468,204,33821,2,0,B|496:264|452:328|384:316,1,170,0|8
388,232,34326,1,0
248,104,34495,2,0,B|280:188|280:188,1,85,10|8
152,184,34832,2,0,B|128:272|128:272,1,85,10|0
204,308,35169,6,0,B|280:272|280:272|332:204,1,170,4|8
372,280,35675,2,0,B|336:204|336:204|268:152,1,170,0|0
344,112,36180,2,0,B|268:148|268:148|216:216,1,170,8|0
176,140,36686,2,0,B|116:212|116:212,2,85,0|8|0
120,80,37192,1,2
100,84,37276,1,0
88,100,37360,1,0
252,140,37529,1,2
256,160,37613,1,0
272,172,37697,1,0
440,204,37866,5,4
372,312,38034,1,0
312,200,38203,1,8
212,280,38371,1,0
328,336,38540,1,0
432,260,38708,1,0
324,192,38877,1,8
224,272,39045,1,0
340,328,39214,1,0
444,252,39383,1,0
336,184,39551,2,0,B|408:136|408:136,1,85,8|0
280,124,39888,2,0,B|248:168|260:216,1,85,2|0
300,368,40225,2,0,B|332:324|320:276,1,85,2|0
252,236,40562,6,0,B|184:228|120:276,1,127.5,4|0
136,288,40899,2,0,B|112:332|64:340,1,85,8|0
240,324,41236,2,0,B|308:332|372:284,1,127.5,0|0
356,272,41574,2,0,B|380:228|428:220,1,85,8|0
476,156,41911,1,0
412,100,42079,1,0
356,164,42248,1,8
420,220,42416,1,0
248,220,42585,2,0,B|172:288|172:288,1,85,2|0
172,108,42922,2,0,B|152:208|152:208,1,85,2|0
140,204,43175,1,0
120,196,43259,6,0,B|116:144|76:120,1,85,4|0
176,264,43596,2,0,B|180:316|220:340,1,85,8|0
221,168,43933,2,0,B|312:192|302:189,1,85,4|0
436,292,44270,2,0,B|344:268|344:268,1,85,8|0
220,168,44607,2,0,B|192:256|96:280,1,170,0|8
44,116,45113,1,8
52,136,45197,1,8
72,144,45281,1,8
256,104,45450,1,8
268,120,45534,1,8
280,136,45618,1,8
292,152,45703,1,8
304,168,45787,1,8
316,184,45871,1,8
328,200,45956,5,12
88,88,51349,6,0,B|92:132|92:132,1,42.5,6|0
168,168,51686,2,0,B|180:212|180:212,1,42.5,2|0
256,244,52023,2,0,B|256:292|256:292,1,42.5,2|0
332,208,52360,2,0,B|331:210|343:166,1,42.5,2|0
419,129,52697,2,0,B|418:130|422:86,1,42.5,2|0
284,184,53034,2,0,B|324:168|368:188,1,85,2|2
408,264,53540,1,0
324,264,53708,1,2
256,316,53877,1,0
188,264,54045,6,0,B|148:304,1,42.5,6|0
140,212,54383,2,0,B|100:252,1,42.5,2|0
92,160,54720,2,0,B|52:200,1,42.5,2|0
140,212,55057,2,0,B|180:172,1,42.5,2|0
188,264,55394,2,0,B|228:224,1,42.5,2|0
388,208,55731,2,0,B|432:212|468:236,1,85,2|10
416,300,56236,1,0
416,300,56321,1,0
416,300,56405,1,8
304,172,56574,1,0
344,336,56742,6,0,B|304:356|252:348,1,85,4|0
368,216,57079,2,0,B|408:196|460:204,1,85,8|0
296,272,57416,1,0
452,204,57585,2,0,B|432:164|440:112,2,85,0|8|0
296,272,58090,2,0,B|336:288|364:332,1,85
268,184,58427,2,0,B|284:144|328:116,1,85,8|0
176,212,58765,2,0,B|136:196|108:152,1,85
208,300,59102,2,0,B|192:340|148:368,1,85,8|0
260,232,59439,6,0,B|344:252|428:236,1,170,4|8
468,160,59944,1,2
420,88,60113,2,0,B|376:84|336:88,1,85,2|2
288,160,60450,1,8
140,76,60618,1,2
84,140,60787,2,0,B|140:204|112:304,1,170,2|8
184,352,61293,1,2
244,192,61630,1,2
76,148,61798,5,8
72,316,62135,5,8
92,192,62388,1,8
192,272,62641,2,0,B|224:224|292:252|308:296|272:364|208:348,1,212.499996833503,8|0
196,348,63062,1,0
176,340,63147,1,12
184,128,63315,1,2
260,88,63484,6,0,B|364:100|380:208,1,170,6|10
304,232,63989,1,0
284,240,64074,1,0
264,248,64158,1,2
96,228,64326,1,0
96,228,64411,1,0
96,228,64495,1,10
264,248,64663,1,0
188,208,64832,1,2
172,124,65001,2,0,B|148:80|96:76,1,85,0|10
252,164,65338,1,0
292,88,65506,1,2
376,72,65675,2,0,B|400:29|443:26,1,85,0|10
496,188,66012,1,0
376,72,66180,6,0,B|350:135|282:151,1,127.5,6|0
260,152,66517,2,0,B|304:180|308:232,1,85,10|0
200,352,66854,2,0,B|156:324|152:272,1,85,2|0
108,212,67192,2,0,B|80:256|28:260,1,85,10|0
172,148,67529,2,0,B|200:104|252:100,1,85,2|0
252,184,67866,2,0,B|292:216|284:260,1,85,10|0
272,276,68118,1,0
256,288,68203,2,0,B|312:292|368:344,1,106.249998416752,2|8
452,288,68540,2,0,B|396:284|340:232,1,106.249998416752,10|4
336,164,68877,5,0
260,128,69045,1,0
176,148,69214,2,0,B|128:156|104:188,1,85,10|0
260,128,69551,1,10
224,204,69720,1,0
244,288,69888,2,0,B|252:336|284:360,1,85,10|0
224,204,70225,1,10
300,240,70394,1,0
384,220,70562,2,0,B|432:212|456:180,1,85,10|0
300,240,70899,1,10
336,164,71068,1,0
316,80,71236,2,0,B|308:32|276:8,1,85,10|0
172,144,71574,6,0,B|128:228|32:220,1,170,14|8
164,324,72079,1,0
244,224,72248,1,8
248,352,72416,1,0
172,248,72585,1,8
292,288,72753,1,0
328,364,72922,1,8
348,356,73006,1,0
368,348,73090,1,2
352,264,73259,1,8
332,272,73343,1,8
312,280,73427,1,8
292,288,73512,1,0
272,296,73596,2,0,B|184:328|184:328,1,85,0|8
192,324,74102,6,0,B|124:247|124:247,1,85,8|6
296,200,74439,2,0,B|364:277|364:277,1,85,0|10
436,288,74776,1,0
436,288,74860,1,0
436,288,74944,2,0,B|480:312|484:360,1,85,2|0
360,236,75281,2,0,B|316:212|312:164,1,85,10|0
208,36,75618,2,0,B|252:60|256:108,1,85,2|0
172,112,75956,1,10
220,180,76124,2,0,B|164:244|164:244,1,85,0|2
308,152,76461,1,0
308,152,76545,1,0
308,152,76630,1,10
244,100,76798,1,0
416,112,76967,6,0,B|440:196|440:196|416:232|424:280,1,170,6|10
256,240,77472,1,0
88,268,77641,2,0,B|64:184|64:184|88:148|80:100,1,170,2|10
0,132,78147,1,0
0,132,78231,1,0
0,132,78315,2,0,B|12:44,1,85,2|0
156,136,78652,2,0,B|168:224,1,85,10|0
336,204,78989,1,2
372,280,79158,1,0
452,312,79326,2,0,B|508:240|508:240,1,85,10|4
484,76,79663,5,2
452,156,79832,2,0,B|432:196|432:196|400:220,1,85,0|10
316,232,80169,1,0
172,148,80338,1,10
252,180,80506,2,0,B|292:200|292:200|316:232,1,85,0|10
328,316,80843,1,0
412,172,81012,1,10
380,252,81180,2,0,B|360:292|360:292|328:316,1,85,0|10
244,328,81517,1,0
100,244,81686,1,10
180,276,81854,2,0,B|220:296|220:296|244:328,1,85,0|10
320,368,82192,1,0
320,368,82276,1,0
320,368,82360,6,0,B|380:288|380:288,1,85,14|0
296,148,82697,2,0,B|236:228|236:228,1,85,10|0
124,252,83034,1,2
244,296,83203,1,0
172,192,83371,1,10
168,320,83540,2,0,B|120:320|84:344,1,85,0|2
36,224,83877,1,0
116,124,84045,1,0
116,124,84130,1,0
116,124,84214,1,0
116,124,84298,1,0
116,124,84383,1,0
228,56,84551,1,0
284,120,84720,1,8
256,288,85057,5,4
256,192,95843,12,4,101236
40,72,111349,6,0,B|56:104|56:104,3,21.25
60,108,111686,2,0,B|92:124|92:124,3,21.25
96,128,112023,6,0,B|72:236|72:236,1,85,4|0
224,120,112360,2,0,B|236:76|276:56,1,85,8|8
296,48,112613,1,0
316,48,112697,2,0,B|316:92|344:132,1,85
436,272,113034,2,0,B|392:272|352:244,1,85,8|0
340,232,113287,1,0
328,216,113371,2,0,B|240:208|240:208,1,85
220,208,113624,1,0
200,208,113708,1,8
80,256,113877,6,8,B|28:340|28:340,1,85,0|0
52,316,114130,1,0
72,312,114214,1,0
92,312,114298,1,0
112,316,114383,1,8
132,324,114467,1,0
148,340,114551,1,8
160,356,114635,1,0
168,376,114720,6,0,B|268:336,1,85,4|0
284,180,115057,2,0,B|320:152|320:88,1,85,8|8
320,84,115309,1,0
316,64,115394,2,0,B|344:104|384:120,1,85
396,36,115731,1,8
456,196,115899,2,0,B|488:264,2,42.5,0|0|0
324,300,116236,2,0,B|276:284,2,42.5,0|0|8
316,128,116574,2,0,B|288:80|288:80,2,42.5,0|0|0
352,204,116911,1,0
268,208,117079,1,8
256,224,117163,1,0
244,240,117248,1,8
232,256,117332,1,0
216,272,117416,6,0,B|160:336|84:328|84:328,1,127.5,4|0
84,328,117753,2,0,B|64:284|24:272,1,85,8|8
100,120,118090,2,0,B|120:164|160:176,1,85
180,92,118427,1,8
348,64,118596,2,0,B|272:120|272:120,1,85
268,132,118849,1,0
264,152,118933,1,0
240,236,119102,1,8
256,252,119186,1,0
276,252,119270,2,0,B|328:248|360:296,1,85
180,284,119607,1,0
160,292,119692,1,0
148,308,119776,2,0,B|120:344|76:344,1,85,8|8
244,152,120113,6,0,B|152:168|96:88,1,170,4|8
48,20,120618,1,0
32,36,120703,1,0
16,52,120787,2,0,B|28:136|28:136,1,85,0|0
32,156,121040,1,0
36,176,121124,2,0,B|24:224|0:252,1,85,8|0
172,272,121461,2,0,B|220:276|248:320,2,85,0|0|8
128,200,121967,1,0
140,184,122051,1,0
152,168,122135,1,0
228,128,122304,1,0
240,144,122388,1,0
252,160,122472,1,8
264,180,122557,1,0
276,196,122641,1,8
172,332,122809,6,0,B|188:280|188:280,1,42.5,6|0
268,344,123147,2,0,B|264:288|264:288,1,42.5,2|0
324,240,123484,2,0,B|368:216|416:232,1,85,2|2
472,280,123989,5,0
484,264,124158,1,2
472,248,124326,1,0
488,232,124495,2,0,B|476:192,1,42.5,2|8
420,124,124832,2,0,B|376:152|376:152,1,42.5,0|8
300,152,125169,2,0,B|276:108|276:108,1,42.5,0|8
140,216,125506,6,0,B|184:196|200:152,1,85,6|2
172,76,126012,2,0,B|120:52|120:52,2,42.5,0|2|0
256,96,126517,2,0,B|300:88|300:88,1,42.5,2|0
372,128,126854,2,0,B|428:148|428:148,1,42.5,2|0
448,220,127192,2,0,B|496:192|496:140,1,85,2|10
436,92,127697,1,0
420,80,127781,1,0
404,68,127866,2,0,B|372:72|348:88|348:88,1,42.5,10|0
216,164,128203,6,0,B|252:224|212:284|144:280,1,170,4|8
256,344,128708,1,0
368,280,128877,2,0,B|302:283|262:223|298:163,1,170,0|8
256,44,129383,1,0
108,132,129551,2,0,B|64:208|64:208,1,85
116,272,129888,2,0,B|160:196|160:196,1,85,8|0
228,152,130225,1,0
304,188,130394,1,0
304,188,130478,1,0
304,188,130562,1,8
368,300,130731,1,0
436,192,130899,6,0,B|460:84|460:84,1,85,4|0
420,276,131236,2,0,B|396:384|396:384,1,85,8|0
352,196,131574,2,0,B|376:88|376:88,1,85,0|0
336,280,131911,2,0,B|312:388|312:388,1,85,8|0
268,200,132248,2,0,B|292:92|292:92,1,85,0|0
252,284,132585,2,0,B|228:392|228:392,1,85,8|0
144,272,132922,1,0
156,256,133006,1,0
164,236,133090,1,0
168,216,133175,1,0
160,196,133259,1,0
148,180,133343,1,0
140,160,133427,1,0
148,140,133512,1,0
160,124,133596,5,0
276,76,133849,1,0
268,204,134102,1,0
428,144,134439,2,0,B|480:176,2,42.5
336,56,134860,1,0
316,180,135113,2,0,B|368:192|368:192|428:240|408:320,1,170
400,312,135534,1,0
384,328,135618,1,0
256,192,135703,12,0,137978
76,68,138315,5,0
76,68,138399,1,0
76,68,138484,1,0
76,68,138568,1,0
76,68,138652,2,0,B|136:164|136:164,1,106.249998416752
304,156,138989,6,0,B|264:240|264:240,1,85,6|0
272,316,139326,2,0,B|316:304|344:280|344:280|392:180|392:180,1,170,10|2
448,144,139832,1,0
448,144,139916,1,0
448,144,140001,2,0,B|484:184|464:232,1,85,10|0
404,380,140338,2,0,B|368:340|388:292,1,85,2|0
292,160,140675,2,0,B|224:236|128:224|120:216,1,170,10|2
88,156,141180,1,0
16,260,141349,1,10
136,300,141517,1,0
300,252,141686,6,0,B|380:212|464:228|464:228,1,170,6|10
508,300,142192,1,0
508,300,142276,1,0
508,300,142360,2,0,B|440:360|440:360,1,85,2|0
276,368,142697,2,0,B|344:308|344:308,1,85,10|0
280,248,143034,2,0,B|192:276|192:276,1,85,2|0
328,164,143371,2,0,B|416:136|416:136,1,85,10|0
428,128,143624,1,0
444,112,143708,1,2
496,276,143877,2,0,B|460:364|460:364,2,85,0|10|6
328,288,144383,6,0,B|280:368|280:368,1,85,2|0
332,196,144720,2,0,B|254:248|254:248,1,85,10|0
376,116,145057,2,0,B|283:130|283:130,1,85,10|0
444,56,145394,2,0,B|354:30|354:30,1,85,10|0
192,36,145731,2,0,B|184:33|273:59,1,85,10|0
122,132,146068,2,0,B|113:133|205:118,1,85,10|0
92,246,146405,2,0,B|85:250|162:198,1,85,10|0
114,364,146742,2,0,B|109:371|157:291,1,85,10|0
296,192,147079,6,0,B|380:144|480:176|480:176,1,170,14|10
500,248,147585,1,0
500,248,147669,1,0
500,248,147753,2,0,B|436:324|436:324,1,85,2|0
284,264,148090,2,0,B|252:168|252:168,1,85,10|0
192,128,148427,2,0,B|172:220|52:228|52:228,1,170,4|0
48,212,148849,1,0
24,216,148933,1,0
12,236,149017,1,0
16,260,149102,2,0,B|60:352|60:352,1,85
52,336,149607,6,0,B|92:332|124:296|96:244,1,106.249998416752,8|6
184,244,149944,1,0
184,244,150029,1,0
184,244,150113,2,0,B|196:288|240:304,1,85,10|0
228,132,150450,2,0,B|296:204|296:204,1,85,2|0
364,160,150787,2,0,B|376:216|340:260,1,85,10|0
180,244,151124,2,0,B|164:184|232:136|188:76,1,170,6|10
120,124,151630,1,0
120,124,151714,1,0
120,124,151798,2,0,B|64:196|64:196,1,85,2|0
192,76,152135,2,0,B|244:164|244:164,1,85,10|0
244,168,152388,1,0
252,188,152472,6,0,B|272:124|336:88,1,127.5,6|0
348,80,152809,2,0,B|332:128|364:160,1,85,10|0
436,204,153147,1,2
368,312,153315,1,0
488,268,153484,1,10
364,232,153652,1,0
444,332,153821,1,2
284,272,153989,2,0,B|204:336|204:336,1,85,0|10
132,328,154326,2,0,B|92:348|92:348,2,42.5,0|0|2
168,252,154663,2,0,B|168:140|168:140,2,85,0|10|4
328,192,155169,5,2
304,184,155338,1,0
348,188,155506,1,10
288,192,155675,1,0
360,172,155843,1,10
276,212,156012,1,0
364,148,156180,1,10
272,236,156349,1,0
356,120,156517,1,10
280,264,156686,1,0
192,120,156854,2,0,B|124:176|124:176,1,85,10|0
288,116,157192,2,0,B|356:60|356:60,1,85,10|0
436,84,157529,1,10
488,152,157697,1,0
480,172,157781,1,0
472,192,157866,6,0,B|440:276|440:276,1,85,14|0
368,316,158203,2,0,B|284:296|200:316,1,170,10|2
136,264,158708,2,0,B|56:304|56:304,1,85,0|10
184,184,159045,1,0
252,236,159214,2,0,B|272:252|304:252,3,42.5,0|0|0|0
312,244,159551,2,0,B|332:228|364:228,3,42.5,0|0|0|0
372,232,159888,2,0,B|412:272|416:340,1,106.249998416752,0|8
414,326,160394,6,0,B|496:248|496:248,1,106.249998416752,8|6
464,172,160731,1,0
448,156,160815,1,0
432,140,160899,2,0,B|416:96|380:72,1,85,10|0
344,148,161236,2,0,B|344:232,1,85,2|0
264,268,161574,2,0,B|264:172|264:172,1,85,10|0
204,120,161911,2,0,B|136:188|48:172,1,170,2|10
92,100,162416,1,0
108,112,162501,1,0
120,132,162585,2,0,B|136:180|116:224,1,85,2|0
228,348,162922,2,0,B|212:300|232:256,1,85,10|0
240,244,163175,1,0
252,228,163259,6,2,B|320:252|392:224|392:224,1,127.5,6|2
396,216,163596,2,0,B|436:244|432:296,1,85,10|0
448,160,163933,2,0,B|512:100|512:100,2,85,2|0|10
404,88,164439,1,0
328,128,164607,2,0,B|284:152|272:192,1,85,2|0
332,252,164944,2,0,B|300:296|212:296|196:224,1,170,10|2
136,164,165450,2,0,B|84:236|84:236,1,85,0|10
76,316,165787,1,4
232,248,165956,6,0,B|276:264|292:304,1,85,2|0
156,204,166293,2,0,B|154:250|121:278,1,85,10|0
168,116,166630,2,2,B|122:128|86:105,1,85,10|0
256,96,166967,2,0,B|229:57|240:15,1,85,10|0
304,176,167304,2,2,B|332:139|375:136,1,85,10|0
380,220,167641,2,0,B|420:296|420:296,1,85,10|0
252,336,167978,2,0,B|328:296|328:296,1,85,10|0
492,256,168315,2,0,B|452:180|452:180,1,85,10|0
296,248,168652,6,0,B|236:284|168:276,1,127.5,14|0
160,264,168989,2,0,B|112:288|108:340,1,85,10|0
208,192,169326,2,0,B|292:149|299:58,1,170,2|10
376,24,169832,1,0
376,108,170001,1,2
452,68,170169,2,0,B|464:120|444:164,1,85
444,172,170422,1,0
436,192,170506,1,0
420,208,170590,1,0
404,220,170675,2,0,B|344:232|316:284,1,106.249998416752,0|8
319,278,171180,6,0,B|231:358|231:358,1,106.249998416752,8|6
212,196,171517,1,0
212,196,171602,1,0
212,196,171686,2,0,B|128:256|128:256,1,85,10|0
64,276,172023,2,0,B|60:220|88:192|88:192|164:140,1,170,2|10
196,72,172529,1,0
212,88,172613,1,0
232,92,172697,2,0,B|272:112|288:160,1,85,2|0
424,256,173034,2,0,B|384:236|368:188,1,85,10|0
500,304,173371,1,2
424,340,173540,2,0,B|332:368|332:368,1,85,0|10
272,316,173877,1,0
252,304,173961,1,0
232,296,174045,6,0,B|188:296|152:320,1,85,6|0
288,216,174383,2,0,B|332:216|368:192,1,85,10|0
196,212,174720,1,2
244,144,174888,2,0,B|276:64|276:64,1,85,0|10
396,184,175225,1,0
388,164,175309,1,0
380,144,175394,2,0,B|348:64|348:64,1,85,2|0
312,232,175731,2,0,B|312:172|312:172,2,42.5,10|0|0
256,296,176068,2,0,B|220:324|164:320,1,85,2|0
296,360,176405,2,0,B|332:332|388:336,1,85,10|4
256,216,176742,5,2
176,192,176911,2,0,B|128:196|92:160,1,85,0|10
256,228,177248,1,0
208,128,177416,2,0,B|161:115|140:69,1,85,10|0
256,204,177753,1,10
260,76,177922,2,0,B|220:48|216:-2,1,85,0|10
324,140,178259,1,0
392,192,178427,2,0,B|368:240|376:280,1,85,10|0
460,252,178765,2,0,B|460:344|460:344,1,85,10|0
504,172,179102,2,0,B|504:88|504:88,1,85,10|0
428,48,179439,6,14,B|364:112|268:88,1,170,14|10
200,44,179944,1,0
196,128,180113,1,2
128,176,180281,1,0
56,128,180450,2,0,B|56:196|8:232|8:232|32:276,2,170,10|6|10
68,112,181208,1,0
84,100,181293,1,0
104,92,181377,1,0
124,88,181461,1,2
144,92,181545,1,0
164,100,181630,1,0
180,112,181714,1,0
196,128,181798,2,0,B|196:176|228:204,1,85,10|0
256,192,182135,12,0,184832
256,192,187192,5,2
84,72,195618,6,0,B|104:156|104:156,1,85,4|0
188,176,195956,2,0,B|168:92|168:92,1,85,8|8
272,228,196293,1,0
332,288,196461,1,0
352,284,196545,1,0
372,288,196630,2,0,B|412:308|416:356,1,85,8|8
164,308,196967,2,0,B|212:392|320:368,1,170,0|8
332,288,197472,1,0
272,228,197641,1,0
256,144,197809,1,0
236,152,197894,1,0
216,148,197978,2,0,B|208:200|176:232,1,85,8|0
272,316,198315,6,0,B|286:222|344:164,1,170,4|8
408,224,198821,1,8
424,240,198905,1,0
440,256,198989,2,0,B|468:292|512:300,2,85,0|0|8
484,184,199495,1,0
436,116,199663,2,0,B|344:144|272:96,1,170,0|8
196,64,200169,1,0
188,84,200253,1,0
180,104,200338,2,0,B|144:192|144:192,1,85,8|0
200,252,200675,2,0,B|236:164|236:164,1,85,8|0
312,204,201012,6,0,B|380:204|428:248|428:248|484:240|484:240,1,170,4|8
308,292,201517,1,8
472,336,201686,2,0,B|484:337|428:329|428:329|380:373|312:373,1,170,0|8
240,340,202192,1,8
156,340,202360,1,0
156,340,202444,1,0
156,340,202529,1,0
100,276,202697,1,0
100,276,202781,1,0
100,276,202866,1,0
64,200,203034,5,0
64,200,203118,1,0
64,200,203203,1,0
64,200,203287,1,0
64,200,203371,1,0
64,200,203456,1,0
64,200,203540,1,0
64,200,203624,1,0
64,200,203708,1,4
256,192,203793,12,0,206405
76,64,206742,5,0
88,80,206826,1,0
100,96,206911,1,0
112,112,206995,1,0
124,128,207079,5,0
211,272,207248,1,0
192,188,207416,5,0
280,332,207585,1,8
