osu file format v9

[General]
AudioFilename: Dokugaron.mp3
AudioLeadIn: 0
PreviewTime: 63306
Countdown: 0
SampleSet: Soft
StackLeniency: 0.6
Mode: 0
LetterboxInBreaks: 0

[Editor]
DistanceSpacing: 1
BeatDivisor: 4
GridSize: 4

[Metadata]
Title:Dokugaron -code:altered-
Artist:Megpoid GUMI
Creator:No_Gu
Version:Easy
Source:Tambourine-P
Tags:ORYO OHAGI vocaloid vocaloid2 vocaloid3 tutuhaha KanaRin climbb65588

[Difficulty]
HPDrainRate:1
CircleSize:3
OverallDifficulty:1
ApproachRate:3
SliderMultiplier:0.999999999999999
SliderTickRate:1

[Events]
//Background and Video events
Video,0,"PV.flv"
0,0,"BG.jpg"
//Break Periods
2,11099,22943
2,46155,49909
2,85257,94403
2,101436,109909
2,187529,194178
//Storyboard Layer 0 (Background)
//Storyboard Layer 1 (Fail)
//Storyboard Layer 2 (Pass)
//Storyboard Layer 3 (Foreground)
//Storyboard Sound Samples
//Background Colour Transformations
3,100,163,162,255

[TimingPoints]
2473,337.078651685393,4,1,1,50,1,0
2810,337.078651685393,4,1,1,50,1,0
24384,-100,4,2,1,70,0,0
26743,-100,4,1,1,70,0,0
26912,-100,4,2,1,70,0,0
29440,-100,4,1,1,70,0,0
29608,-100,4,2,1,70,0,0
32136,-100,4,1,1,70,0,0
32305,-100,4,2,1,70,0,0
34833,-100,4,2,2,70,0,0
35170,-100,4,2,1,70,0,0
37530,-100,4,1,1,70,0,0
37614,-100,4,2,1,70,0,0
40226,-100,4,1,1,70,0,0
40395,-100,4,2,1,70,0,0
42923,-100,4,1,1,70,0,0
43091,-100,4,2,1,70,0,0
44945,-100,4,1,1,70,0,0
45788,-100,4,2,1,70,0,0
51349,-200,4,2,2,70,0,0
56068,-100,4,2,1,70,0,0
56406,-100,4,2,2,70,0,0
56743,-100,4,2,1,70,0,0
63484,-100,4,2,2,70,0,1
71912,-100,4,2,1,70,0,1
73260,-100,4,2,1,70,0,1
73765,-100,4,2,1,70,0,0
74270,-100,4,2,2,70,0,1
84046,-100,4,1,1,70,0,1
85057,-100,4,2,1,70,0,0
111349,-100,4,1,1,70,0,0
122809,-200,4,2,2,70,0,0
128203,-100,4,2,1,70,0,0
132923,-100,4,1,1,70,0,0
138989,-100,4,2,2,70,0,1
148766,-100,4,1,1,70,0,1
149692,-100,4,2,2,70,0,0
149776,-100,4,2,2,70,0,1
159215,-100,4,1,1,70,0,1
159889,-80,4,1,1,70,0,1
160478,-100,4,2,2,70,0,0
160562,-100,4,2,2,70,0,1
170339,-100,4,1,2,70,0,1
171265,-100,4,2,2,70,0,0
171349,-100,4,2,2,70,0,1
175732,-100,4,1,2,70,0,1
176575,-100,4,2,2,70,0,1
181125,-100,4,1,2,70,0,1
182135,-100,4,2,2,70,0,0
195619,-100,4,1,2,70,0,0

[Colours]
Combo1 : 202,121,0
Combo2 : 3,167,3
Combo3 : 4,4,176
Combo4 : 179,4,4

[HitObjects]
256,192,2473,1,0
208,104,2810,6,0,B|160:132|156:196,1,99.9999999999999,6|8
176,336,3652,2,0,B|224:332|268:372,2,99.9999999999999,2|2|2
260,212,4832,1,0
356,180,5169,2,0,B|408:264,1,99.9999999999999,8|4
328,320,5843,6,0,B|368:364|424:352,1,99.9999999999999,8|0
324,236,6686,2,0,B|276:212|228:224,3,99.9999999999999,2|2|2|2
128,336,8203,6,0,B|92:296|36:296,1,99.9999999999999,4|8
60,148,9045,2,0,B|116:152|156:112,3,99.9999999999999,2|2|2|2
296,152,10562,2,0,B|332:256,1,99.9999999999999,0|4
100,92,24383,6,0,B|108:160|164:172,1,99.9999999999999,4|8
288,320,25394,2,0,B|280:252|224:240,1,99.9999999999999,8|0
192,332,26068,1,8
128,252,26405,2,0,B|36:200|36:200,1,99.9999999999999,2|2
124,148,27079,6,0,B|216:200|216:200,2,99.9999999999999,4|8|0
116,48,28090,1,8
204,92,28427,2,0,B|256:88|292:44,1,99.9999999999999,0|8
340,132,29102,2,0,B|288:136|252:180,1,99.9999999999999,2|2
344,224,29776,6,0,B|392:204|440:224,1,99.9999999999999,4|8
388,312,30450,1,0
288,308,30787,2,0,B|248:368|128:340|136:256,1,200,8|8
36,248,31798,2,0,B|48:188|124:160,1,99.9999999999999,2|2
20,108,32472,6,0,B|54:57|135:61,1,99.9999999999999,4|8
184,120,33147,1,0
284,120,33484,2,0,B|312:180|216:260|152:216,1,200,8|8
76,276,34495,2,0,B|96:300|96:300|96:336|96:336|120:360|120:360,1,99.9999999999999,10|8
216,340,35169,6,0,B|268:328|268:328|320:340,1,99.9999999999999,4|8
372,256,35843,2,0,B|360:204|360:204|372:152,2,99.9999999999999,0|8|0
456,204,36854,2,0,B|468:152|468:152|456:100,2,99.9999999999999,8|2|2
472,304,37866,5,4
380,344,38203,2,0,B|336:328|280:336|280:336|232:312|168:324,2,200,8|8|8
464,292,39888,2,0,B|492:240|456:172,1,99.9999999999999,2|2
376,236,40562,6,0,B|324:220|276:236,1,99.9999999999999,4|8
324,324,41236,2,0,B|272:340|224:324,1,99.9999999999999,0|8
132,364,41911,1,0
88,272,42248,1,8
180,228,42585,2,0,B|144:184|160:136,1,99.9999999999999,2|2
260,156,43259,6,0,B|245:100|280:64,1,99.9999999999999,4|8
364,116,43933,2,0,B|374:60|421:41,1,99.9999999999999,4|8
400,240,44944,2,8,B|312:240|256:264|256:264|200:240|104:240,1,300,0|12
88,88,51349,6,0,B|112:204|112:204,1,99.9999999999999,6|2
204,212,52697,2,0,B|180:96|180:96,1,99.9999999999999,2|0
264,52,54045,2,0,B|336:0|452:104|376:192,1,250,2|2
292,232,56068,6,0,B|240:252|216:308,1,99.9999999999999,8|8
128,336,56742,6,0,B|76:352|28:336,1,99.9999999999999,4|8
80,248,57416,1,0
180,252,57753,2,0,B|228:224|236:172|236:172|296:160|340:104,2,200,8|8|8
232,340,59439,6,0,B|280:324|348:352,1,99.9999999999999,4|8
400,272,60113,1,0
304,248,60450,2,0,B|248:232|224:188|224:188|168:204|116:184,1,200,8|8
100,92,61461,2,0,B|44:116|28:180,1,99.9999999999999,0|8
56,260,62135,2,8,B|76:344|76:344,2,74.9999999999999
212,152,63147,1,12
280,80,63484,6,0,B|336:72|380:112,1,99.9999999999999,6|10
396,204,64158,2,0,B|340:212|296:172,2,99.9999999999999,2|10|2
472,136,65169,1,10
492,232,65506,1,2
416,296,65843,1,10
320,272,66180,6,0,B|304:328|252:348,1,99.9999999999999,6|10
224,252,66854,1,2
124,232,67192,2,0,B|140:176|192:156,1,99.9999999999999,10|2
236,72,67866,1,10
288,160,68203,2,0,B|332:128|392:124,1,99.9999999999999,2|10
460,184,68877,5,2
388,256,69214,2,0,B|372:312|320:320,1,99.9999999999999,10|10
300,220,69888,1,10
228,148,70225,2,0,B|168:132|160:84,1,99.9999999999999,10|10
256,56,70899,1,10
320,132,71236,1,10
280,224,71574,6,0,B|228:240|200:292,1,99.9999999999999,14|8
136,360,72248,1,0
104,264,72585,1,8
120,164,72922,1,0
88,68,73259,1,8
184,88,73596,2,0,B|236:124,1,50,0|8
352,200,74270,6,0,B|312:104|312:104,1,99.9999999999999,4|10
388,40,74944,2,0,B|420:84|476:88,1,99.9999999999999,2|10
508,180,75618,2,0,B|436:260|436:260,1,99.9999999999999,2|10
356,312,76293,1,2
300,228,76630,1,10
384,172,76967,6,0,B|396:124|396:124|380:76,1,99.9999999999999,6|10
296,128,77641,1,2
212,76,77978,2,0,B|196:123|196:123|208:171,1,99.9999999999999,10|2
116,136,78652,2,0,B|140:236,1,99.9999999999999,10|2
220,296,79326,1,10
288,224,79663,6,0,B|368:316|368:316,1,99.9999999999999,2|10
376,200,80338,2,0,B|497:197|497:197,1,99.9999999999999,10|10
412,120,81012,2,0,B|433:120|312:118,1,99.9999999999999,10|10
285,22,81686,2,0,B|299:5|219:97,1,99.9999999999999,10|10
144,148,82360,6,0,B|128:200|72:220,2,99.9999999999999,6|10|2
48,128,83371,1,10
72,32,83708,1,2
172,48,84045,2,0,B|232:32|312:120|264:192,1,200,0|8
244,276,85057,5,4
256,192,95843,12,4,101236
76,96,111349,6,0,B|128:96|172:120|172:120|220:88|280:80,1,200
364,96,112360,1,8
304,176,112697,2,0,B|256:276,2,99.9999999999999,0|8|0
404,188,113708,2,0,B|480:208|472:316|400:344,1,200,8|8
320,292,114720,5,0
248,220,115057,2,0,B|188:232|148:248|148:248|112:232|52:224,2,200,8|8|8
292,132,116742,2,0,B|344:164|348:220,2,99.9999999999999,0|8|4
232,52,117753,6,0,B|192:88|136:88|136:88|176:128|160:196,1,200,8|8
256,216,118765,1,0
348,176,119102,2,0,B|336:128|376:88|376:88|320:88|280:52,1,200,8|8
256,148,120113,6,0,B|200:172|188:232,1,99.9999999999999,4|8
116,152,120787,2,0,B|172:128|184:68,1,99.9999999999999,0|8
84,60,121461,1,0
24,140,121798,2,0,B|24:208|64:248|64:248|152:260,1,200,8|8
220,192,122809,6,0,B|208:124|308:72|368:112,1,200,4|2
448,292,124832,1,2
252,264,125506,2,0,B|264:332|164:384|104:344,1,200,4|2
68,152,127529,1,2
124,68,127866,1,0
164,160,128203,6,0,B|264:128,1,99.9999999999999,4|8
344,184,128877,2,0,B|280:268,1,99.9999999999999,0|8
344,344,129551,1,0
420,276,129888,2,0,B|484:240|480:140|408:108,1,200,8|8
320,76,130899,6,0,B|240:152,1,99.9999999999999,4|8
224,48,131574,2,0,B|132:104,1,99.9999999999999,0|8
56,160,132248,1,0
20,252,132585,1,8
120,236,132922,6,0,B|168:264|168:264|188:300|188:300|236:312|244:364|244:364|320:312,1,275
376,268,134102,1,0
468,152,134607,2,0,B|488:68,2,74.9999999999999
320,136,135618,1,4
256,192,135703,12,0,138315
52,84,138989,6,0,B|160:56,1,99.9999999999999,6|10
112,152,139663,2,0,B|221:172,1,99.9999999999999,2|10
308,140,140338,2,0,B|357:227,1,99.9999999999999,2|10
261,257,141012,2,0,B|342:315,1,99.9999999999999,2|10
440,296,141686,5,6
480,204,142023,1,10
412,132,142360,1,2
452,40,142697,1,10
352,52,143034,2,0,B|292:48|264:108,2,99.9999999999999,2|8|2
360,152,144045,1,10
272,196,144383,6,0,B|168:244,1,99.9999999999999,2|10
104,172,145057,2,0,B|80:224|96:280,1,99.9999999999999,10|10
168,340,145731,2,0,B|276:340,1,99.9999999999999,10|10
344,276,146405,2,0,B|452:256,2,99.9999999999999,10|10|6
320,180,147416,6,0,B|312:116|256:104|256:104|212:128|148:100,1,200,10|10
212,16,148427,1,0
112,28,148765,2,0,B|48:36|36:92|36:92|60:136|60:136,1,150,8|8
112,272,149776,6,0,B|168:264|200:216,1,99.9999999999999,6|10
256,144,150450,1,2
316,222,150787,2,0,B|344:264|400:272,1,99.9999999999999,10|2
396,172,151461,2,0,B|380:116|416:80|416:80|368:88|316:52|316:52,1,200,10|10
256,132,152472,5,6
192,54,152809,2,0,B|196:52|144:88|96:80|96:80|132:116|116:172,1,200,10|10
204,220,153821,2,0,B|256:232|304:220,1,99.9999999999999,2|10
336,124,154495,2,0,B|392:120|436:80,1,99.9999999999999,2|10
488,164,155169,6,8,B|432:256|488:360,1,200,10|10
388,336,156180,1,10
288,356,156517,2,8,B|341:257|285:165,1,200,10|10
200,116,157529,1,10
168,212,157866,6,0,B|104:296,1,99.9999999999999,6|10
200,328,158540,1,0
300,312,158877,1,10
376,244,159214,2,0,B|396:188|448:184|448:184|440:136|400:124|400:124|368:140|332:124|332:124,1,250,0|0
180,84,160562,6,0,B|144:128|76:144,2,99.9999999999999,6|10|2
256,148,161574,2,0,B|220:216|296:260|256:344,2,200,10|10|10
332,84,163259,6,0,B|368:128|436:144,2,99.9999999999999,6|10|2
256,148,164270,1,10
204,232,164607,2,0,B|256:244|308:232,2,99.9999999999999,2|10|2
156,144,165618,1,10
164,348,166293,6,0,B|224:348|256:316|256:316|288:348|368:348,2,200,10|10|10
68,364,167978,1,10
88,268,168315,2,0,B|36:184,1,99.9999999999999,10|4
116,124,168989,6,0,B|176:144|188:208,1,99.9999999999999,10|0
256,260,169663,1,10
328,191,170001,1,6
368,100,170338,2,0,B|380:124|412:128|412:128|416:144|448:164|448:164|432:192|460:224|460:224,1,150
360,328,171349,6,0,B|260:296,1,99.9999999999999,6|10
240,200,172023,2,0,B|340:232,2,99.9999999999999,2|10|2
236,100,173034,2,0,B|152:112|112:188|156:260,1,200,10|10
224,308,174045,5,4
320,284,174383,2,0,B|404:272|444:196|400:124,1,200,10|10
328,80,175394,1,4
304,176,175731,2,0,B|184:204|184:204|112:192|128:104,1,250,10|4
272,76,177079,6,0,B|372:68|472:76,2,200,10|10|10
200,264,179102,2,0,B|100:272|0:264,2,200,10|10|10
276,200,180787,1,4
292,300,181124,2,0,B|368:300|408:208|360:144,1,200,10|10
256,192,182135,12,4,184832
256,192,187192,5,2
76,88,195618,6,0,B|192:88,1,99.9999999999999,0|8
256,148,196293,1,0
164,184,196630,2,0,B|88:212|100:320|188:332,1,200,8|8
244,256,197641,1,0
308,332,197978,6,0,B|386:321|398:213|322:185,1,200,8|8
248,124,198989,2,0,B|232:176|184:204,1,99.9999999999999,0|8
152,108,199663,1,0
92,188,200001,2,0,B|24:252|88:340|160:316,2,200,8|8|8
184,224,201686,5,0
276,260,202023,2,0,B|344:196|280:108|208:132,2,200,8|8|8
256,192,203708,12,2,206068
256,192,206742,6,0,B|224:164|168:160|168:160|196:112|168:72|168:72|224:64|244:48|244:48,1,250
