osu file format v9

[General]
AudioFilename: gumi - Dark Parade.mp3
AudioLeadIn: 1500
PreviewTime: 112773
Countdown: 0
SampleSet: Soft
StackLeniency: 0.7
Mode: 0
LetterboxInBreaks: 0

[Editor]
DistanceSpacing: 1
BeatDivisor: 3
GridSize: 4

[Metadata]
Title:Dark Parade
Artist:Megpoid GUMI
Creator:spboxer3
Version:Normal
Source:Yucha-P
Tags:tutuhaha vocaloid

[Difficulty]
HPDrainRate:3
CircleSize:3
OverallDifficulty:3
ApproachRate:5
SliderMultiplier:1.2
SliderTickRate:1

[Events]
//Background and Video events
0,0,"BG.jpg"
Video,0,"gumi - Dark Parade.avi"
//Break Periods
2,6017,15052
2,81669,90704
2,136452,142878
//Storyboard Layer 0 (Background)
//Storyboard Layer 1 (Fail)
//Storyboard Layer 2 (Pass)
//Storyboard Layer 3 (Foreground)
//Storyboard Sound Samples
//Background Colour Transformations
3,100,163,162,255

[TimingPoints]
600,326.086956521739,4,2,1,80,1,0
26034,-100,4,2,2,80,0,0
26795,-100,4,2,1,80,0,0
57991,-100,4,2,1,85,0,1
78860,-100,4,2,1,80,0,0
112773,-100,4,2,1,85,0,1
133643,-100,4,2,1,80,0,0
164947,-100,4,2,1,85,0,1
185817,-100,4,2,1,80,0,0
196904,-100,4,2,1,60,0,0
197556,-100,4,2,1,50,0,0
198208,-100,4,2,1,40,0,0
198860,-100,4,2,1,30,0,0

[Colours]
Combo1 : 128,64,0
Combo2 : 255,0,0
Combo3 : 192,192,192
Combo4 : 128,128,255

[HitObjects]
136,96,600,2,0,B|232:160,1,80,8|0
336,228,1252,2,0,B|240:164,1,80,8|0
196,328,1904,2,0,B|284:328|284:328|316:312|316:312|412:312,1,200,8|0
432,312,2556,2,0,B|468:256|468:256|468:168,1,120,8|0
404,100,3208,6,0,B|360:28,1,80,8|0
202,31,3860,2,8,B|246:103,1,80,8|0
84,92,4513,2,0,B|84:176|84:176|104:216|104:216|104:312,1,200,8|0
140,304,5165,2,0,B|248:360,1,120,8|0
246,239,5817,5,4
256,116,16252,6,0,B|296:64|376:80,1,120,0|8
472,128,16904,2,0,B|432:180|352:164,1,120,0|8
279,250,17556,2,0,B|236:250|236:250|200:260|200:260|140:260,2,120,0|0|0
388,300,18534,1,8
280,356,18860,6,0,B|148:356,1,120,0|8
39,356,19513,2,0,B|72:292|32:216,1,120,0|8
128,156,20165,2,0,B|220:60,2,120,0|0|0
364,192,21469,6,0,B|340:232|312:232|312:232|256:232,1,120,0|8
172,312,22121,2,0,B|320:312,1,120,0|8
411,312,22773,2,0,B|488:220,2,120,0|0|8
308,140,24078,5,4
192,352,24730,1,4
84,136,25382,2,0,B|52:100|72:40|124:20,2,120,4|2|4
284,268,26686,5,4
48,216,27339,2,0,B|104:216|104:216|144:216|164:168,1,120,0|8
100,80,27991,2,0,B|111:48|151:48|151:48|207:48,1,120,0|8
308,112,28643,2,0,B|456:112,2,120,0|8|0
400,332,29947,6,0,B|308:252,1,120,0|8
189,253,30599,2,0,B|281:333,1,120,0|8
159,331,31252,2,0,B|111:330|111:330|84:312|84:312|36:312,2,120,0|8|4
52,116,32556,6,0,B|112:96|112:96|180:96,1,120,0|8
272,40,33208,2,0,B|292:32|332:16|372:32|392:40,1,120,0|8
332,144,33860,1,0
392,248,34186,6,0,B|244:248,1,120,8|0
176,324,34839,2,0,B|320:324,1,120,8|0
415,324,35491,1,8
472,220,35817,2,0,B|464:144|368:124,1,120,0|8
279,132,36469,2,8,B|152:132,1,120
44,164,37121,6,0,B|72:252|72:252|112:236|152:252|152:252|244:252,1,240,4|0
308,332,38099,1,8
340,216,38426,2,0,B|484:216,1,120,0|8
460,96,39078,2,0,B|316:96,1,120,0|8
228,48,39730,6,0,B|208:72|168:80|168:80|72:80|72:80|24:92|8:132,1,240,4|0
92,212,40708,1,8
92,332,41034,2,0,B|196:312|196:312|292:328,1,200,0|0
328,327,41686,2,0,B|452:327,1,120,8|8
400,216,42339,6,0,B|348:176|348:176|384:152|400:92|364:40|304:48,1,240,4|0
204,92,43317,1,8
160,204,43643,2,0,B|136:256|136:256|116:288|80:288,1,120,4|8
68,168,44295,2,0,B|48:48,1,120,0|8
168,48,44947,5,4
256,272,45599,1,4
344,48,46252,2,0,B|472:48,2,120,4|2|4
456,260,47556,6,0,B|408:260|408:260|376:252|376:252|328:252,1,120,4|8
220,224,48208,2,0,B|84:224,1,120,0|8
156,120,48860,2,0,B|208:116|240:72|240:72|412:72,1,240
428,308,50165,6,0,B|436:288|452:248|436:208|428:188,1,120,0|8
324,248,50817,2,0,B|168:248,1,120,0|8
100,308,51469,2,0,B|92:288|76:248|92:208|100:188|100:188|76:128|100:64,1,240,2|8
336,104,52773,6,0,B|192:84,1,120,4|8
292,180,53426,2,0,B|436:200,1,120,0|8
456,308,54078,2,0,B|344:292|344:292|280:336|208:312,1,240,0|0
156,216,55056,1,8
152,96,55382,5,4
256,312,56034,1,4
384,112,56686,2,0,B|352:168|256:184,2,120,4|2|4
155,116,57991,6,0,B|48:44,1,120,4|8
72,168,58643,2,0,B|84:236|84:236|56:312,1,120,0|8
168,344,59295,2,0,B|224:376|280:348|280:348|340:276,1,200
344,244,59947,2,0,B|376:124,1,120,8|8
260,100,60599,6,0,B|140:48,1,120,4|8
168,172,61252,2,0,B|188:316,1,120,0|8
84,228,61904,2,0,B|104:372,2,120,0|8|8
324,216,63208,6,0,B|396:212|428:136,1,120,4|8
348,60,63860,2,0,B|276:64|244:140,1,120,0|8
208,232,64513,2,0,B|112:292|112:292|48:292|32:220,1,200
42,209,65165,2,0,B|43:84,1,120,8|8
156,52,65817,5,4
376,152,66469,1,4
168,276,67121,2,0,B|164:212|240:164,1,120,4|8
284,280,67773,2,0,B|400:356,1,120,4|4
396,228,68426,6,0,B|408:80,1,120,4|8
292,72,69078,2,0,B|164:28,1,120,0|8
100,124,69730,2,0,B|88:192|44:224|44:224|44:320,1,200
76,328,70382,2,0,B|208:328,1,120,8|8
316,324,71034,6,0,B|376:220,1,120,0|8
340,104,71686,2,0,B|280:208,1,120,0|8
188,128,72339,2,0,B|152:128|152:128|128:136|128:136|100:136|100:136|68:136|40:176|64:232,1,200
76,260,72991,2,0,B|112:380,1,120,8|8
212,312,73643,6,0,B|288:340|348:260,1,120,4|8
440,268,74295,2,8,B|452:207|379:173,1,120,0|8
396,60,74947,2,0,B|360:32|360:32|256:32|228:104,1,200
220,136,75599,2,0,B|96:136,1,120,8|8
144,248,76252,5,4
356,360,76904,1,4
360,120,77556,2,0,B|348:196|276:224,2,120,4|2|4
256,60,78534,1,4
256,192,78860,12,4,81469
468,164,91904,6,0,B|440:252|440:252|400:236|360:252|360:252|268:252,1,240,4|0
204,332,92882,1,8
172,216,93209,2,0,B|28:216,1,120,0|8
52,96,93861,2,0,B|196:96,1,120,0|8
284,48,94513,6,0,B|304:72|344:80|344:80|440:80|440:80|488:92|504:132,1,240,4|0
420,212,95491,1,8
420,332,95817,2,0,B|316:312|316:312|220:328,1,200,8|0
184,327,96469,2,0,B|60:327,1,120,8|8
112,216,97122,6,0,B|164:176|164:176|128:152|112:92|148:40|208:48,1,240,4|0
308,92,98100,1,8
352,204,98426,2,0,B|376:256|376:256|396:288|432:288,1,120,0|8
444,168,99078,2,0,B|464:48,1,120,8|8
344,48,99730,5,4
256,272,100382,1,4
168,48,101035,2,0,B|40:48,2,120,4|2|4
56,260,102339,6,0,B|104:260|104:260|136:252|136:252|184:252,1,120,4|8
292,224,102991,2,0,B|428:224,1,120,0|8
356,120,103643,2,0,B|304:116|272:72|272:72|100:72,1,240,2|0
84,308,104948,6,0,B|76:288|60:248|76:208|84:188,1,120,4|8
188,248,105600,2,0,B|344:248,1,120,8|0
412,308,106252,2,0,B|420:288|436:248|420:208|412:188|412:188|436:128|412:64,1,240,2|8
176,104,107556,6,0,B|320:84,1,120,4|8
220,180,108209,2,0,B|84:200,1,120,0|8
56,308,108861,2,0,B|168:292|168:292|232:336|304:312,1,240,2|8
356,216,109839,1,0
360,96,110165,5,4
256,312,110817,1,4
116,116,111469,2,0,B|148:172|244:188,2,120,4|2|4
357,116,112774,6,0,B|464:44,1,120,4|8
440,168,113426,2,0,B|428:236|428:236|456:312,1,120,8|8
344,344,114078,2,0,B|288:376|232:348|232:348|172:276,1,200,2|0
168,244,114730,2,0,B|136:124,1,120,8|8
252,100,115382,6,0,B|372:48,1,120,4|8
344,172,116035,2,0,B|324:316,1,120,8|8
428,228,116687,2,0,B|408:372,2,120,0|8|8
188,216,117991,6,0,B|116:212|84:136,1,120,4|8
164,60,118643,2,0,B|236:64|268:140,1,120,8|8
304,232,119296,2,0,B|400:292|400:292|464:292|480:220,1,200,2|0
470,209,119948,2,0,B|469:84,1,120,8|0
356,52,120600,5,4
136,152,121252,1,4
344,276,121904,2,0,B|348:212|272:164,1,120,4|8
228,280,122556,2,0,B|112:356,1,120,2|8
116,228,123209,6,0,B|104:80,1,120,4|0
220,72,123860,2,0,B|348:28,1,120,8|0
412,124,124513,2,0,B|424:192|468:224|468:224|468:320,1,200
436,328,125165,2,0,B|304:328,1,120,8|0
196,324,125817,6,0,B|136:220,1,120
172,104,126469,2,0,B|232:208,1,120,8|0
324,128,127122,2,0,B|360:128|360:128|384:136|384:136|412:136|412:136|444:136|472:176|448:232,1,200
436,260,127774,2,0,B|400:380,1,120,8|0
300,312,128426,6,0,B|224:340|164:260,1,120,4|8
72,268,129078,2,8,B|59:207|132:173,1,120,0|8
116,60,129730,2,0,B|152:32|152:32|256:32|284:104,1,200,2|0
292,136,130382,2,0,B|416:136,1,120,8|8
368,248,131034,5,4
156,360,131686,1,4
152,120,132339,2,0,B|176:208|236:224,2,120,4|2|4
256,60,133317,1,4
256,192,133643,12,0,136252
256,48,144078,6,0,B|152:152,1,120
88,224,144730,2,0,B|192:328,1,120
272,384,145382,6,0,B|376:280,1,120
440,208,146034,2,0,B|336:104,1,120
240,80,146686,6,0,B|192:200|32:216,1,240
272,304,147991,2,0,B|320:184|480:168,1,240
216,96,149295,6,0,B|216:200|120:208|120:208|88:304,1,240,4|0
336,320,150599,2,0,B|448:256|448:256|416:200|448:144,1,240
216,72,151904,5,0
320,288,152556,1,0
80,304,153208,1,0
168,224,153534,1,0
88,136,153860,1,0
0,216,154186,1,0
80,304,154513,6,0,B|136:332|216:296,1,120,4|0
140,200,155165,2,0,B|256:144,2,120
352,92,156469,2,0,B|492:92,1,120
424,204,157121,6,0,B|376:248|392:328,1,120
269,313,157773,2,0,B|131:313,2,120
136,112,159078,2,0,B|216:232,1,120
256,104,159730,6,0,B|312:64|396:76,1,120,4|0
468,144,160382,2,0,B|412:184|328:172,1,120
300,280,161034,2,0,B|292:320|264:336|264:336|184:336,1,120
232,216,161686,2,0,B|108:216,1,120
40,120,162339,6,0,B|56:68|56:68|116:44,1,120
236,44,162991,2,0,B|220:96|220:96|160:120,1,120
232,216,163643,1,0
440,152,164947,6,0,B|404:192|408:244|408:244|288:284,1,200,4|0
276,288,165599,2,0,B|128:288,1,120,8|8
104,180,166252,2,0,B|72:108|72:108|168:60|276:140,1,240,0|8
468,116,167556,6,0,B|336:116,1,120,4|8
348,236,168208,2,0,B|484:236,1,120,0|8
408,340,168860,2,0,B|296:340|296:340|236:308|236:308|152:308,1,240,2|8
68,92,170165,6,0,B|120:196|64:296,1,200,6|0
96,312,170817,2,0,B|132:352|132:352|208:352,1,120,8|8
320,348,171469,2,0,B|404:348|404:348|472:284|404:188,1,240,0|8
256,28,172773,5,4
80,192,173426,1,4
256,356,174078,2,0,B|256:288|256:288|276:240|276:240|276:113,1,240,4|4
396,328,175382,6,0,B|480:252|420:136,1,200,4|0
404,112,176034,2,0,B|372:60|372:60|292:32,1,120,0|8
196,40,176686,2,0,B|68:40|68:40|72:100|140:140,1,240,0|8
48,360,177991,6,0,B|120:256,1,120,4|8
236,261,178643,2,0,B|164:365,1,120,0|8
288,360,179295,2,0,B|336:359|336:359|363:341|363:341|417:341|417:341|421:265|489:233,1,240,2|8
288,80,180599,6,0,B|164:80|164:80|132:60|132:60|84:60,1,200,4|0
72,92,181252,2,0,B|12:204,1,120,8|8
96,284,181904,2,0,B|168:312|232:252|232:252|336:228,1,240,0|8
144,68,183208,5,4
372,140,183860,1,4
176,280,184513,2,0,B|224:164,2,120,4|2|4
64,324,185491,1,4
256,192,185817,12,0,189404
256,192,190056,6,0,B|256:64,2,120,0|0|8
256,192,191034,12,0,193317
256,192,193643,38,0,B|204:208|236:224|204:264|236:292|280:292|408:300|384:196|404:0|245:79|140:59|148:168|72:256|176:280|192:388|348:308,1,720
404,232,195926,1,4
256,192,196252,12,0,198860
