osu file format v9

[General]
AudioFilename: gumi - Dark Parade.mp3
AudioLeadIn: 1500
PreviewTime: 112773
Countdown: 0
SampleSet: Soft
StackLeniency: 0.7
Mode: 0
LetterboxInBreaks: 0

[Editor]
DistanceSpacing: 1
BeatDivisor: 3
GridSize: 4

[Metadata]
Title:Dark Parade
Artist:Megpoid GUMI
Creator:spboxer3
Version:Easy
Source:Yucha-P
Tags:tutuhaha vocaloid

[Difficulty]
HPDrainRate:2
CircleSize:3
OverallDifficulty:1
ApproachRate:4
SliderMultiplier:0.8
SliderTickRate:1

[Events]
//Background and Video events
0,0,"BG.jpg"
Video,0,"gumi - Dark Parade.avi"
//Break Periods
2,6017,14932
2,81669,90584
2,136452,142758
//Storyboard Layer 0 (Background)
//Storyboard Layer 1 (Fail)
//Storyboard Layer 2 (Pass)
//Storyboard Layer 3 (Foreground)
//Storyboard Sound Samples
//Background Colour Transformations
3,100,163,162,255

[TimingPoints]
600,326.086956521739,4,2,1,80,1,0
26034,-100,4,2,2,80,0,0
26795,-100,4,2,1,80,0,0
57991,-100,4,2,1,80,0,1
78860,-100,4,2,1,80,0,0
112773,-100,4,2,1,80,0,1
133643,-100,4,2,1,80,0,0
164947,-100,4,2,1,80,0,1
185817,-100,4,2,1,80,0,0
196904,-100,4,2,1,60,0,0
197556,-100,4,2,1,50,0,0
198208,-100,4,2,1,40,0,0
198860,-100,4,2,1,30,0,0

[Colours]
Combo1 : 128,64,0
Combo2 : 255,0,0
Combo3 : 192,192,192
Combo4 : 128,128,255

[HitObjects]
360,88,600,2,0,B|424:152|424:312|256:344,1,320,0|0
128,296,2556,2,0,B|40:296,1,80,0|8
20,220,3208,6,0,B|16:120|80:56|168:56|168:56|240:56,1,320
192,208,5165,2,0,B|288:208,2,80,0|8|4
120,256,16252,6,0,B|168:352|344:352|388:252,1,320
256,160,18208,2,0,B|256:80,1,80,0|8
182,49,18860,6,0,B|104:48|64:136|160:224|24:304,1,320
88,360,20491,2,0,B|176:360,1,80,0|8
328,360,21469,6,0,B|400:360|400:360|456:312|424:248|424:248|480:200|432:128,1,320
368,96,23099,2,0,B|264:96,1,80,0|8
128,96,24078,5,4
40,224,24730,1,4
128,360,25382,2,0,B|184:360|184:360|232:336|232:336|296:336,1,160,4|4
440,328,26686,6,0,B|472:272|472:272|472:128|360:40,1,320,4|0
331,118,28317,2,0,B|243:166,1,80,8|0
144,56,29295,6,0,B|41:136|41:280|41:280|73:336,1,320
144,296,30926,2,0,B|248:296,1,80,0|8
376,344,31904,6,0,B|424:304|424:304|424:272|424:272|448:224|408:168|408:168|432:104|384:56,1,320
312,96,33534,2,0,B|208:96,1,80,0|8
71,96,34513,5,4
200,192,35165,1,4
71,288,35817,2,0,B|112:320|136:328|192:320|216:288,1,160,4|0
280,240,36795,1,0
320,312,37121,6,0,B|360:344|360:344|432:360|480:304|480:208|480:120|424:64|320:56,1,480,4|0
256,104,39404,1,10
184,56,39730,6,0,B|88:64|32:120|32:208|32:304|80:360|152:344|152:344|192:312,1,480
256,264,42013,1,10
328,224,42339,6,0,B|400:224|400:224|480:144|432:48,1,240,4|8
368,40,43643,2,0,B|280:40|280:40|232:56|232:56|128:56,1,240,0|8
80,120,44947,5,4
224,192,45599,1,4
80,264,46252,2,0,B|136:320|240:296,1,160,4|4
384,328,47556,6,0,B|424:280|424:280|384:216|384:216|424:160|424:160|384:104|384:104|360:32|304:0|208:32,1,480,4|0
144,56,49839,1,10
176,128,50165,6,0,B|160:216|64:248|64:248|96:368|232:376|312:304,1,480
336,224,52447,1,10
416,224,52773,6,0,B|480:224|480:224|504:176|496:96|408:72,1,240,4|8
352,104,54078,2,0,B|248:104|248:104|208:88|208:88|104:88,1,240,0|8
73,156,55382,5,4
112,312,56034,1,4
232,208,56686,2,0,B|288:208|288:208|328:232|328:232|400:232,1,160,4|4
384,72,57991,6,0,B|320:120|320:120|272:120|272:120|216:88|216:88|72:88,1,320,4|0
48,240,59947,2,0,B|144:240,1,80,8|8
104,320,60599,6,0,B|184:320|184:320|248:280|232:208|232:208|248:184|288:152|344:192,1,320
360,256,62230,2,0,B|400:336,1,80,0|8
424,168,63208,6,0,B|448:96|448:96|392:48|392:48|344:64|344:64|224:64,1,320,4|0
64,64,65165,2,0,B|64:152,1,80,0|8
56,224,65817,5,4
160,352,66469,1,4
216,200,67121,2,0,B|272:136,2,80,4|0|4
240,276,68099,1,4
320,272,68426,6,0,B|368:272|368:272|440:264|464:168|384:128|384:128|384:48,1,320,4|0
224,64,70382,2,0,B|128:64,1,80,0|8
96,128,71034,6,0,B|24:192|96:280|96:280|240:312,1,320
320,312,72665,2,0,B|408:312,1,80,0|8
280,200,73643,6,0,B|288:104|376:112|376:112|384:56|456:24|512:80,1,320,4|0
456,224,75599,2,0,B|424:320,1,80,0|8
352,328,76252,5,4
192,320,76904,1,4
32,312,77556,2,0,B|32:256|32:256|48:216|48:216|48:144,1,160,2|4
96,88,78534,1,4
256,192,78860,12,4,81469
192,312,91904,6,0,B|152:344|152:344|80:360|32:304|32:208|32:120|88:64|192:56,1,480,4|0
256,104,94187,1,10
328,56,94513,6,0,B|424:64|480:120|480:208|480:304|432:360|360:344|360:344|320:312,1,480
256,264,96796,1,10
184,224,97122,6,0,B|112:224|112:224|32:144|80:48,1,240,4|8
144,40,98426,2,0,B|232:40|232:40|280:56|280:56|384:56,1,240,0|8
432,120,99730,5,4
288,192,100382,1,4
432,264,101034,2,0,B|376:320|272:296,1,160,4|4
128,328,102339,6,0,B|88:280|88:280|128:216|128:216|88:160|88:160|128:104|128:104|152:32|208:0|304:32,1,480,4|0
368,56,104622,1,10
336,128,104948,6,0,B|352:216|448:248|448:248|416:368|280:376|200:304,1,480
176,224,107230,1,10
96,224,107556,6,0,B|32:224|32:224|8:176|16:96|104:72,1,240,4|8
160,104,108861,2,0,B|264:104|264:104|304:88|304:88|408:88,1,240,0|8
439,156,110165,5,4
400,312,110817,1,4
280,208,111469,2,4,B|224:208|224:208|184:232|184:232|112:232,1,160
56,88,112773,6,0,B|136:88|136:88|176:64|176:64|288:64,1,240,4|0
344,128,114078,2,0,B|408:200|408:200|408:280,1,160,8|0
264,328,115382,6,0,B|176:328|176:328|120:304|120:304|64:304|64:304|16:256|56:184,1,320
72,120,117013,2,0,B|96:40,1,80,0|8
248,88,117991,6,0,B|336:88|400:144|408:256,1,240,4|0
352,296,119295,2,0,B|288:344|288:344|200:344,1,160,8|0
96,224,120599,5,4
48,72,121252,1,4
200,112,121904,2,4,B|264:112|264:112|296:96|296:96|368:96,1,160
408,160,122882,1,4
352,216,123208,6,0,B|336:288|264:304|264:304|144:304,1,240,4|0
112,232,124513,2,0,B|56:160|56:160|56:72,1,160,8|0
208,48,125817,6,0,B|328:48|328:48|432:104|376:240,1,320
312,256,127447,2,0,B|224:304,1,80,0|8
176,144,128426,6,0,B|80:160|40:256|64:336,1,240,4|0
136,352,129730,2,0,B|192:352|192:352|240:328|240:328|304:328,1,160,8|0
400,208,131034,5,4
456,56,131686,1,4
296,80,132339,2,4,B|208:80,2,80,4|0|4
369,48,133317,1,4
256,192,133643,12,0,136252
272,48,144078,6,0,B|208:112|208:112|120:112|120:112|144:200|96:256,1,320,4|0
256,192,146034,1,2
216,344,146686,6,0,B|280:280|280:280|368:280|368:280|344:192|392:136,1,320
256,48,148643,1,2
112,112,149295,6,0,B|32:208|80:320|80:320|200:336,1,320,4|0
256,192,151252,1,2
334,333,151904,6,0,B|432:320|432:320|480:208|400:112,1,320
256,176,153860,1,2
376,64,154513,6,0,B|288:64|288:64|224:96|224:96|144:96|144:96|24:128|32:288,1,480,4|0
64,360,156795,1,10
136,320,157121,6,0,B|224:320|224:320|288:288|288:288|368:288|368:288|488:256|480:96,1,480
416,48,159404,1,10
336,56,159730,6,0,B|248:144|88:120,1,240,6|0
56,184,161034,2,0,B|176:216|235:366,1,240,2|0
304,352,162339,2,0,B|271:231|372:105,1,240,2|0
128,72,164947,6,0,B|192:120|192:120|240:120|240:120|296:88|296:88|440:88,1,320,4|0
464,240,166903,2,0,B|368:240,1,80,0|8
408,320,167555,6,0,B|328:320|328:320|264:288|280:216|280:216|264:184|224:152|168:192,1,320
152,256,169186,2,0,B|112:336,1,80,0|8
80,168,170165,6,0,B|96:96|168:80|168:80|288:80,1,240,4|0
320,152,171470,2,0,B|376:224|376:224|376:312,1,160,8|0
224,336,172774,6,0,B|104:336|104:336|0:280|56:144,1,320,4|4
120,128,174404,2,0,B|208:80,2,80,4|4|4
160,200,175382,6,0,B|240:200|240:200|304:160|304:160|392:160,1,240,4|0
432,224,176686,2,0,B|384:288,1,80,0|8
312,320,177339,2,0,B|216:320,1,80,0|8
156,345,177991,6,0,B|76:345|76:345|52:345|28:321|28:281|28:281|28:185,1,240,0|0
88,160,179295,2,0,B|160:104,2,80,0|8|0
248,192,180599,6,0,B|304:192|304:192|336:168|336:168|408:168,1,160,4|0
448,232,181578,1,8
392,288,181904,2,0,B|328:360,1,80,0|8
258,347,182556,2,0,B|154:347,1,80,0|8
119,292,183208,5,4
32,157,183860,1,4
191,142,184513,2,0,B|252:81,2,80,12|0|4
215,218,185491,1,4
256,192,185817,12,0,189404
256,192,190056,6,0,B|256:104,2,80,8|2|0
256,192,191034,12,0,192991
268,244,193643,6,0,B|372:228|420:104|324:4|204:4|148:72|136:176|196:208,1,480
192,272,195926,1,4
256,192,196252,12,0,198860
