osu file format v9

[General]
AudioFilename: cosmos.mp3
AudioLeadIn: 0
PreviewTime: 78589
Countdown: 0
SampleSet: Normal
StackLeniency: 0.7
Mode: 0
LetterboxInBreaks: 0

[Editor]
Bookmarks: 18211,127034
DistanceSpacing: 1.3
BeatDivisor: 4
GridSize: 4

[Metadata]
Title:Cosmos
Artist:Megpoid GUMI
Creator:val0108
Version:Normal
Source:otetsu
Tags:vocaloid megpoid gumi yuuki kira kapurico Backfire

[Difficulty]
HPDrainRate:4
CircleSize:4
OverallDifficulty:5
ApproachRate:5
SliderMultiplier:0.5
SliderTickRate:1

[Events]
//Background and Video events
0,0,"cosmos.jpg"
Video,0,"Cosmos.avi"
//Break Periods
2,20790,29835
2,38568,43834
2,59678,61389
2,95234,104277
2,113010,117833
2,130590,140056
//Storyboard Layer 0 (Background)
//Storyboard Layer 1 (Fail)
//Storyboard Layer 2 (Pass)
//Storyboard Layer 3 (Foreground)
//Storyboard Sound Samples
//Background Colour Transformations
3,100,163,162,255

[TimingPoints]
2813,222.222222222222,4,1,1,100,1,0
9925,222.222222222222,5,1,1,100,1,0
20591,222.222222222222,5,1,1,100,1,0
30979,-100,5,2,2,100,0,0
31090,-100,5,1,1,100,0,0
31257,222.222222222222,4,1,1,100,1,0
38368,222.222222222222,5,1,1,100,1,0
44978,-100,5,2,2,100,0,0
45089,-100,5,1,1,100,0,0
45256,222.222222222222,4,1,1,100,1,0
51700,-100,4,2,1,100,0,0
52145,-100,4,1,1,100,0,0
62534,-100,4,2,2,100,0,0
62645,-100,4,1,1,100,0,0
78534,-100,4,2,2,100,0,0
78922,-100,4,1,1,100,0,1
84811,-100,4,1,1,100,0,0
86033,-100,4,1,1,100,0,1
94033,-100,4,1,1,70,0,0
94590,-100,4,2,1,70,0,0
95034,222.222222222222,5,2,1,70,1,0
103922,222.222222222222,4,2,1,70,1,0
105422,-100,4,2,2,70,0,0
105533,-100,4,1,1,70,0,0
119034,-100,4,2,1,100,0,0
129256,-100,4,1,1,70,0,0
130590,222.222222222222,3,1,1,70,1,0
141201,-100,3,2,1,70,0,0
150589,222.222222222222,4,1,1,70,1,0
152366,-100,4,1,1,100,0,1
158589,-100,4,1,1,100,0,0
159477,-100,4,1,1,100,0,1
164811,-100,4,1,1,100,0,0
168255,-100,4,2,1,70,0,0
182088,-100,4,2,2,70,0,0
182477,-100,4,1,1,100,0,1
188366,-100,4,1,1,100,0,0
189588,-100,4,1,1,100,0,1
197588,-100,4,1,1,50,0,0
198144,-100,4,2,1,70,0,0
198588,222.222222222222,3,2,1,70,1,0

[Colours]
Combo1 : 128,0,255
Combo2 : 128,255,128
Combo3 : 255,128,255
Combo4 : 255,255,128

[HitObjects]
72,124,9924,2,0,B|84:100|120:72|168:72|216:88,1,150,4|8
204,148,10813,1,8
316,212,11258,2,0,B|316:156,1,50,2|8
380,164,11702,6,0,B|400:168|432:152|440:124|432:92|408:72|376:68,1,150,4|8
316,64,12591,2,0,B|324:40|312:8,2,50,8|8|8
272,112,13258,6,0,B|220:80|168:148|120:104,1,150,4|8
72,140,14146,1,8
140,252,14591,2,0,B|120:272|92:272,1,50,0|10
96,208,15035,6,0,B|128:176|172:184|193:209|208:232|208:264,1,150,4|4
256,296,15924,2,8,B|256:344,2,50
304,253,16591,6,0,B|304:232|318:209|340:184|384:176|416:208,1,150,4|0
468,172,17479,1,10
448,108,17702,2,0,B|400:84|400:84|360:84|360:84|312:56,1,150,2|0
256,88,18590,1,8
200,55,18813,6,0,B|152:84|152:84|112:84|112:84|64:108,1,150,4|0
40,168,19701,2,0,B|28:200|40:224,1,50,8|0
100,196,20146,1,0
164,196,20368,1,8
228,196,20590,1,4
256,192,31035,5,2
210,146,31257,6,0,B|186:118|146:106|104:112,1,100,4|8
32,208,32146,2,0,B|62:234|102:246|142:234,1,100,0|8
188,252,32812,1,2
253,252,33035,2,0,B|309:252,2,50,0|0|8
148,328,33924,2,0,B|92:328,2,50,0|0|8
212,328,34590,1,10
276,328,34812,6,0,B|304:316|304:316|348:316|348:316|380:328,2,100,4|8|0
212,328,35924,1,0
176,272,36146,2,0,B|76:272,1,100,10|0
24,152,37035,1,4
136,76,37479,2,0,B|120:100|144:132,1,50,8|8
199,100,37924,1,2
263,100,38146,1,8
327,100,38368,1,4
376,104,45034,5,2
328,144,45256,2,0,B|304:168|304:196|312:220|332:240,2,100,4|8|0
377,189,46367,1,0
441,189,46589,1,10
392,308,47034,6,0,B|368:336|320:336|296:312,1,100,0|8
208,228,47923,2,0,B|188:208|140:208|116:236,1,100,0|8
52,244,48589,1,10
24,188,48812,6,0,B|48:168|48:168|48:120|48:120|16:96,1,100,4|8
144,44,49700,2,0,B|120:64|120:64|120:112|120:112|152:136,1,100,0|8
201,124,50367,1,2
265,124,50589,2,0,B|377:124,2,100,0|8|0
236,184,51700,5,2
236,248,51923,1,2
268,304,52145,1,2
328,328,52367,6,0,B|372:340|436:328,1,100,4|8
500,220,53256,2,0,B|456:208|392:220,1,100,0|8
340,192,53923,1,2
376,136,54145,2,0,B|400:112|408:76,2,50,0|0|8
248,148,55034,2,0,B|224:172|216:208,2,50,0|0|8
256,84,55700,1,10
200,48,55923,6,0,B|164:28|128:28|96:44,1,100,4|8
8,128,56812,2,0,B|44:148|80:148|112:132,1,100,0|8
160,172,57478,1,2
200,224,57700,5,0
240,276,57923,2,0,B|280:320,1,50,8|8
328,196,58589,5,0
288,144,58812,2,0,B|252:100,1,50,8|10
220,52,59256,1,0
220,52,59478,1,4
104,216,62589,5,2
204,316,63034,6,0,B|228:266|204:218,2,100,4|8|0
140,296,64145,2,0,B|100:288|72:312,2,50,0|10|0
124,360,64812,5,4
44,256,65256,1,8
40,128,65700,2,0,B|84:100|152:108,2,100,0|10|4
64,188,66812,1,0
128,192,67034,6,0,B|236:192,1,100,8|0
360,192,67923,1,10
472,128,68367,2,0,B|440:108|416:108,2,50,0|0|8
472,258,69256,2,0,B|440:278|416:278,2,50,0|0|10
472,192,69923,1,8
408,176,70145,6,0,B|376:128|324:116,1,100,4|8
284,240,71034,2,0,B|252:288|200:300,1,100,0|10
148,268,71701,1,0
124,208,71923,2,0,B|152:160|152:160|124:120,2,100,0|8|0
58,208,73034,1,8
8,168,73256,1,10
76,56,73701,6,0,B|100:28|132:20|168:28,1,100,4|8
212,72,74367,2,0,B|236:88|264:92,1,50
320,76,74812,2,0,B|344:64|372:68,2,50,0|10|8
348,132,75479,5,4
256,304,76145,2,0,B|256:256,1,50,8|4
164,132,77034,1,0
256,192,77256,12,2,78590
336,180,78923,6,0,B|372:180|372:180|424:200|424:200|448:236,1,125,4|8
360,284,79812,2,0,B|324:284|324:284|272:264|272:264|248:228,1,125,4|10
164,196,80701,6,0,B|128:196|128:196|76:176|76:176|52:140,1,125,4|8
148,108,81590,2,0,B|184:108|184:108|236:128|236:128|260:164,1,125,4|10
254,253,82479,6,0,B|298:289|298:289|374:289,1,125,4|8
366,191,83367,2,0,B|398:155|398:155|478:155,1,125,4|10
448,248,84256,2,0,B|462:281|462:281|447:316,1,75,4|0
388,348,84812,1,8
256,368,85256,1,8
124,348,85701,1,2
56,280,86034,6,0,B|88:260|113:254|148:256|184:272,1,125,4|8
256,216,86923,2,0,B|340:216,1,75,4|0
392,188,87479,6,0,B|416:208|416:240|396:256,2,75,0|10|0
372,124,88367,2,0,B|348:104|348:72|368:56,2,75,0|8|0
436,144,89256,2,0,B|468:132|508:156,1,75,0|12
428,296,90145,6,0,B|408:328|408:328|372:348,2,75,0|8|0
384,248,91034,2,0,B|364:220|364:220|364:180,2,75,2|8|0
324,272,91923,1,0
194,272,92367,1,8
256,160,92812,6,0,B|256:80,2,75,2|4|0
256,224,93701,2,0,B|256:308,2,75,8|8|0
200,192,94590,1,0
135,192,94812,1,2
70,192,95034,1,4
100,92,105477,5,2
124,152,105699,6,0,B|128:188|120:224|88:248,2,100,4|8|0
168,104,106810,1,0
212,56,107033,1,8
340,88,107477,6,0,B|376:120|432:128,1,100,4|8
430,257,108366,2,0,B|375:264|339:296,1,100,0|8
292,340,109033,1,10
256,288,109255,6,0,B|276:260|228:220|260:184,2,100,4|8|0
220,340,110366,1,0
172,296,110588,1,8
96,192,111033,6,0,B|76:140|100:84,1,100,0|8
216,144,111922,2,0,B|268:144,1,50,8|0
330,144,112366,1,2
395,144,112588,1,8
459,144,112810,1,4
256,200,119033,6,0,B|268:232|256:268,3,66.6666666666667,0|0|0|4
164,360,120366,5,8
72,268,120810,2,0,B|44:252|24:252,2,50,2|0|8
132,152,121699,1,2
256,192,122144,1,8
380,152,122588,2,0,B|404:200|380:248,2,100,2|8|4
256,108,123922,5,8
256,236,124366,2,0,B|256:296,2,50,2|0|8
148,164,125255,2,0,B|160:216|160:216|136:260,1,100,6|8
40,344,126144,2,0,B|28:292|28:292|52:248,2,100,2|10|2
170,356,127477,1,8
300,336,127922,6,0,B|336:328|384:340,2,75,4|0|8
244,304,128810,2,0,B|236:272|244:244,1,50,2|2
268,196,129255,1,0
228,144,129477,1,8
264,88,129699,1,8
236,28,129922,1,4
198,54,141256,6,0,B|226:89|254:104|254:104|280:88|310:52,2,150,0|2|0
256,192,143256,1,2
197,333,143923,2,0,B|220:301|254:284|254:284|284:304|310:336,2,150,0|2|0
256,192,145923,1,2
126,133,146590,6,0,B|140:88|180:72|220:88|236:132,1,150,0|2
312,260,147923,2,2,B|298:305|258:321|218:305|202:261,1,150
280,132,149256,2,0,B|294:87|334:71|374:87|390:131,1,150,0|2
256,192,150589,12,4,151922
392,268,152366,6,0,B|392:308|356:332|324:328,2,100,4|8|0
288,192,153700,1,10
392,116,154144,2,0,B|392:76|356:52|324:56,2,100,0|8|0
424,172,155255,1,0
364,192,155477,1,10
256,120,155922,6,0,B|274:149|232:176|256:216,2,100,4|8|0
136,56,157255,1,10
80,92,157477,1,0
48,148,157700,6,0,B|48:176|32:196,2,50,0|0|8
96,268,158589,2,0,B|92:228|112:220,2,50,0|0|10
212,324,159477,6,0,B|243:298|271:298|307:326,1,100,4|8
400,236,160366,2,0,B|369:262|341:262|305:234,1,100,0|10
256,200,161033,1,0
212,148,161255,2,0,B|243:122|271:122|307:150,1,100,0|8
204,236,162144,2,0,B|173:262|145:262|109:234,2,100,0|10|4
256,116,163477,5,8
256,50,163700,1,0
312,84,163922,2,0,B|416:84,2,100,0|10|4
180,228,165477,5,8
144,280,165700,1,4
332,228,166366,5,0
368,280,166589,1,4
256,344,167033,5,4
256,214,167477,1,10
256,83,167922,2,0,B|224:63|224:63|180:63,2,75,0|4|0
304,128,168811,6,8,B|336:148|336:148|380:148,2,75,10|4|0
280,188,169700,2,0,B|248:208|248:208|204:208,2,75,10|4|0
320,240,170589,2,0,B|352:260|352:260|396:260,2,75,10|4|0
260,264,171477,6,0,B|240:292|220:304|192:304,2,75,10|4|0
216,216,172366,1,10
252,124,172700,2,0,B|255:81|292:58,1,75,4|0
324,114,173255,2,0,B|361:130|379:167,2,75,8|4|0
300,176,174144,5,8
176,216,174589,1,2
224,336,175033,2,0,B|200:348|200:348|144:348,2,75,2|4|0
289,336,175922,2,0,B|313:348|313:348|369:348,2,75,10|4|0
256,280,176811,6,0,B|287:287|297:251|332:257,2,75,10|4|0
256,280,177700,2,0,B|224:287|214:251|179:257,2,75,10|4|0
256,215,178589,2,0,B|272:180|256:136,2,75,10|4|0
200,180,179477,2,0,B|116:180,1,75,8|2
256,192,180811,12,2,182144
256,248,182477,6,0,B|220:224|180:224,1,75,4|0
128,196,183033,1,8
40,156,183366,2,0,B|56:120|96:108,1,75,4|0
160,108,183922,1,10
256,128,184255,6,0,B|292:152|332:152,1,75,0|0
388,176,184811,1,8
480,204,185144,2,0,B|472:244|432:264,1,75,4|0
380,296,185700,1,10
292,336,186033,6,0,B|256:352|220:336,2,75,4|8|8
256,280,186922,2,0,B|236:248|256:204,2,75,4|10|8
312,244,187811,2,0,B|348:240|392:248,1,75,4|8
386,312,188366,5,8
472,216,188811,1,0
388,120,189255,1,10
300,80,189589,6,0,B|280:68|280:68|224:68,1,75,4|0
164,68,190144,1,8
88,128,190477,2,0,B|108:140|108:140|164:140,1,75,4|0
224,152,191033,1,10
256,244,191366,6,0,B|276:232|276:232|332:232,1,75,4|0
392,232,191922,1,8
468,292,192255,2,0,B|448:304|448:304|392:304,1,75,4|0
340,336,192811,2,0,B|256:336,1,75,10|4
232,176,193700,6,0,B|209:157|200:136|209:105,2,75,0|8|8
290,201,194589,2,0,B|312:219|321:240|312:271,2,75,0|10|8
235,238,195477,2,0,B|217:269|182:289|142:281,2,100,4|8|0
140,216,196700,6,0,B|128:180|124:128|140:88,1,125,4|0
212,156,197588,2,0,B|288:156,1,75,8|8
352,156,198144,5,0
398,202,198366,5,2
444,248,198589,5,4
