osu file format v9

[General]
AudioFilename: GUMI___re.mp3
AudioLeadIn: 2000
PreviewTime: 52557
Countdown: 0
SampleSet: Normal
StackLeniency: 0.7
Mode: 0
LetterboxInBreaks: 1

[Editor]
DistanceSpacing: 1
BeatDivisor: 4
GridSize: 8

[Metadata]
Title:Chocolate
Artist:Megpoid GUMI
Creator:val0108
Version:Easy
Source:Vocaloid
Tags:otetsu

[Difficulty]
HPDrainRate:2
CircleSize:3
OverallDifficulty:2
ApproachRate:2
SliderMultiplier:0.7
SliderTickRate:1

[Events]
//Background and Video events
0,0,"Chocolate2.png"
//Break Periods
2,76918,83157
//Storyboard Layer 0 (Background)
//Storyboard Layer 1 (Fail)
//Storyboard Layer 2 (Pass)
//Storyboard Layer 3 (Foreground)
//Storyboard Sound Samples
//Background Colour Transformations
3,100,163,162,255

[TimingPoints]
718,333.333333333333,4,2,0,100,1,0
1301,-100,4,1,1,80,0,0
20301,-100,4,2,0,100,0,0
20467,-100,4,1,1,81,0,0
42051,-133.333333333333,4,1,0,80,0,0
50051,-100,4,1,1,80,0,0
52717,-100,4,1,1,82,0,1
63384,-100,4,1,1,82,0,0
84467,-100,4,2,0,73,0,0
86301,-100,4,2,0,0,0,0
86801,-100,4,1,1,79,0,0
87384,-100,4,1,1,79,0,1
97967,-100,4,1,1,81,0,0
98051,-100,4,1,1,79,0,1
108717,-100,4,1,1,79,0,0

[Colours]
Combo1 : 128,255,0
Combo2 : 0,255,255
Combo3 : 255,255,255

[HitObjects]
256,88,718,2,0,B|256:160,1,70
256,224,1384,2,0,B|256:274,3,35,4|4|8|8
256,294,2051,6,0,B|208:314|208:314|112:314,1,140,4|0
70,264,3051,1,8
70,194,3384,2,0,B|70:94|70:94|96:66,1,140
146,15,4384,1,8
195,64,4717,6,0,B|307:64|307:64|336:82,1,140,4|0
380,128,5717,1,8
380,197,6051,2,0,B|380:269,2,70
256,264,7384,6,0,B|256:160|256:160|288:120,1,140,4|0
328,82,8384,1,8
390,113,8717,2,0,B|424:144|424:144|424:176,2,70
328,82,9717,1,10
278,32,10051,6,0,B|240:40|240:40|168:32|168:32|136:40,1,140,4|0
90,88,11051,1,8
77,156,11384,2,0,B|88:240|88:240|120:288,1,140
180,319,12384,1,2
248,336,12718,6,0,B|392:336,1,140,4|0
437,286,13718,1,8
387,236,14051,2,0,B|235:236,1,140
197,186,15051,1,10
257,150,15384,6,0,B|306:150|306:150|312:104,2,70,4|0|0
207,100,16384,1,8
200,32,16718,2,0,B|312:24|312:24|424:40,1,210,0|10
408,107,18051,5,4
408,247,18718,1,4
288,168,19384,2,0,B|256:128|224:176,2,70,8|0|8
327,226,20384,1,2
376,280,20717,6,0,B|416:224|416:224|416:128,1,140,4|0
416,82,21717,1,8
357,43,22051,2,0,B|328:24|328:24|272:24,1,70
222,24,22717,1,0
222,93,23051,1,2
222,163,23384,6,0,B|222:234|222:234|152:280,1,140,4|0
94,271,24384,1,8
94,200,24717,2,0,B|94:169|94:169|128:120,1,70
165,87,25384,1,0
231,64,25717,1,2
300,64,26051,6,0,B|372:88|340:136|420:160,1,140,4|0
458,197,27051,1,8
406,244,27384,2,0,B|336:256|360:304|272:336,1,140
226,325,28384,1,2
256,192,28717,12,0,30717
64,104,31384,6,0,B|136:80|136:80|216:80,1,140,4|0
200,150,32384,1,8
150,199,32717,2,0,B|112:192|80:200,2,70,0|0|0
160,269,33717,1,2
194,331,34051,6,0,B|256:304|256:304|344:344,1,140,4|0
392,333,35051,1,8
392,263,35384,2,0,B|416:216|352:168|392:112,1,140,0|0
344,72,36384,1,2
273,72,36717,6,0,B|225:104|257:160|185:192,1,140,4|0
148,235,37717,1,8
131,303,38051,2,0,B|95:323|39:299,2,70,0|0|0
200,328,39051,1,2
256,192,39384,12,4,41384
64,96,42051,6,0,B|48:136|56:200,1,104.999996870756,4|0
74,248,43051,1,0
127,254,43384,2,0,B|152:200|208:160,1,104.999996870756
256,88,44718,5,4
256,192,45384,1,0
256,296,46051,2,0,B|264:320|240:336|264:368,2,52.4999984353781
294,198,47384,6,0,B|291:169|259:161|267:137,2,52.4999984353781,4|0|0
331,235,48384,1,0
368,197,48718,2,0,B|400:168|352:128|395:97,1,104.999996870756
390,47,49718,1,0
320,47,50051,5,4
179,47,50718,1,0
256,160,51384,2,0,B|256:240,2,70,8|8|0
144,248,52718,6,0,B|112:232|112:232|128:152|128:152|96:128,1,140,4|0
87,71,53718,1,8
152,48,54051,2,0,B|184:32|184:32|248:72|248:72|288:48,1,140,0|0
328,104,55051,1,2
368,160,55384,6,0,B|416:160|416:160|440:192,2,70,4|0|0
297,160,56384,1,8
226,160,56718,2,0,B|192:152|192:152|120:176|120:176|88:160,1,140,0|0
93,233,57718,1,2
93,303,58051,6,0,B|136:288|208:320|256:304,1,140,4|0
281,258,59051,1,8
328,304,59384,2,0,B|408:304,1,70
470,307,60051,2,0,B|448:232,1,70,0|2
400,190,60718,6,0,B|390:137|390:137|310:65,1,140,4|0
254,74,61718,1,8
186,74,62051,2,0,B|123:132|123:132|113:185,1,140
113,255,63051,5,4
113,255,63384,1,4
256,240,64051,1,4
392,256,64718,2,0,B|448:296|432:344|480:384,1,140
329,344,66051,6,0,B|232:344|232:344|184:312,1,140,4|0
134,286,67051,1,8
84,236,67384,2,0,B|84:84,1,140,0|0
136,48,68384,1,2
203,21,68718,6,0,B|240:96|240:96|328:96,1,140,4|0
366,96,69718,1,8
366,165,70051,1,0
366,305,70718,2,0,B|366:225,1,70,0|2
366,165,71384,6,0,B|304:104|304:104|232:104,1,140,4|0
180,104,72384,1,8
180,174,72718,2,0,B|268:174,2,70,0|0|0
112,176,73718,1,2
256,192,74051,12,4,76718
184,272,84717,5,6
323,272,85384,1,2
256,148,86051,2,0,B|269:189|269:189|237:253|237:253|264:292,1,140,2|0
386,234,87384,6,0,B|418:218|418:218|402:138|402:138|434:114,1,140,4|0
443,57,88384,1,8
378,34,88717,2,0,B|346:18|346:18|282:58|282:58|242:34,1,140,0|0
208,96,89717,1,2
162,146,90051,6,0,B|112:147|112:147|86:175,2,70,4|0|0
233,146,91051,1,8
304,146,91384,2,0,B|338:138|338:138|410:162|410:162|442:146,1,140,0|0
436,219,92384,1,2
437,289,92717,6,0,B|376:264|328:328|274:290,1,140,4|0
250,251,93717,1,8
200,300,94051,1,0
59,300,94717,1,0
59,300,95051,1,2
256,192,95384,12,4,97384
88,136,98051,6,0,B|112:88|112:88|136:80,1,70,4|0
197,82,98717,1,0
266,82,99051,1,8
232,144,99384,2,0,B|272:192|272:192|312:192|312:192|376:192,1,140
419,192,100384,1,10
419,262,100717,6,0,B|392:320|392:320|344:344|288:336,1,140,4|0
269,288,101717,1,8
199,288,102051,2,0,B|168:312|168:312|112:312,2,70
199,217,103051,1,10
135,187,103384,6,0,B|120:144|120:144|88:128,1,70,4|0
75,66,104051,2,0,B|120:40|120:40|144:40,1,70,0|8
192,80,104717,2,0,B|224:112|224:112|256:112,1,70
320,112,105384,2,0,B|360:112|360:112|384:136,1,70,0|10
381,203,106051,5,4
346,263,106384,1,8
296,312,106717,1,0
256,256,107051,1,8
216,312,107384,1,0
166,262,107717,1,8
129,202,108051,1,0
72,72,108717,6,0,B|104:48|104:48|224:48,1,140,4|0
274,48,109717,1,8
343,48,110051,2,0,B|328:128,2,70,0|0|0
404,81,111051,1,2
456,128,111384,6,0,B|472:200|472:200|456:288,1,140,4|0
390,265,112384,1,8
320,288,112717,2,0,B|288:320|288:320|248:320,1,70
193,320,113384,2,0,B|160:320|160:320|128:288,1,70,0|2
117,225,114051,6,0,B|269:225,1,140,4|0
324,206,115051,1,8
314,138,115384,2,0,B|256:128|256:128|152:96,1,140,0|0
120,64,116384,1,2
49,64,116717,6,0,B|73:104|73:104|73:152,1,70,4|0
73,197,117384,2,0,B|73:248|73:248|97:272,1,70,8|0
156,261,118051,2,0,B|188:261|188:261|228:325|228:325|292:325,1,140,0|0
330,325,119051,1,2
256,192,120717,6,0,B|264:216|264:216|248:224|248:224|256:248,2,70
