osu file format v9

[General]
AudioFilename: Carnival.mp3
AudioLeadIn: 0
PreviewTime: 134028
Countdown: 0
SampleSet: Soft
StackLeniency: 0.7
Mode: 0
LetterboxInBreaks: 1

[Editor]
DistanceSpacing: 1
BeatDivisor: 3
GridSize: 4

[Metadata]
Title:Carnival
Artist:Megpoid GUMI
Creator:wcx19911123
Version:Normal
Source:otetsu
Tags:vocaloid vocaloid2 val0108 OzzyOzrock

[Difficulty]
HPDrainRate:3
CircleSize:4
OverallDifficulty:2
ApproachRate:4
SliderMultiplier:0.75
SliderTickRate:0.5

[Events]
//Background and Video events
0,0,"BG.jpg"
Video,0,"Carnival.avi"
//Break Periods
2,27574,29834
2,61117,66920
2,119621,132589
2,174303,180306
//Storyboard Layer 0 (Background)
//Storyboard Layer 1 (Fail)
//Storyboard Layer 2 (Pass)
//Storyboard Layer 3 (Foreground)
//Storyboard Sound Samples
//Background Colour Transformations
3,100,163,162,255

[TimingPoints]
918,236.220472440945,4,2,1,50,1,0
11075,-100,4,2,1,70,0,0
11784,-100,4,1,2,70,0,0
12138,-100,4,2,2,90,0,0
34697,236.220472440945,4,2,2,90,1,0
42020,236.220472440945,4,2,2,90,1,0
45445,-100,4,1,2,90,0,0
45681,-100,4,2,2,90,0,0
68477,-100,4,2,2,90,0,1
83594,-100,4,2,2,90,0,0
104027,-100,4,1,2,90,0,0
104382,-100,4,2,2,90,0,1
119421,-100,4,2,2,90,0,0
134618,-100,4,2,2,90,0,1
145957,-100,4,2,2,90,0,0
181390,-100,4,1,2,90,0,0
181862,-100,4,2,2,90,0,1
196980,-100,4,2,2,90,0,0

[Colours]
Combo1 : 255,96,100
Combo2 : 251,0,6
Combo3 : 196,34,0

[HitObjects]
116,104,4461,1,0
116,104,4697,2,0,B|192:80|276:88,1,150,0|2
408,40,5642,2,0,B|440:108|432:188,1,150,0|2
284,184,6587,1,0
340,324,7059,1,2
192,312,7532,2,0,B|152:324|112:324,2,75,0|0|2
60,240,8477,6,0,B|60:164|84:88,1,150,0|2
176,208,9421,2,0,B|248:240|336:228,1,150,0|2
244,100,10366,1,0
388,56,10839,1,2
464,188,11311,2,0,B|478:199|478:199|461:201|461:201|474:221|474:221|457:223|457:223|463:239|463:239|445:241|445:241|444:261|444:261|425:255|425:255|417:271|417:271|404:260|404:260|396:276|396:276|384:260,1,225,0|8
383,259,12256,5,4
244,204,12729,2,0,B|248:280|280:360,2,150,2|0|2
300,64,14146,1,0
152,76,14618,2,0,B|80:104|12:152,2,150,2|0|2
76,204,16036,5,4
76,204,16508,2,0,B|127:259|191:299,1,150,2|0
332,352,17453,1,2
452,260,17925,1,0
452,260,18398,2,0,B|452:184|420:100,1,150,2|0
276,136,19343,1,2
144,64,19815,6,0,B|216:48|304:44,2,150,4|2|0
276,136,21232,1,2
132,180,21705,2,0,B|68:216|4:272,2,150,0|2|0
220,304,23122,1,2
364,344,23595,5,4
364,344,24067,2,0,B|416:284|448:212,1,150,2|0
456,68,25012,1,2
308,56,25484,2,0,B|232:52|136:68,1,150,0|2
32,148,26429,1,0
60,296,26902,1,2
172,196,27374,1,4
476,284,31154,6,0,B|416:332|340:348,1,150,4|2
204,292,32099,2,0,B|264:244|340:228,1,150,0|2
192,200,33043,2,0,B|220:132|280:76,1,150,0|2
332,28,33752,1,0
388,80,33988,2,0,B|428:68|464:36,2,75,0|0|2
316,100,34697,2,0,B|280:112|216:112,1,75
108,44,35405,5,2
108,44,35641,2,0,B|64:112|36:196,1,150
24,252,36350,2,0,B|68:248|108:260,1,75,2|0
76,328,36822,2,0,B|152:344|244:340,1,150,0|2
228,264,37531,2,0,B|220:152|244:24,1,225,0|2
316,44,38476,6,0,B|384:76|456:144,1,150,4|2
452,276,39421,2,0,B|388:240|328:164,1,150,0|2
324,328,40366,1,0
256,192,40838,1,2
188,56,41311,1,0
36,56,41783,5,2
36,56,42020,2,0,B|28:136|44:208,1,150,0|2
176,136,42964,2,0,B|224:200|232:276,1,150,0|2
96,332,43909,2,0,B|156:284|236:272,1,150,0|2
372,324,44854,2,0,B|420:276|452:216,2,112.5,0|0|8
328,264,45799,6,0,B|344:188|388:112,1,150,4|2
260,36,46744,2,0,B|328:72|388:132,1,150,0|2
232,156,47689,1,0
232,156,48161,1,2
136,40,48634,2,0,B|76:88|24:156,1,150,0|2
92,188,49342,1,0
24,216,49579,6,0,B|68:276|156:316,1,150,4|2
220,184,50523,2,0,B|264:256|280:324,2,150,0|2|0
148,52,51941,1,2
296,48,52413,2,0,B|376:60|448:104,1,150,0|2
468,244,53358,6,0,B|400:212|340:160,1,150,4|2
332,312,54303,2,0,B|292:248|264:172,1,150,0|2
228,32,55248,2,0,B|268:40|308:64,2,75,0|0|2
80,68,56193,2,0,B|48:136|32:224,1,150,0|2
184,200,57138,5,4
72,300,57610,1,2
220,280,58082,2,0,B|284:300|352:296,2,112.5
248,212,59027,2,0,B|292:228|336:224,2,75,0|0|2
312,76,59972,2,0,B|296:116|292:156,2,75,0|0|2
312,76,60917,1,4
424,56,68240,5,0
424,56,68476,2,0,B|448:128|448:212,1,150,4|2
316,128,69421,1,0
384,260,69894,1,2
236,248,70366,2,0,B|168:276|76:288,1,150,0|2
180,164,71311,2,0,B|144:184|100:188,2,75,0|0|2
52,84,72256,6,0,B|32:160|32:236,1,150,4|2
164,304,73201,2,0,B|240:312|320:304,1,150,0|2
456,260,74145,1,0
476,112,74618,1,2
340,44,75090,2,0,B|268:72|212:124,1,150,0|2
360,160,76035,6,0,B|376:232|408:304,1,150,4|2
276,232,76980,1,0
152,316,77453,1,2
16,252,77925,2,0,B|76:208|156:184,1,150,0|2
28,100,78870,2,0,B|64:80|104:72,2,75,0|0|2
172,56,79815,5,4
320,44,80287,1,2
448,120,80760,2,0,B|368:124|292:152,1,150,0|2
244,100,81468,1,0
228,172,81705,2,0,B|264:236|328:292,1,150,0|2
180,236,82649,2,0,B|260:220|324:180,2,150,0|2|0
100,280,85248,5,0
100,280,85484,2,0,B|56:216|32:140,1,150,4|2
136,36,86429,2,0,B|156:112|192:184,1,150,0|2
248,40,87374,2,0,B|320:60|380:120,1,150,0|2
476,228,88319,1,0
340,288,88791,1,2
192,308,89264,6,0,B|224:236|288:184,1,150,4|2
212,56,90208,1,0
336,140,90681,1,2
188,128,91153,2,0,B|224:136|272:136,2,75,0|0|2
40,116,92098,2,0,B|92:80|156:64,2,112.5
16,188,93043,6,0,B|88:208|168:200,1,150,4|2
300,260,93988,2,0,B|224:276|144:272,1,150,0|2
12,324,94933,1,0
160,344,95405,1,2
308,336,95878,2,0,B|384:320|456:288,1,150,0|2
456,140,96823,6,0,B|412:200|340:244,1,150,4|2
396,100,97768,1,0
256,48,98240,1,2
116,100,98712,1,0
256,156,99185,1,2
256,304,99657,2,0,B|296:308|336:304,2,75,0|0|2
200,164,100602,6,0,B|188:204|144:236,2,75,4|0|2
60,112,101547,2,0,B|100:124|132:168,2,75,0|0|2
8,252,102492,2,0,B|20:212|64:180,2,75,4|0|2
148,304,103437,2,0,B|108:292|76:248,2,75,0|2|2
220,320,104145,1,8
296,312,104382,6,0,B|376:304|444:256,1,150,4|2
448,112,105327,1,0
448,112,105799,1,2
316,36,106271,2,0,B|332:108|364:180,1,150,0|2
228,112,107216,1,0
228,112,107689,1,2
320,232,108161,6,0,B|244:236|160:208,2,150,4|2|0
208,332,109579,1,2
88,244,110051,2,0,B|44:180|20:100,2,150,0|2|0
140,104,111468,1,2
252,204,111941,5,4
252,204,112413,2,0,B|256:128|300:52,1,150,2|0
412,152,113358,1,2
408,304,113831,1,0
408,304,114303,2,0,B|332:312|244:296,1,150,2|0
112,260,115248,1,2
36,132,115720,5,4
36,132,116193,1,2
184,136,116665,1,0
184,136,117138,1,2
256,192,117610,12,0,119421
256,112,133909,5,0
256,112,134145,2,0,B|300:172|368:216,1,150,0|4
492,292,135090,1,2
452,148,135563,1,0
344,44,136035,1,2
196,68,136508,2,0,B|124:96|64:140,1,150,0|2
8,188,137216,1,0
80,212,137453,2,0,B|84:256|104:296,2,75,0|0|2
128,356,138397,6,0,B|208:348|280:308,1,150,4|2
236,168,139342,1,0
340,276,139815,1,2
376,132,140287,1,0
488,232,140760,2,0,B|492:152|472:72,1,150,2|0
452,12,141468,1,0
400,68,141705,2,0,B|320:60|248:76,1,150,2|6
104,108,142649,5,2
224,200,143122,1,2
72,192,143594,1,2
200,112,144067,1,2
144,252,144539,1,2
280,316,145012,2,0,B|320:328|360:328,2,75,2|0|2
392,216,145957,5,6
294,101,146429,1,2
438,134,146901,1,2
302,192,147374,1,2
378,63,147846,1,2
228,52,148319,2,0,B|152:60|72:96,1,150,2|0
40,152,149027,1,0
116,156,149264,2,0,B|184:124|268:120,1,150,2|4
412,124,150208,5,2
412,124,150681,2,0,B|440:192|448:276,2,150,0|2|0
296,220,152098,1,2
152,260,152571,2,0,B|220:288|304:296,1,150,0|2
360,256,153279,1,0
296,220,153516,6,0,B|304:160|324:112,2,112.5,4|0|0
224,196,154460,2,0,B|232:148|248:112,2,75,0|0|2
264,52,155405,2,0,B|184:44|108:48,1,150,0|2
76,192,156350,2,0,B|152:212|228:196,1,150,0|2
96,272,157295,5,4
96,272,157768,1,2
232,332,158240,1,0
232,332,158712,1,2
380,308,159185,2,0,B|384:232|424:164,1,150,0|2
488,32,160130,2,0,B|408:48|336:88,1,150,0|2
296,28,160838,1,0
272,100,161075,6,0,B|304:172|316:264,1,150,4|2
204,140,162019,2,0,B|228:192|236:248,2,112.5
140,180,162964,2,0,B|156:216|164:260,2,75,0|0|2
12,260,163909,2,0,B|60:256|100:240,2,75,0|0|2
36,112,164854,6,0,B|104:68|184:64,1,150,4|2
308,136,165799,2,0,B|240:180|160:184,1,150,0|2
312,228,166744,2,0,B|368:276|456:312,1,150,0|2
488,164,167689,2,0,B|432:116|344:80,1,150,0|2
312,228,168634,5,4
228,104,169106,1,2
80,116,169579,1,0
164,240,170051,1,2
300,304,170523,2,0,B|340:308|392:304,2,75,0|0|2
152,312,171468,2,0,B|112:296|72:260,1,75,0|2
28,228,171941,1,2
256,288,181626,5,8
256,288,181862,2,0,B|180:276|104:232,1,150,4|2
28,116,182807,1,0
168,172,183279,1,2
84,48,183752,2,0,B|160:56|232:88,1,150,0|2
380,80,184697,2,0,B|416:52|456:48,2,75,0|0|2
444,216,185642,6,0,B|380:264|300:292,1,150,4|2
352,144,186586,2,0,B|356:224|396:296,1,150,0|2
260,220,187531,1,0
148,320,188004,1,2
196,180,188476,1,0
84,280,188949,1,2
132,140,189421,6,0,B|68:100|24:32,1,150,4|2
28,184,190366,2,0,B|72:120|148:80,1,150,0|2
280,36,191311,1,0
232,176,191783,1,2
380,156,192256,2,0,B|344:168|304:172,2,75,0|0|2
480,44,193201,5,4
472,192,193673,1,2
392,316,194145,1,0
244,336,194618,1,2
360,240,195090,2,0,B|284:256|196:260,1,150,0|2
204,184,195799,1,0
144,232,196035,2,0,B|104:168|84:88,2,150,0|2|4
196,92,197453,5,2
196,92,197925,1,0
196,92,198397,1,2
344,64,198870,1,0
404,200,199342,1,2
404,200,199815,1,0
404,200,200287,1,2
332,332,200760,6,0,B|256:316|176:268,1,150,4|2
80,180,201705,1,0
228,176,202177,1,2
320,60,202649,2,0,B|340:132|332:220,1,150,0|2
464,136,203594,2,0,B|400:184|324:212,1,150,0|2
444,312,204539,5,4
296,336,205012,1,2
328,188,205484,1,0
260,56,205957,1,2
112,52,206429,1,0
220,156,206901,1,2
72,132,207374,1,0
24,272,207846,1,2
24,272,208319,5,4
160,208,208791,1,2
248,332,209264,1,0
396,324,209736,1,2
480,200,210208,1,0
404,72,210681,1,2
256,40,211153,1,0
256,192,211626,1,2
256,192,211862,1,4
