osu file format v9

[General]
AudioFilename: Carnival.mp3
AudioLeadIn: 0
PreviewTime: 134028
Countdown: 0
SampleSet: Soft
StackLeniency: 0.7
Mode: 0
LetterboxInBreaks: 1

[Editor]
DistanceSpacing: 1.2
BeatDivisor: 3
GridSize: 4

[Metadata]
Title:Carnival
Artist:Megpoid GUMI
Creator:wcx19911123
Version:Hard
Source:otetsu
Tags:vocaloid vocaloid2 val0108 OzzyOzrock

[Difficulty]
HPDrainRate:6
CircleSize:4
OverallDifficulty:6
ApproachRate:7
SliderMultiplier:1.1
SliderTickRate:1

[Events]
//Background and Video events
0,0,"BG.jpg"
Video,0,"Carnival.avi"
//Break Periods
2,27574,29309
2,61117,67340
2,119621,133009
2,174303,180726
//Storyboard Layer 0 (Background)
//Storyboard Layer 1 (Fail)
//Storyboard Layer 2 (Pass)
//Storyboard Layer 3 (Foreground)
//Storyboard Sound Samples
//Background Colour Transformations
3,100,163,162,255

[TimingPoints]
918,236.220472440945,4,2,1,50,1,0
7886,-200,4,2,1,50,0,0
8595,-100,4,2,1,50,0,0
11193,-200,4,2,1,70,0,0
11902,-200,4,1,2,70,0,0
12138,-200,4,2,1,90,0,0
12374,-100,4,2,2,90,0,0
15445,-200,4,2,2,90,0,0
16154,-100,4,2,2,90,0,0
23004,-200,4,2,2,90,0,0
23713,-100,4,2,2,90,0,0
26902,-200,4,2,1,90,0,0
27256,-200,4,2,1,70,0,0
29973,-200,4,2,2,90,0,0
31154,-100,4,2,2,90,0,0
34697,236.220472440945,4,2,2,90,1,0
42020,236.220472440945,4,2,2,90,1,0
45445,-100,4,1,2,90,0,0
45681,-100,4,2,2,90,0,0
53240,-100,4,2,2,50,0,0
53476,-100,4,2,2,90,0,0
68477,-100,4,2,2,90,0,1
71665,-200,4,2,2,90,0,1
72374,-100,4,2,2,90,0,1
79224,-200,4,2,2,90,0,1
79933,-100,4,2,2,90,0,1
83594,-100,4,2,2,90,0,0
104027,-100,4,1,2,90,0,0
104264,-100,4,2,2,90,0,0
104382,-100,4,2,2,90,0,1
107571,-200,4,2,2,90,0,1
108279,-100,4,2,2,90,0,1
119421,-100,4,2,2,90,0,0
134618,-100,4,2,2,90,0,1
140760,-100,4,2,1,90,0,1
140878,-100,4,2,2,90,0,1
140996,-100,4,2,1,90,0,1
141114,-100,4,2,2,90,0,1
141232,-100,4,2,1,90,0,1
141350,-100,4,2,2,90,0,1
141705,-100,4,2,1,90,0,1
141823,-100,4,2,2,90,0,1
145957,-100,4,2,2,90,0,0
181508,-100,4,1,2,90,0,0
181862,-100,4,2,2,90,0,1
185051,-200,4,2,2,90,0,1
185760,-100,4,2,2,90,0,1
192610,-200,4,2,2,90,0,1
193319,-100,4,2,2,90,0,1
196980,-100,4,2,2,90,0,0
200169,-200,4,2,2,90,0,0
200878,-100,4,2,2,90,0,0

[Colours]
Combo1 : 255,96,100
Combo2 : 251,0,6
Combo3 : 196,34,0

[HitObjects]
224,136,4461,2,0,B|168:152|104:192,1,110,0|0
20,264,4933,1,2
48,284,5051,1,0
80,296,5169,1,0
112,308,5288,1,0
144,316,5406,2,0,B|208:332|272:328,1,110,8|0
384,316,5878,5,2
328,196,6114,1,0
440,268,6351,1,8
384,148,6587,2,0,B|440:124|488:80,1,110,0|2
344,84,7059,2,0,B|288:108|240:152,1,110,0|8
108,40,7532,5,0
24,192,7768,1,2
108,344,8004,2,0,B|168:356|232:348,1,110
348,332,8713,5,2
380,324,8831,1,0
412,312,8949,2,0,B|404:252|384:196,1,110,0|8
432,80,9421,1,0
324,152,9658,1,2
456,160,9894,1,0
352,76,10130,5,8
324,60,10248,1,0
292,56,10366,1,0
216,164,10603,1,2
184,164,10721,1,0
152,156,10839,1,0
64,60,11075,1,8
64,60,11311,2,0,B|64:76|64:76|48:84|48:84|80:84|80:84|48:92|48:92|80:92|80:92|64:96|64:96|64:112,1,165,0|8
64,113,12256,5,4
44,244,12492,1,2
68,268,12610,1,0
96,288,12729,2,0,B|144:316|200:332,1,110,0|8
328,344,13201,1,0
456,312,13437,1,2
424,184,13673,1,0
296,216,13910,1,8
276,84,14146,6,0,B|324:48|392:32,1,110,0|2
388,68,14500,1,0
396,100,14618,2,0,B|412:164|412:220,1,110,0|8
256,292,15091,1,0
112,192,15327,1,2
192,36,15563,2,0,B|140:56|88:104,1,110,0|4
40,212,16272,5,2
36,244,16390,1,0
36,276,16508,2,0,B|88:304|168:320,1,110,0|8
268,336,16980,1,0
396,300,17217,1,2
436,172,17453,1,0
384,52,17689,1,8
256,24,17925,6,0,B|280:88|308:132,1,110,0|2
320,152,18280,1,0
340,180,18398,2,0,B|292:224|232:248,1,110,0|8
220,112,18870,2,0,B|128:124|40:120,1,165
64,88,19343,2,0,B|44:140|48:204,2,110,0|8|4
180,28,20051,5,2
172,60,20169,1,0
164,92,20288,2,0,B|140:152|148:220,1,110,0|8
48,284,20760,1,0
180,296,20996,1,2
52,324,21232,1,0
184,304,21469,1,8
64,252,21705,6,0,B|112:220|172:200,1,110,0|2
196,196,22059,1,0
228,192,22177,2,0,B|288:176|360:176,1,110,0|8
396,344,22650,1,0
484,192,22886,1,2
396,40,23122,2,0,B|332:48|284:72,1,110,0|4
400,140,23831,5,2
392,172,23949,1,0
380,204,24067,2,0,B|356:272|320:312,1,110,0|8
204,340,24540,1,0
84,284,24776,1,2
68,152,25012,1,0
144,44,25248,1,8
216,156,25484,6,0,B|256:100|304:72,1,110,0|2
324,64,25839,1,0
356,56,25957,2,0,B|408:36|472:36,2,110,0|8|0
188,316,26784,1,0
168,288,26902,2,0,B|136:240|116:176,1,110,2|4
392,56,30209,6,0,B|384:20,3,27.5,0|0|8|0
384,80,30681,2,0,B|416:64,3,27.5,0|0|8|0
380,104,31154,2,0,B|360:160|352:216,1,110,12|2
348,244,31508,2,0,B|412:236|476:264,1,110
460,288,31862,2,0,B|412:324|356:344,1,110
232,344,32335,1,0
232,344,32453,2,0,B|268:288|276:220,1,110,8|0
256,212,32807,5,8
256,212,32925,1,8
256,212,33043,2,0,B|208:240|152:260,1,110,0|2
160,292,33398,2,0,B|112:320|52:332,1,110
44,300,33752,2,0,B|32:248|32:192,3,110,0|0|8|8
32,60,34697,2,0,B|140:28|264:40,1,220,0|2
380,52,35405,5,0
380,52,35641,2,0,B|372:144|376:224,1,165,0|8
408,208,36114,2,0,B|428:264|464:304,1,110,0|8
436,320,36468,1,8
436,320,36586,2,0,B|376:336|312:332,3,110,0|0|2|0
300,316,37413,5,8
300,316,37531,2,0,B|280:248|280:200,1,110,0|8
276,176,37885,1,8
272,144,38004,1,8
272,112,38122,1,8
276,80,38240,6,0,B|332:64|396:64,2,110,0|4|2
268,48,38830,2,0,B|204:36|140:40,1,110
148,72,39185,2,0,B|84:56|28:64,2,110
132,100,39775,2,0,B|100:152|80:204,1,110,8|0
68,228,40130,5,8
132,344,40366,1,0
168,216,40602,1,2
268,300,40838,1,0
260,168,41074,1,0
388,196,41311,1,0
312,88,41547,2,0,B|368:52|424:44,1,110,0|8
444,40,41901,1,8
476,36,42020,2,0,B|480:96|496:144,2,110,0|2|0
468,168,42728,6,0,B|448:232|440:284,2,110
436,164,43319,2,0,B|376:156|312:176,1,110,8|0
332,204,43673,2,0,B|340:256|332:324,2,110,8|0|2
276,84,44382,1,0
16,36,44854,2,0,B|112:56|180:96,2,165,0|0|8
64,160,45799,5,4
48,292,46035,1,8
180,308,46271,1,2
196,176,46508,1,8
208,144,46626,1,0
224,116,46744,2,0,B|256:64|304:32,1,110,2|8
432,36,47216,2,0,B|444:88|468:152,1,110,2|8
368,228,47689,5,0
468,312,47925,1,8
468,312,48043,2,0,B|408:336|344:348,1,110
356,312,48397,2,0,B|340:256|312:200,1,110,8|2
300,180,48752,1,0
280,152,48870,2,0,B|232:192|200:240,1,110,8|2
140,348,49342,1,8
72,236,49579,6,0,B|84:296|108:340,1,110,4|8
140,348,49933,2,0,B|200:332|240:292,1,110
228,264,50287,2,0,B|216:204|176:152,1,110,8|2
72,96,50760,1,8
204,88,50996,1,2
104,172,51232,1,8
136,44,51468,5,0
332,44,51823,1,0
332,44,51941,2,0,B|432:80|480:140,1,165,8|8
456,160,52413,2,0,B|432:208|420:272,1,110,8|8
308,332,52886,2,8,B|356:332,4,27.5,0|0|0|0|4
332,204,53358,5,4
208,252,53594,1,8
208,252,53712,2,0,B|120:284|40:296,1,165,0|8
40,264,54185,1,0
32,232,54303,2,0,B|20:176|20:120,1,110,2|8
128,48,54775,1,2
112,180,55012,1,8
232,128,55248,6,0,B|296:112|352:80,1,110,0|8
364,76,55602,2,0,B|392:136|440:184,2,110
392,60,56193,1,2
492,148,56429,1,8
488,280,56665,1,2
368,340,56901,1,8
236,332,57138,6,0,B|272:284|324:248,1,110,4|8
340,236,57492,1,0
368,216,57610,2,0,B|308:176|248:160,1,110,2|8
164,244,58082,2,0,B|96:276|48:316,1,110,2|8
44,320,58437,1,0
20,344,58555,2,0,B|8:272|8:216,1,110,2|8
8,104,59027,5,4
32,80,59145,1,0
60,64,59264,2,8,B|112:36|176:24,1,110
112,148,59736,1,0
144,136,59854,1,0
176,132,59972,2,8,B|244:128|308:136,1,110
420,144,60445,2,8,B|468:148,4,27.5
420,144,60917,1,4
256,192,68240,6,0,B|304:164|364:160,1,110,0|6
424,276,68712,1,8
400,300,68831,1,0
372,316,68949,1,2
340,328,69067,1,0
308,340,69185,2,0,B|252:360|176:360,1,110,8|2
148,236,69657,1,8
36,308,69894,1,2
144,228,70130,1,8
20,272,70366,6,0,B|8:216|12:144,1,110,0|8
12,128,70720,1,0
16,96,70838,2,0,B|72:80|136:72,1,110,2|8
300,68,71311,1,2
440,172,71547,1,8
352,324,71783,2,0,B|400:288|432:232,1,110,2|4
296,220,72492,5,8
268,240,72610,1,0
240,256,72728,2,0,B|184:288|128:304,1,110,2|8
12,336,73201,1,2
48,208,73437,1,8
84,80,73673,2,0,B|132:48|200:40,1,110,2|8
188,76,74027,1,0
188,108,74145,6,0,B|256:108|320:76,1,110,0|8
328,76,74500,1,0
360,68,74618,2,0,B|416:40|488:36,1,110,2|8
436,168,75090,2,0,B|408:248|416:332,1,165,2|0
436,304,75563,2,0,B|376:284|316:284,1,110,2|8
196,296,76035,5,4
68,320,76271,1,8
56,288,76390,1,0
48,256,76508,2,0,B|36:200|32:136,1,110,2|8
120,48,76980,1,2
164,172,77216,1,8
256,76,77453,1,2
312,196,77689,5,8
344,192,77807,1,0
376,184,77925,2,0,B|432:164|472:112,1,110,0|8
352,52,78397,1,2
376,184,78634,1,8
288,336,78870,1,2
460,308,79106,1,8
284,304,79342,2,0,B|276:248|248:184,1,110,2|4
180,308,80051,5,8
148,320,80169,1,0
116,328,80287,1,2
44,216,80523,1,8
144,128,80760,1,2
116,256,80996,1,8
64,136,81232,1,2
176,204,81468,5,8
208,216,81586,1,0
240,216,81705,1,0
244,84,81941,1,8
276,72,82059,1,0
308,76,82177,1,2
364,196,82413,1,8
424,80,82649,2,0,B|464:172|472:260,1,165,2|0
472,272,83122,2,0,B|360:312|264:316,1,183.333333333333,2|0
140,112,85248,5,0
8,132,85484,2,0,B|56:176|108:200,1,110,4|2
92,228,85838,2,0,B|180:284|252:304,1,165,0|8
352,228,86429,2,0,B|312:279|272:303,1,110,0|2
240,300,86783,1,0
232,268,86901,2,0,B|224:208|232:148,3,110,0|8|0|2
236,124,87728,6,0,B|332:120|404:96,1,165,0|8
444,216,88319,1,0
428,84,88555,1,2
392,212,88791,1,0
476,112,89027,1,8
356,172,89264,2,0,B|272:224|224:296,1,165,4|0
264,296,89736,2,0,B|324:320|380:324,1,110,0|8
444,216,90208,5,0
324,60,90563,1,0
324,60,90681,2,0,B|260:48|208:56,1,110,0|8
44,96,91153,1,0
128,200,91390,1,2
36,104,91626,1,0
92,224,91862,1,8
192,312,92098,2,0,B|100:312|20:276,2,165,0|0|8
224,316,92925,5,0
256,316,93043,2,0,B|316:312|376:296,1,110,4|2
348,272,93397,1,0
332,244,93516,2,0,B|400:232|456:212,1,110,0|8
484,92,93988,1,0
364,40,94224,1,2
364,40,94342,2,0,B|332:108|256:176,1,165,0|8
200,52,94933,6,0,B|136:80|72:84,1,110,0|2
100,48,95287,2,0,B|84:128|84:220,1,165,0|8
40,336,95878,1,0
148,260,96114,1,2
16,260,96350,1,0
124,336,96586,1,8
84,212,96823,6,0,B|172:140|292:132,1,220,4|0
312,260,97531,1,8
432,320,97768,2,0,B|464:268|472:204,1,110,0|2
460,88,98240,2,0,B|424:136|404:188,1,110,0|8
340,68,98712,5,0
260,172,98949,1,2
272,40,99185,1,0
192,144,99421,1,8
204,12,99657,1,0
124,116,99894,1,2
96,132,100012,1,0
72,156,100130,2,8,B|32:208|24:264,1,110
124,340,100602,5,4
132,324,100720,1,0
144,312,100838,1,8
156,304,100957,1,0
172,296,101075,1,2
188,292,101193,1,0
204,292,101311,1,8
220,292,101429,1,0
236,292,101547,2,0,B|304:292|352:276,1,110,2|8
376,268,101901,1,0
404,252,102019,2,0,B|452:224|476:168,1,110,2|8
484,140,102374,1,0
488,108,102492,5,4
384,28,102728,1,8
276,104,102964,1,2
160,36,103201,1,8
128,48,103319,1,0
104,72,103437,1,2
36,232,103673,1,8
192,312,103909,1,2
348,236,104145,6,0,B|300:280|256:300,1,110,8|4
128,316,104618,1,8
96,304,104736,1,0
72,284,104854,1,2
52,260,104972,1,0
36,232,105090,1,8
32,100,105327,2,0,B|76:64|136:52,1,110,2|8
264,44,105799,1,2
396,52,106035,5,8
424,68,106153,1,0
448,92,106271,1,0
480,220,106508,1,8
476,252,106626,1,0
460,280,106744,2,0,B|424:332|368:368,1,110,2|8
368,184,107216,1,2
224,284,107453,1,8
48,304,107689,2,0,B|112:308|164:296,1,110,2|4
288,272,108397,5,8
320,260,108516,1,0
348,240,108634,1,2
392,116,108870,1,8
392,116,109106,1,2
264,140,109342,1,8
264,140,109579,1,2
348,240,109815,5,8
320,260,109933,1,0
288,272,110051,2,0,B|200:312|112:320,1,165
100,324,110523,2,0,B|60:272|40:220,1,110,2|8
32,200,110878,1,0
24,168,110996,2,0,B|128:160|200:120,1,165,2|0
212,112,111468,2,0,B|152:96|104:72,2,110,2|8|4
328,44,112177,5,8
360,52,112295,1,0
388,68,112413,2,0,B|440:100|488:156,1,110,2|8
344,172,112886,1,2
444,256,113122,1,8
320,304,113358,1,2
256,188,113594,5,8
232,208,113712,1,0
212,232,113831,2,0,B|176:280|152:336,1,110,0|8
152,196,114303,2,0,B|116:244|92:300,1,110,2|8
92,160,114775,2,0,B|56:208|32:264,2,110,2|8|2
40,36,115484,5,8
48,68,115602,1,0
64,96,115720,2,0,B|96:152|136:192,1,110,4|8
108,212,116075,1,0
92,240,116193,2,0,B|128:296|172:340,1,110,2|8
292,328,116665,5,2
392,156,116901,1,8
220,56,117138,1,2
120,228,117374,1,8
120,228,117492,1,0
120,228,117610,1,0
256,192,117728,12,0,119421
256,192,133909,6,0,B|200:192|144:164,1,110
40,92,134382,1,0
72,80,134500,1,0
104,72,134618,2,0,B|164:56|240:56,1,110,12|8
216,88,134972,2,0,B|276:80|328:92,1,110,8|8
456,120,135445,5,8
456,120,135563,2,0,B|472:172|472:248,1,110,0|8
440,240,135917,1,8
408,248,136035,2,0,B|348:256|284:292,1,110,0|8
276,296,136390,1,8
244,308,136508,2,0,B|192:332|128:340,1,110,0|8
104,340,136862,5,8
72,336,136980,1,8
44,316,137098,1,8
36,284,137216,1,8
36,252,137334,1,8
44,220,137453,2,0,B|68:156|76:104,1,110,0|8
76,80,137807,2,0,B|168:40|240:44,1,165,8|8
200,172,138397,5,4
328,136,138634,1,8
328,136,138752,2,0,B|396:128|448:104,1,110,8|8
456,136,139106,1,0
472,164,139224,1,8
488,192,139342,2,0,B|456:256|448:312,1,110,8|8
340,220,139815,1,8
316,244,139933,1,0
300,272,140051,1,8
288,304,140169,6,0,B|208:328|124:328,1,165,8|8
92,328,140642,1,8
60,328,140760,2,8,B|40:296|32:256,1,55
32,244,140996,2,8,B|28:204|28:176,1,55
28,156,141232,2,0,B|28:92|44:32,1,110,8|8
72,44,141586,1,8
104,40,141705,1,8
136,36,141823,1,8
168,36,141941,1,8
200,40,142059,1,8
232,44,142177,6,0,B|264:44|300:52,3,55,12|0|8|0
320,60,142649,2,0,B|352:68|384:84,3,55,8|0|8|0
404,92,143122,2,8,B|460:120|496:164,1,110
500,188,143476,2,0,B|508:220|512:256,1,55,0|8
504,276,143712,1,0
484,304,143831,1,8
456,320,143949,1,0
428,336,144067,6,0,B|400:348|372:352,3,55,12|0|8|0
344,352,144539,1,8
312,352,144657,1,0
280,348,144775,1,8
248,340,144894,1,0
216,328,145012,2,8,B|164:296|116:248,1,110
104,240,145366,2,0,B|80:208|64:180,1,55,0|8
36,68,145720,5,8
64,48,145838,1,0
96,44,145957,1,12
224,164,146193,1,8
364,56,146429,1,8
444,212,146665,1,8
324,340,146901,1,8
328,164,147138,1,8
168,240,147374,1,8
28,344,147610,5,8
24,312,147728,1,0
24,280,147846,1,12
196,320,148082,1,8
68,196,148319,1,8
216,100,148555,1,8
40,96,148791,1,8
204,28,149027,1,8
272,192,149264,1,8
288,164,149382,1,8
308,140,149500,1,8
336,120,149618,1,8
364,104,149736,6,0,B|416:80|472:72,1,110,4|8
480,104,150090,1,0
488,136,150208,2,0,B|500:200|492:256,1,110,2|8
488,280,150563,1,0
480,312,150681,2,0,B|424:332|360:332,1,110,2|8
384,200,151153,1,2
340,324,151390,1,8
248,228,151626,6,0,B|216:276|196:332,1,110,0|8
164,328,151980,2,0,B|138:276|99:230,1,110
116,204,152334,2,0,B|173:207|232:197,1,110,8|2
236,168,152689,1,0
228,136,152807,2,0,B|128:80|24:56,1,220,8|8
28,188,153516,6,0,B|28:252|40:304,1,110,4|8
44,328,153870,2,0,B|132:328|216:312,1,165,0|8
340,292,154460,1,2
432,196,154697,1,8
340,292,154933,1,2
500,220,155169,1,8
340,292,155405,2,0,B|344:204|376:120,1,165
372,130,155878,1,8
408,40,156232,5,8
408,40,156350,2,8,B|352:48|284:48,1,110
164,52,156823,2,8,B|128:52,4,27.5
32,44,157295,6,0,B|56:100|68:164,1,110,4|8
72,180,157649,1,0
76,212,157768,2,0,B|88:272|88:336,1,110,2|8
56,308,158122,1,0
68,276,158240,2,0,B|120:260|180:260,1,110,2|8
308,268,158712,1,2
436,308,158949,1,8
440,176,159185,6,0,B|440:116|448:56,1,110,0|8
452,36,159539,2,0,B|392:44|332:44,1,110
328,176,160012,1,0
328,176,160130,2,0,B|280:132|220:104,1,110,2|8
116,68,160602,1,2
36,172,160838,1,8
84,56,161075,6,0,B|84:116|92:180,1,110,4|8
124,164,161429,2,0,B|104:256|48:328,1,165,0|8
188,340,162019,1,2
316,300,162256,1,8
344,284,162374,1,0
440,196,162610,1,0
420,220,162728,1,8
488,108,162964,5,0
460,92,163082,1,0
428,80,163201,2,8,B|364:60|304:56,1,110
188,48,163673,1,0
212,72,163791,1,0
228,100,163909,2,8,B|260:160|272:224,1,110
304,328,164382,2,8,B|312:356,4,27.5
176,292,164854,6,0,B|120:304|48:300,1,110,4|8
32,300,165208,2,0,B|60:212|72:128,1,165,0|8
168,48,165799,2,0,B|192:104|200:164,1,110,2|8
204,184,166153,2,0,B|296:192|384:180,1,165,0|8
500,160,166744,5,0
420,56,166980,1,8
420,56,167098,2,0,B|396:148|404:228,1,165,0|8
424,352,167689,1,2
296,320,167925,1,8
264,316,168043,1,0
68,308,168397,1,8
40,180,168634,6,0,B|56:112|76:64,1,110,4|8
104,76,168988,2,0,B|184:84|272:64,1,165,0|8
396,36,169579,1,2
460,152,169815,2,0,B|476:184|484:216,1,55,8|0
288,164,170287,1,8
292,340,170523,5,8
124,288,170760,1,8
52,128,170996,1,8
200,36,171232,1,8
376,52,171468,1,8
404,68,171586,1,8
432,88,171705,1,8
452,112,171823,1,8
472,140,171941,1,8
200,68,181626,6,0,B|204:132|240:176,1,110,8|4
328,76,182098,1,8
356,92,182216,1,0
380,112,182334,1,2
404,136,182453,1,0
424,164,182571,1,8
324,252,182807,1,2
452,284,183043,1,8
324,252,183279,1,2
472,352,183516,1,8
324,252,183752,6,0,B|268:284|216:296,1,110,0|8
192,304,184106,1,0
160,312,184224,2,0,B|104:328|44:332,1,110,2|8
40,156,184697,1,2
176,44,184933,1,8
352,40,185169,2,0,B|412:56|472:88,1,110,2|4
484,208,185878,5,8
476,240,185996,1,0
460,268,186114,1,2
356,348,186350,1,8
368,216,186586,1,2
264,132,186823,1,8
244,264,187059,1,2
120,312,187295,5,8
92,300,187413,1,0
68,280,187531,1,0
156,180,187768,1,8
124,168,187886,1,0
96,152,188004,2,0,B|52:120|16:68,1,110,2|8
152,56,188476,2,0,B|188:100|256:136,3,110,2|8|2|8
356,184,189421,5,4
348,52,189657,1,8
380,64,189775,1,0
408,84,189894,1,2
460,204,190130,1,8
412,328,190366,1,2
324,232,190602,1,8
276,356,190838,1,2
148,316,191075,5,8
172,292,191193,1,0
192,264,191311,2,0,B|220:216|236:164,1,110,0|8
244,132,191665,1,0
252,100,191783,2,0,B|204:128|140:128,1,110,2|8
312,64,192256,1,2
148,128,192492,1,8
44,272,192728,2,0,B|104:292|160:296,1,110,2|4
328,308,193437,5,8
360,304,193555,1,0
392,300,193673,1,2
488,152,193909,1,8
348,44,194145,1,2
176,76,194382,1,8
40,188,194618,1,2
128,340,194854,5,8
160,344,194972,1,0
192,340,195090,2,0,B|304:344|428:288,1,220,0|2
472,132,195799,1,8
320,44,196035,2,0,B|208:40|84:96,2,220,2|2|4
252,156,197216,5,8
252,156,197334,1,0
252,156,197453,1,2
132,100,197689,1,8
244,168,197925,1,2
116,140,198161,1,8
240,180,198397,1,2
108,184,198634,1,8
240,192,198870,5,0
336,280,199106,1,8
336,280,199224,1,0
336,280,199342,1,2
456,336,199579,1,8
344,268,199815,1,2
472,296,200051,1,8
348,256,200287,2,0,B|376:208|392:148,1,110,2|4
416,24,200996,5,8
416,24,201114,1,0
416,24,201232,2,0,B|376:68|320:88,1,110,2|8
196,108,201705,1,2
72,152,201941,1,8
64,284,202177,1,2
188,332,202413,5,8
220,340,202531,1,0
252,336,202649,1,0
384,316,202886,1,8
416,308,203004,1,0
444,288,203122,1,2
476,160,203358,1,8
360,96,203594,2,0,B|320:152|280:180,1,110,2|8
260,196,203949,1,0
232,216,204067,2,0,B|132:272|16:300,1,220,2|4
68,124,204775,5,8
68,124,204894,1,0
68,124,205012,1,2
224,44,205248,1,8
320,192,205484,1,2
476,112,205720,1,8
476,288,205957,1,2
308,340,206193,1,8
132,332,206429,5,0
292,256,206665,1,8
292,256,206783,1,0
292,256,206901,1,2
344,88,207138,1,8
176,132,207374,1,2
60,264,207610,1,8
44,88,207846,1,10
44,88,208319,5,4
212,40,208555,1,8
212,40,208673,1,0
212,40,208791,1,2
148,204,209027,1,8
280,320,209264,1,2
260,144,209500,1,8
420,72,209736,1,2
472,240,209972,5,8
472,240,210090,1,0
472,240,210208,1,0
352,112,210445,1,8
368,288,210681,1,2
196,316,210917,1,8
80,184,211153,1,2
172,36,211390,1,8
256,192,211626,1,10
256,192,211862,1,14
