osu file format v9

[General]
AudioFilename: Carnival.mp3
AudioLeadIn: 0
PreviewTime: 134028
Countdown: 0
SampleSet: Soft
StackLeniency: 0.7
Mode: 0
LetterboxInBreaks: 1

[Editor]
DistanceSpacing: 1
BeatDivisor: 4
GridSize: 4

[Metadata]
Title:Carnival
Artist:Megpoid GUMI
Creator:wcx19911123
Version:Carnival0108
Source:otetsu
Tags:vocaloid vocaloid2 val0108 OzzyOzrock

[Difficulty]
HPDrainRate:6
CircleSize:4
OverallDifficulty:8
ApproachRate:9
SliderMultiplier:1.7
SliderTickRate:1

[Events]
//Background and Video events
Video,0,"Carnival.avi"
0,0,"0108 BGGGGGG.jpg"
//Break Periods
2,27574,30317
2,83716,84648
2,119621,133310
2,174303,181026
//Storyboard Layer 0 (Background)
//Storyboard Layer 1 (Fail)
//Storyboard Layer 2 (Pass)
//Storyboard Layer 3 (Foreground)
//Storyboard Sound Samples
//Background Colour Transformations
3,100,163,162,255

[TimingPoints]
918,236.220472440945,4,2,1,95,1,0
11961,-100,4,1,2,95,0,0
12197,-100,4,1,1,95,0,0
34697,236.220472440945,4,1,1,95,1,0
42020,236.220472440945,4,1,1,95,1,0
45504,-100,4,1,2,95,0,0
45622,-100,4,1,1,95,0,0
65878,-66.6666666666667,4,1,1,95,0,0
66823,-50,4,1,1,95,0,0
67295,-100,4,1,1,95,0,0
68181,-100,4,2,1,95,0,0
68299,-100,4,1,1,95,0,0
68477,-100,4,1,1,95,0,1
83516,-100,4,2,1,95,0,1
83594,-100,4,1,1,95,0,0
104087,-100,4,1,2,95,0,0
104382,-100,4,1,1,95,0,1
119421,-100,4,2,1,95,0,0
133851,-100,4,2,1,50,0,0
134618,-100,4,1,1,95,0,1
145957,-100,4,1,1,95,0,0
171882,-100,4,2,1,95,0,0
181567,-100,4,1,2,95,0,0
181862,-100,4,1,1,95,0,1
196980,-100,4,1,1,95,0,0
212039,-100,4,2,1,95,0,0
215169,-100,4,1,1,95,0,0

[Colours]
Combo1 : 255,96,100
Combo2 : 251,0,6
Combo3 : 196,34,0

[HitObjects]
392,92,4461,2,0,B|397:157|397:157|384:207|384:207|392:260,1,170,2|8
200,364,4933,5,8
188,280,5051,1,2
116,328,5169,2,0,B|92:288|92:288|92:224,1,85,0|0
72,168,5406,1,8
140,120,5524,1,0
160,204,5642,2,0,B|136:124|152:20,2,170,0|8|2
328,220,6351,6,0,B|336:268|336:268|392:316,1,85,8|0
284,320,6587,2,0,B|239:325|239:325|180:320,1,85,2|0
404,224,6823,2,0,B|435:194|435:194|464:136,1,85,8|0
240,252,7059,2,0,B|234:204|248:156,1,85,2|0
376,152,7295,2,0,B|328:120|284:116,1,85,8|0
216,92,7532,2,0,B|124:144|124:144|152:216|152:216|136:292|136:292|232:316,1,340,2|2
300,316,8122,1,2
356,252,8240,1,10
304,184,8358,1,2
252,252,8477,6,0,B|297:311|297:311|360:323|385:248,1,170,2|8
400,192,8831,1,0
432,112,8949,2,0,B|384:96|336:136,1,85,2|0
400,192,9185,2,0,B|444:208|492:176,1,85,10|0
432,112,9421,2,0,B|404:79|404:79|392:44|340:32|340:32|284:28,2,170,0|8|2
212,240,10130,5,8
160,308,10248,1,0
80,332,10366,1,2
300,240,10603,5,8
352,308,10721,1,0
432,332,10839,1,2
256,276,11075,6,0,B|256:184,1,85,8|2
172,184,11311,2,2,B|104:168|112:116|100:88|160:44|160:44|260:44,1,255
188,116,11784,2,0,B|364:116,1,170,0|8
112,294,12256,6,0,B|152:232|88:168|118:120,1,170,4|8
53,68,12610,1,0
113,128,12729,2,0,B|169:112|201:64,1,85
204,168,12965,2,0,B|260:160|284:112,1,85,8|0
312,204,13201,2,0,B|352:168|368:124|348:76|304:56,2,170,0|8|0
275,126,13792,1,0
220,64,13910,1,8
135,64,14028,1,0
68,112,14146,6,0,B|40:188|40:188|56:248|124:269,1,170,0|8
132,180,14500,1,0
132,180,14618,2,0,B|331:129,1,170,0|8
276,220,14973,1,0
360,232,15091,2,0,B|343:287|382:331|448:346|481:310,2,170,0|8|0
372,148,15681,1,0
392,64,15799,1,8
476,88,15918,1,8
460,172,16036,6,0,B|384:120|284:120,1,170,4|8
300,120,16390,1,0
300,120,16508,2,0,B|292:176|292:176|244:208,1,85
176,280,16744,2,0,B|180:232|180:232|216:188,1,85,8|0
168,88,16980,2,0,B|172:132|92:148|92:236,2,170,0|8|0
84,84,17571,1,0
204,204,17689,2,0,B|268:212|308:164,1,85,8|0
360,264,17925,6,0,B|400:216|400:216|400:96,1,170,0|8
464,72,18280,1,0
464,156,18398,2,0,B|464:256,1,85
332,132,18634,2,0,B|332:40,1,85,8|0
332,131,18870,6,0,B|272:131|272:131|244:100|244:100|172:100,1,170,0|8
96,72,19225,1,0
44,140,19343,2,8,B|12:192,3,42.5
21,176,19579,2,8,B|16:240,3,42.5
17,218,19815,5,4
17,218,19933,1,0
56,296,20051,1,8
56,296,20169,1,0
108,228,20288,1,0
108,228,20406,1,0
148,152,20524,2,0,B|195:155|244:136,1,85,8|0
310,172,20760,2,0,B|236:112|244:24,2,170,0|8|0
388,208,21351,1,0
320,280,21469,1,8
248,232,21587,1,8
310,173,21705,6,0,B|376:144|376:144|408:96|380:24,1,170,0|8
310,173,22059,1,0
309,173,22177,2,0,B|244:202|244:202|212:250|231:296,1,170,0|8
308,336,22532,1,0
320,252,22650,2,0,B|412:212,1,85
272,104,22886,2,0,B|180:144,1,85,8|0
160,216,23122,1,0
208,288,23240,1,8
284,324,23358,1,8
368,332,23477,1,8
448,300,23595,6,0,B|452:238|406:189|415:131,1,170,4|8
336,168,23949,1,0
364,252,24067,2,0,B|316:260|264:240,1,85
268,120,24303,2,0,B|224:108|172:116,1,85,8|0
160,240,24540,2,0,B|104:264|104:264|40:248|48:160,2,170,0|8|0
240,208,25130,1,0
324,208,25248,1,8
408,208,25366,1,8
376,296,25484,6,0,B|280:296,1,85,4|0
136,296,25721,2,0,B|232:296,1,85,8|0
416,232,25957,6,0,B|320:232,1,85
96,232,26193,2,0,B|192:232,1,85,8|0
257,195,26429,2,0,B|213:108|256:13,1,170,0|8
250,30,26784,1,0
250,30,26902,2,0,B|293:122|245:226,1,170
252,355,27374,1,0
128,340,30917,6,0,B|171:333|228:316,1,85
324,192,31154,2,0,B|288:232|288:232|236:256|140:236,1,170,4|8
92,228,31508,2,0,B|140:164|140:164|252:164,1,170
164,112,31862,2,0,B|206:126|230:164,1,85,8|0
285,225,32099,2,0,B|266:185|230:163,1,85
292,108,32335,1,8
376,124,32453,2,0,B|360:68|360:68|324:16|272:12|236:36,1,170
180,40,32807,2,0,B|134:49|101:72,1,85,8|0
44,204,33043,6,0,B|119:220|228:204,1,170,0|8
376,161,33398,2,0,B|294:171|213:206,1,170
150,259,33752,2,0,B|184:256|212:206,1,85,8|0
277,260,33988,2,0,B|260:228|213:205,1,85
256,133,34225,2,0,B|232:152|213:205,1,85,8|0
156,144,34461,2,0,B|171:183|213:205,1,85,8|0
213,205,34697,2,0,B|297:216|408:208,2,170,0|0|8
88,88,35406,5,0
88,88,35642,2,0,B|144:104|144:104|208:80|292:92,1,170,0|8
420,116,36114,1,8
384,284,36351,1,8
216,308,36587,2,0,B|248:244|368:200,2,170,0|8|0
216,308,37177,2,0,B|174:276|148:244,1,85,0|8
153,250,37414,2,0,B|172:184|128:128|128:52,1,170
212,64,37768,1,8
296,44,37886,1,0
376,68,38004,1,8
452,108,38122,1,8
376,144,38240,1,8
300,180,38358,1,8
216,180,38477,6,0,B|220:124|220:124|196:76|104:80,1,170,4|8
124,164,38831,2,0,B|120:220|120:220|144:268|236:264,1,170
296,234,39185,2,0,B|250:236|218:264,1,85,8|0
112,336,39421,2,0,B|200:368|304:312,1,170,0|8
448,328,39776,2,0,B|356:304|336:168,1,170
472,168,40130,6,0,B|392:240,1,85,8|8
312,328,40366,2,0,B|336:224,1,85,8|0
408,104,40603,6,0,B|328:176,1,85,0|0
248,264,40839,2,0,B|272:160,1,85
336,32,41075,6,0,B|256:104,1,85,8|0
176,192,41311,2,0,B|200:88,1,85,8|0
184,32,41547,6,0,B|128:48|79:81|56:152,3,170,0|8|8|8
76,224,42374,1,0
152,264,42492,1,0
148,180,42610,1,0
76,224,42729,2,0,B|76:324,1,85,8|0
160,328,42965,2,0,B|240:312|280:268|280:268|284:216,1,170,0|8
216,188,43319,1,0
280,132,43437,2,0,B|277:97|277:97|237:53|157:37,1,170,0|8
158,123,43792,1,0
239,98,43910,6,0,B|339:82|339:82|407:122,1,170,0|8
448,184,44264,1,0
484,260,44382,1,8
400,252,44500,1,8
316,240,44618,1,8
352,316,44736,1,8
272,344,44855,6,0,B|176:272|176:272|104:288,1,170
67,222,45209,2,0,B|264:176,1,170
292,123,45563,1,12
128,160,45799,6,0,B|8:296,1,170,4|8
96,312,46154,1,0
172,276,46272,2,0,B|228:320|288:320|352:264,1,170,0|8
324,196,46626,1,0
400,232,46744,2,0,B|440:200|432:152,1,85
312,37,46980,2,0,B|273:56|272:107,1,85,8|0
280,220,47217,2,0,B|312:184|324:140,1,85
152,152,47453,2,0,B|112:172|96:228,1,85,8|0
212,96,47689,6,0,B|293:93|404:96,1,170,0|8
440,36,48043,2,0,B|390:98|308:164,1,170
240,188,48398,1,8
204,264,48516,2,0,B|148:280|100:280,1,85
60,216,48752,1,0
60,216,48870,2,8,B|32:160,7,42.5
60,216,49343,6,0,B|40:256|48:312,1,85
60,216,49579,2,0,B|148:200|224:116,1,170,4|8
59,49,49933,2,0,B|121:103|206:134,1,170
284,168,50288,2,0,B|372:148,1,85,8|0
404,225,50524,2,0,B|444:257|436:309|388:321|344:293|356:225,2,170,0|8|0
367,148,51114,1,0
356,64,51232,1,8
440,52,51351,1,0
468,132,51469,6,0,B|360:112|280:116,1,170,4|8
44,132,51823,2,0,B|152:112|232:116,1,170,4|8
256,44,52177,1,4
44,252,52414,6,0,B|152:272|232:268,1,170,4|8
468,252,52768,2,0,B|360:272|280:268,1,170,4|8
256,340,53122,2,8,B|256:400,3,42.5
256,340,53358,6,0,B|256:168,1,170,4|8
141,75,53713,2,0,B|184:72|224:92,1,85
370,75,53949,2,0,B|328:72|288:92,1,85,0|8
256,170,54185,1,0
256,170,54303,2,0,B|256:266,1,85
180,300,54540,5,8
340,244,54776,1,0
180,192,55012,1,8
340,140,55248,2,0,B|384:112|420:88,1,85
476,148,55484,1,8
396,180,55603,2,0,B|360:116|248:80,1,170
184,44,55957,1,8
100,64,56075,2,0,B|110:71|110:71|89:71|89:71|110:78|110:78|89:82|89:82|110:89|110:89|89:89|89:89|110:96|110:96|89:96|89:96|110:103|110:103|89:103|89:103|110:110|110:110|89:110|89:110|110:118|110:118|89:121|89:121|110:128|110:128|89:132|89:132|110:136|110:136|89:143|89:143|110:143|110:143|100:143|100:143|89:150|89:150|100:161,1,425
324,232,56902,6,0,B|220:248,1,85,8|0
76,292,57138,2,0,B|144:240|144:240|200:140,1,170,12|8
268,152,57492,2,0,B|336:129|393:174|393:174|425:222,1,170
368,276,57847,1,8
296,232,57965,1,0
268,312,58083,2,0,B|166:341|48:352|104:228|172:212|224:272|132:308|164:304,2,255
256,192,58851,12,4,60445
176,148,60681,5,8
96,116,60799,1,8
168,72,60917,2,0,B|132:136|48:208,1,170
57,199,61272,1,8
57,199,61390,1,8
344,236,61626,5,8
424,268,61744,1,8
352,312,61862,2,0,B|384:236|456:168,1,170
449,174,62217,1,8
449,174,62335,1,8
256,116,62571,5,8
256,31,62689,1,8
180,72,62807,2,0,B|144:172|256:272|376:168|328:60,1,340,0|8
256,267,63516,5,8
256,352,63634,1,8
332,311,63752,2,0,B|368:211|256:111|136:215|184:323,1,340,0|8
172,176,64461,5,0
341,176,64697,1,4
172,176,64933,2,8,B|352:176,1,170
144,100,65406,5,0
356,244,65642,1,0
144,100,65878,2,0,B|368:252,1,254.999992400408,8|8
392,96,66351,5,8
115,293,66587,1,0
392,96,66823,2,8,B|112:296,1,340
52,212,67295,5,0
52,212,67414,1,0
52,169,67532,5,8
52,117,67768,1,8
52,65,68004,1,8
256,196,68240,5,2
176,76,68477,6,0,B|216:112|312:112|348:72,1,170,4|8
416,108,68831,1,0
460,180,68949,1,0
376,172,69067,1,0
416,248,69185,2,0,B|380:292|336:296,1,85,8|0
296,228,69421,2,0,B|236:265|236:265|258:313|258:313|172:365,2,170,0|8|0
99,99,70130,6,0,B|116:161|87:215|100:268,1,170,8|0
412,284,70603,2,0,B|396:222|425:168|412:116,1,170,8|0
99,99,71075,1,8
412,284,71311,1,0
412,115,71547,1,8
99,268,71784,1,0
184,288,71902,1,8
268,296,72020,1,12
336,244,72138,1,8
256,216,72256,6,0,B|256:152|256:152|284:120|284:120|260:76|284:44|284:44|256:48|256:48|228:44|228:44|252:76|228:120|228:120|244:136,1,340
344,84,72965,2,0,B|360:104|360:144|324:180|324:180|320:208|368:272|256:372|144:272|192:208|188:180|188:180|152:144|152:104|168:84,1,510,0|8
88,248,73910,5,8
128,324,74028,1,0
208,352,74146,1,8
424,248,74382,5,8
384,324,74500,1,0
304,352,74618,1,8
256,188,74855,5,8
88,184,75091,2,0,B|180:188|180:188|180:256|256:284|324:244|324:244|332:248,1,255
356,192,75563,2,8,B|424:200,4,42.5,8|8|8|8|12
256,56,76036,6,0,B|184:128|84:136,1,170,4|8
107,133,76390,1,0
107,133,76508,2,0,B|180:188|268:200,1,170,0|8
261,199,76862,1,0
261,199,76980,2,0,B|284:280,1,85
261,199,77217,2,0,B|356:200,1,85,8|0
261,199,77453,2,0,B|304:104,1,85
372,83,77689,5,8
446,234,77925,1,0
292,309,78162,1,8
217,157,78398,1,0
332,200,78634,5,8
153,338,78870,1,0
11,157,79106,1,8
191,15,79343,1,0
191,99,79461,1,8
191,183,79579,1,8
191,267,79697,1,8
192,352,79815,6,0,B|236:268|320:216,1,170,4|8
344,152,80169,1,0
424,184,80288,2,0,B|408:232|376:252,1,85
268,120,80524,2,0,B|288:80|352:48,1,85,8|0
220,192,80760,2,0,B|148:240|56:240,2,170,0|8|0
356,292,81469,5,8
356,292,81587,1,8
356,292,81705,2,0,B|296:295|296:295|256:321|256:321|180:328,1,170,8|8
200,244,82059,1,0
128,284,82177,2,0,B|128:226|128:226|96:184|96:184|101:116,1,170,0|8
256,192,82532,12,2,83516
256,136,85248,6,0,B|212:120|168:136,1,85
256,136,85484,2,0,B|280:180|280:180|264:252|344:292,1,170,4|8
240,280,85839,2,0,B|288:224|416:196,1,170
464,168,86193,2,0,B|416:168|388:204,1,85,8|0
489,332,86429,2,0,B|452:289|452:289|448:217|364:193,1,170,0|8
368,284,86784,2,0,B|312:340|188:336,1,170
128,316,87138,1,8
84,244,87256,1,0
72,159,87374,6,0,B|124:72|190:40,1,170,0|8
80,168,87729,2,0,B|152:229|240:261,1,170
225,255,88083,2,0,B|236:217|208:153,1,85,8|0
215,171,88319,2,0,B|307:188|387:180,3,170,0|8|0|8
444,120,89146,1,0
432,36,89264,6,0,B|300:164|416:352,1,340,4|0
256,276,89973,1,8
96,336,90209,2,0,B|208:154|76:26,1,340
256,72,90917,5,8
188,228,91154,2,0,B|236:132,1,85
324,228,91390,2,0,B|276:132,1,85
256,72,91626,2,0,B|256:260,1,170,0|8
256,328,91980,1,0
180,292,92099,2,0,B|140:332|140:332|76:296|84:260|116:224,1,170
332,292,92453,2,0,B|372:332|372:332|436:296|428:260|396:224,1,170
388,160,92807,1,8
320,108,92925,1,8
236,112,93043,6,0,B|176:92|176:92|60:96,1,170,4|8
212,188,93398,2,0,B|400:188,1,170
452,235,93752,2,0,B|368:179,1,85,8|0
472,44,93988,2,0,B|380:192,1,170,0|8
280,52,94343,2,0,B|392:200,1,170
337,259,94697,2,0,B|382:187,1,85,8|0
179,195,94933,2,0,B|337:259,1,170,0|8
198,357,95288,2,0,B|337:259,1,170
344,344,95642,6,0,B|184:272,3,170,8|0|8|8
120,224,96469,1,8
48,176,96587,1,8
24,256,96705,1,8
96,300,96823,2,0,B|236:160,1,170,4|8
208,96,97177,1,0
208,96,97295,1,0
276,44,97414,1,0
276,44,97532,6,0,B|328:72|372:72,1,85,8|0
440,80,97768,2,0,B|440:136|440:136|424:200|336:192,3,170,0|8|0|8
256,192,98713,12,4,100603
112,96,100721,5,0
112,96,100839,1,8
112,96,100957,1,0
112,96,101075,1,0
112,96,101193,1,0
112,96,101311,1,8
112,96,101429,1,0
112,96,101547,2,0,B|216:80|284:104,1,170,0|8
400,224,101902,2,0,B|296:240|228:216,1,170
152,184,102256,5,8
152,184,102374,1,0
152,226,102492,5,4
152,277,102729,1,8
152,327,102965,1,8
360,200,103201,5,8
360,200,103319,1,0
360,157,103437,5,8
360,106,103673,1,8
360,56,103910,1,8
256,192,104146,5,12
336,308,104382,6,0,B|296:272|200:272|164:312,1,170,4|8
96,276,104736,1,0
48,204,104855,2,0,B|20:244|16:296,1,85
96,136,105091,2,0,B|132:92|176:88,1,85,8|0
216,156,105327,2,0,B|276:119|276:119|254:71|254:71|340:19,2,170,0|8|0
413,285,106036,6,0,B|396:223|425:169|412:116,1,170,8|0
100,100,106508,2,0,B|116:162|87:216|100:268,1,170,8|0
260,96,106980,5,8
172,240,107217,1,0
340,240,107453,1,8
172,142,107689,5,0
212,216,107807,1,8
296,216,107925,1,8
340,143,108043,1,8
260,96,108162,6,0,B|256:292,1,170
256,265,108516,1,0
256,265,108634,1,0
404,184,108870,2,0,B|408:280|408:280|392:312|368:336|348:340|348:340,1,170
108,184,109343,2,0,B|104:280|104:280|120:312|144:336|164:340|164:340,1,170
424,136,109815,5,8
384,60,109933,1,0
304,36,110051,2,0,B|224:88|124:96,1,170,0|8
64,116,110406,1,0
64,200,110524,2,0,B|180:200,1,85
149,200,110760,1,8
350,279,110996,2,0,B|325:270|325:270|297:196|202:168|202:168|150:188|149:200,1,255
216,252,111469,2,8,B|216:304,4,42.5,8|8|8|8|12
216,252,111941,6,0,B|288:180|388:172,1,170,4|8
448,180,112295,1,0
405,251,112414,2,0,B|332:196|244:184,1,170,0|8
251,185,112768,1,0
227,103,112886,2,0,B|251:185,1,85
166,184,113122,2,0,B|251:185,1,85,8|0
215,262,113358,2,0,B|251:185,1,85
251,185,113595,5,8
412,132,113831,1,0
176,36,114067,1,8
56,352,114303,1,0
456,352,114540,1,8
456,32,114776,1,0
56,32,115012,1,0
56,201,115248,5,0
140,201,115366,1,8
224,201,115484,1,12
308,201,115603,1,8
392,220,115721,6,0,B|348:136|264:84,1,170,4|8
200,124,116075,1,0
124,80,116193,2,0,B|152:48|200:16,1,85
272,172,116429,2,0,B|252:212|188:244,1,85,8|0
212,230,116666,2,0,B|298:221|379:264,2,170,0|8|0
156,92,117374,5,8
156,92,117492,1,0
156,92,117610,2,0,B|216:89|216:89|256:63|256:63|332:56,1,170,0|8
300,140,117965,1,0
316,224,118083,2,0,B|256:222|256:222|218:185|218:185|160:179,1,170,0|8
256,192,118437,12,2,119421
256,56,133910,5,2
256,56,134146,2,2,B|340:104|152:172|272:192,1,170
256,188,134500,1,2
212,300,134618,6,0,B|188:248|188:248|144:196|64:200,1,170,4|8
28,260,134973,2,0,B|66:285|120:296,1,85
28,260,135209,2,8,B|28:68,1,170
108,120,135563,2,0,B|180:72|292:120,2,170,0|8|8
160,188,136154,1,8
244,204,136272,2,8,B|276:296,1,85
416,320,136508,6,0,B|432:200|408:152,1,170,0|8
376,72,136862,1,0
312,128,136980,1,0
252,68,137099,1,8
192,128,137217,1,8
128,72,137335,1,8
68,132,137453,6,0,B|152:152|228:236,1,170,8|0
136,372,137807,2,0,B|56:348|-8:264,1,170,8|0
72,232,138162,1,8
140,284,138280,1,8
220,308,138398,6,0,B|260:232|260:232|300:216|352:240,1,170,4|8
388,308,138752,2,0,B|340:232,1,85
180,192,138988,2,8,B|272:156|328:68,1,170
456,32,139343,2,0,B|392:112,1,85,8|0
320,228,139579,2,8,B|396:132,1,85
508,88,139815,2,0,B|444:164,1,85,8|0
372,284,140051,2,0,B|432:208,1,85,8|0
308,316,140288,6,0,B|208:332|100:324,1,170,4|8
80,80,140760,2,0,B|180:64|288:72,1,170,4|8
476,188,141232,2,0,B|424:172|424:172|368:208|368:208|280:192,1,170,0|8
319,199,141587,2,0,B|264:156|196:244|144:199,1,170,8|8
156,207,141941,1,8
156,207,142059,1,8
156,207,142177,6,0,B|156:304,1,85,4|0
80,156,142414,2,0,B|80:48,2,85,8|0|8
76,240,142768,2,0,B|36:228|-8:232,2,85,0|8|0
160,128,143122,2,0,B|252:160|368:160,1,170,8|8
326,158,143477,1,0
326,158,143713,5,0
326,158,143831,1,8
326,158,143949,1,0
326,158,144067,6,0,B|326:61,1,85,12|0
402,209,144303,2,0,B|402:317,2,85,8|0|8
406,125,144658,2,0,B|448:144|490:133,2,85,0|8|0
322,237,145012,2,0,B|244:232|146:285,1,170,8|8
159,278,145366,1,0
80,96,145721,5,8
80,96,145957,2,0,B|128:84|128:84|188:112|268:88,1,170,12|8
396,176,146429,1,8
332,16,146666,1,8
288,180,146902,2,0,B|332:112|432:72,1,170,8|8
480,136,147256,2,0,B|420:224|312:252,1,170
348,240,147610,1,8
256,192,147847,12,4,149736
332,172,149973,6,0,B|332:292,1,85,8|0
256,296,150209,2,0,B|204:308|160:300,2,85,0|0|8
196,236,150563,1,0
112,232,150681,2,0,B|72:200|80:152,1,85
200,37,150917,2,0,B|239:56|240:107,1,85,8|0
232,220,151154,2,0,B|200:184|188:140,1,85
360,152,151390,2,0,B|400:172|416:228,1,85,8|0
300,96,151626,6,0,B|219:93|108:96,1,170,0|8
72,36,151980,2,0,B|122:98|204:164,1,170
272,188,152335,1,8
308,264,152453,2,0,B|364:280|412:280,1,85,0|8
452,216,152689,1,0
452,216,152807,2,8,B|480:160,7,42.5
452,216,153280,6,0,B|472:256|464:312,1,85
452,216,153516,2,0,B|364:200|288:116,1,170,4|8
453,49,153870,2,0,B|391:103|306:134,1,170
228,168,154225,2,0,B|140:148,1,85,8|0
108,225,154461,2,0,B|88:264|88:264|124:296|172:288|172:288|192:228,2,170,0|8|0
145,149,155051,1,0
156,64,155169,1,8
72,52,155288,1,8
44,132,155406,6,0,B|152:112|232:116,1,170,4|8
468,132,155760,2,0,B|360:112|280:116,1,170,4|0
256,44,156114,1,8
468,252,156351,6,0,B|360:272|280:268,1,170,4|8
44,252,156705,2,0,B|152:272|232:268,1,170,4|0
256,340,157059,2,8,B|256:400,3,42.5
256,340,157295,6,0,B|256:168,1,170,4|8
288,91,157650,2,0,B|328:72|371:75,1,85
224,92,157886,2,0,B|184:72|142:75,1,85,0|8
256,172,158122,1,0
256,172,158240,2,0,B|256:268,1,85
332,300,158477,5,8
172,244,158713,1,0
332,192,158949,1,8
172,140,159185,2,0,B|128:112|92:88,1,85
36,148,159421,1,8
116,180,159540,2,0,B|152:116|264:80,1,170
328,44,159894,1,8
412,64,160012,2,0,B|402:71|402:71|423:71|423:71|402:78|402:78|423:82|423:82|402:89|402:89|423:89|423:89|402:96|402:96|423:96|423:96|402:103|402:103|423:103|423:103|402:110|402:110|423:110|423:110|402:118|402:118|423:121|423:121|402:128|402:128|423:132|423:132|402:136|402:136|423:143|423:143|402:143|402:143|412:143|412:143|423:150|423:150|412:161,1,425
188,232,160839,6,0,B|292:248,1,85,8|0
436,292,161075,2,0,B|368:240|368:240|312:140,1,170,4|8
244,152,161429,2,0,B|176:129|119:174|119:174|87:222,1,170
144,276,161784,1,8
216,232,161902,1,0
244,312,162020,2,0,B|346:341|464:352|408:228|340:212|288:272|380:308|348:304,2,255,0|0|8
256,192,162788,12,4,164382
80,160,164618,5,8
80,160,164736,1,8
80,160,164855,2,0,B|40:244|76:340,1,170,0|8
70,325,165209,1,0
70,325,165327,1,8
236,192,165563,5,8
236,192,165681,1,8
236,192,165799,2,0,B|276:108|240:12,1,170,0|8
246,27,166154,1,0
246,27,166272,1,8
188,272,166508,5,8
188,272,166626,1,8
188,272,166744,2,0,B|248:336|248:336|312:268,2,170,0|0|8
428,160,167453,5,8
428,160,167571,1,8
428,160,167689,2,0,B|368:96|368:96|304:164,2,170,0|0|8
200,88,168398,6,0,B|140:88|140:88|112:148|48:176,2,170,0|4|8
164,256,169106,1,0
312,88,169343,2,0,B|372:88|372:88|400:148|464:176,2,170,8|0|8
352,252,170051,1,0
184,328,170288,6,0,B|208:368|336:372|344:316,2,170,8|0|8
256,172,170996,1,8
256,28,171232,5,0
256,28,171351,1,0
256,70,171469,5,8
256,120,171705,1,8
256,172,171941,1,2
256,232,181626,6,0,B|341:190|148:124|268:100,1,170,8|4
432,48,182099,5,8
384,120,182217,1,0
304,148,182335,2,0,B|256:172|216:172,1,85
137,171,182571,2,0,B|82:184|60:205,1,85,8|0
137,171,182807,2,0,B|110:208|110:208|114:256|126:296|186:268,2,170,0|8|0
280,48,183516,22,0,B|328:96|397:96|448:76,1,170,8|0
424,248,183988,1,8
253,248,184225,1,0
260,80,184461,38,0,B|244:128|260:176,1,85,8|0
168,283,184697,2,0,B|216:264|224:223,1,85,8|0
343,283,184933,2,0,B|328:236|287:223,1,85,8|8
216,184,185169,1,0
132,168,185288,1,8
64,116,185406,1,8
144,84,185524,1,8
132,168,185642,6,0,B|192:264|112:352|112:352|200:352,1,255
248,328,186114,2,0,B|295:321|328:276,1,85
492,292,186351,2,0,B|452:264|400:264,1,85,8|0
332,116,186587,2,0,B|316:144|316:144|356:172|356:172|328:208|328:208|360:240,2,170,0|8|0
256,192,187295,12,4,189185
72,116,189421,6,0,B|120:152|120:152|188:152|248:120,1,170,4|8
404,176,189776,1,0
404,176,189894,2,0,B|376:200|376:200|312:224|232:196,1,170,0|8
233,283,190248,1,0
233,283,190366,2,0,B|248:247|245:199,1,85
171,240,190603,2,0,B|226:200|245:199,1,85,8|0
182,144,190839,2,0,B|213:158|244:200,1,85,8|0
294,130,191075,6,0,B|336:108|336:108|424:108|424:108|464:92,1,170,0|0
188,304,191547,2,0,B|144:320|144:320|60:320|60:320|12:336,1,170,8|8
148,220,192020,1,8
148,220,192256,2,0,B|188:256|244:212,1,85,8|0
380,156,192492,2,0,B|340:120|284:164,1,85,8|8
216,148,192729,5,0
296,224,192847,1,8
216,148,192965,1,12
296,224,193083,1,8
320,304,193201,6,0,B|448:184,1,170,4|8
444,187,193555,1,0
444,187,193673,2,0,B|324:56,1,170,0|8
329,62,194028,1,0
329,62,194146,2,0,B|284:100|212:100|168:56,2,170,0|8|0
256,192,194855,12,4,196980
256,104,197216,5,8
256,104,197334,1,0
256,104,197453,2,0,B|304:160|200:216|256:272,1,170,0|8
180,316,197807,1,0
108,272,197925,2,0,B|64:248|40:204,1,85
128,188,198161,2,0,B|136:140|172:96,1,85,8|0
212,176,198397,2,0,B|256:184|288:220,1,85
212,264,198634,2,0,B|188:316|144:340,1,85,8|0
284,276,198870,6,0,B|328:280|328:280|412:264|428:184,1,170,0|8
421,205,199224,1,0
421,205,199342,2,0,B|383:160|383:160|271:160,1,170,0|8
196,200,199697,1,0
196,200,199815,2,0,B|172:124|236:84|236:84|224:40,2,170,0|8|0
256,260,200405,1,0
256,260,200523,1,8
256,260,200642,1,0
256,260,200760,6,0,B|283:204|216:140|268:80,1,170,4|8
172,76,201114,1,0
92,108,201232,2,0,B|52:124|24:160,1,85
92,108,201468,2,0,B|76:164|76:212,1,85,8|0
92,108,201705,2,0,B|128:152|168:184|228:216,2,170,0|8|0
100,116,202295,1,0
100,116,202413,1,8
100,116,202531,1,0
100,116,202649,6,0,B|128:44|216:168|280:84,1,170,0|8
411,117,203004,1,0
411,117,203122,2,0,B|351:41|295:169|231:85,1,170,0|8
252,192,203476,1,0
168,204,203594,2,0,B|196:264|196:264|320:264|320:264|348:204,1,255
347,205,204067,1,0
347,205,204303,1,4
84,192,204539,6,0,B|112:148|112:148|176:120|248:124,1,170,4|8
300,80,204894,1,0
376,116,205012,2,0,B|420:88|488:84,1,85
432,168,205248,2,0,B|472:200|488:256,1,85,8|0
396,236,205484,2,0,B|296:288|212:284,2,170,0|8|0
405,247,206075,1,0
405,247,206193,1,8
405,247,206311,1,0
405,247,206429,6,0,B|361:191|361:191|301:179|305:107,1,170,4|8
110,246,206783,1,0
109,245,206901,2,0,B|152:190|152:190|212:178|209:120,1,170,0|8
256,48,207256,1,0
256,132,207374,2,0,B|256:304,2,170,0|8|0
196,72,207964,1,0
112,52,208082,1,8
40,100,208201,1,0
24,184,208319,6,0,B|24:236|24:236|56:304|144:292,1,170,4|8
118,208,208673,1,0
116,124,208791,2,0,B|168:140|200:176,1,85
220,288,209027,2,0,B|272:264|296:216,1,85,8|0
312,108,209264,2,0,B|400:132|460:200,2,170,0|8|0
324,116,209854,1,0
324,116,209972,1,8
324,116,210090,1,0
324,116,210208,6,0,B|324:180|324:180|380:220|392:300,1,170,4|0
300,264,210563,1,0
264,340,210681,2,0,B|216:300|216:240|216:240|168:208,1,170,8|0
236,156,211035,1,0
180,92,211153,6,0,B|136:52|136:52|72:56|68:148,1,170,0|8
72,212,211508,1,0
152,180,211626,2,0,B|248:132|336:124,2,170,0|4|0
72,212,212216,5,0
72,212,212334,2,0,B|80:268|80:268|128:320|224:296,1,170,2|0
252,356,212689,1,0
252,356,212807,2,0,B|312:352|312:352|368:312|368:248,1,170,2|0
284,264,213161,1,0
284,264,213279,2,0,B|256:216|256:216|256:152|340:108,1,170,2|0
356,196,213634,1,0
356,196,213752,2,0,B|412:168|412:168|432:120|388:52,1,170,2|0
320,28,214106,5,0
320,28,214224,2,0,B|256:104|176:168,1,170,2|0
192,28,214579,1,0
192,28,214697,2,0,B|256:104|336:168,1,170,2|0
392,176,215051,1,2
444,244,215169,6,0,B|436:288|400:336,1,85,0|0
344,268,215405,2,0,B|304:288|260:284,1,85
276,200,215642,2,0,B|224:192|192:156,1,85
136,108,215878,1,4
