osu file format v9

[General]
AudioFilename: Aitai.mp3
AudioLeadIn: 2000
PreviewTime: 746
Countdown: 0
SampleSet: Normal
StackLeniency: 0.4
Mode: 0
LetterboxInBreaks: 0

[Editor]
DistanceSpacing: 1
BeatDivisor: 4
GridSize: 8

[Metadata]
Title:Aitai
Artist:Megpoid GUMI
Creator:NatsumeRin
Version:NTR
Source:Dios
Tags:vocaloid vocaloid2 deadman tama disoy

[Difficulty]
HPDrainRate:6
CircleSize:5
OverallDifficulty:8
ApproachRate:7
SliderMultiplier:1.6
SliderTickRate:1

[Events]
//Background and Video events
0,0,"bg.jpg"
Video,150,"Aitai.avi"
//Break Periods
2,18803,36561
2,113089,130275
2,225089,242275
//Storyboard Layer 0 (Background)
//Storyboard Layer 1 (Fail)
//Storyboard Layer 2 (Pass)
//Storyboard Layer 3 (Foreground)
//Storyboard Sound Samples
//Background Colour Transformations
3,100,163,162,255

[TimingPoints]
889.843293438214,571.428571428571,4,1,1,65,1,0
1746,-100,4,1,1,45,0,0
2032,-100,4,1,1,65,0,0
2318,-100,4,1,1,45,0,0
2604,-100,4,1,1,65,0,0
2889,-100,4,1,1,45,0,0
3175,-100,4,1,1,65,0,0
3318,-133.333333333333,4,1,1,45,0,0
3746,-133.333333333333,4,1,1,65,0,0
3889,-100,4,1,1,45,0,0
4318,-100,4,1,1,65,0,0
4604,-100,4,1,1,45,0,0
4889,-100,4,1,1,65,0,0
5175,-100,4,1,1,45,0,0
5461,-100,4,1,1,65,0,0
6318,-100,4,1,1,45,0,0
6604,-100,4,1,1,65,0,0
6889,-100,4,1,1,45,0,0
7175,-100,4,1,1,65,0,0
7461,-100,4,1,1,45,0,0
7746,-100,4,1,1,65,0,0
8032,-100,4,1,1,45,0,0
8318,-100,4,1,1,65,0,0
8604,-100,4,1,1,45,0,0
8889,-100,4,1,1,65,0,0
9175,-100,4,1,1,45,0,0
9461,-100,4,1,1,65,0,0
9746,-100,4,1,1,45,0,0
10032,-100,4,1,1,65,0,0
10889,-100,4,1,1,45,0,0
11175,-100,4,1,1,65,0,0
11461,-100,4,1,1,45,0,0
11746,-100,4,1,1,65,0,0
12032,-100,4,1,1,45,0,0
12318,-100,4,1,1,65,0,0
12604,-100,4,1,1,45,0,0
12889,-100,4,1,1,65,0,0
13175,-100,4,1,1,45,0,0
13461,-100,4,1,1,65,0,0
13746,-100,4,1,1,45,0,0
14032,-100,4,1,1,65,0,0
14318,-100,4,1,1,45,0,0
14604,-100,4,1,1,65,0,0
15461,-100,4,1,1,45,0,0
15746,-100,4,1,1,65,0,0
16032,-100,4,1,1,45,0,0
16318,-100,4,1,1,65,0,0
16604,-100,4,1,1,45,0,0
16889,-100,4,1,1,65,0,0
17461,-100,4,1,1,25,0,0
18032,-100,4,1,1,15,0,0
18604,-100,4,2,1,80,0,0
37175,-100,4,2,1,70,0,0
45604,-100,4,2,1,60,0,0
45889,-100,4,2,1,70,0,0
46604,-100,4,1,1,45,0,0
47175,-100,4,2,1,70,0,0
55746,-100,4,2,1,80,0,0
56604,-100,4,2,1,65,0,0
56889,-100,4,2,1,80,0,0
57746,-100,4,2,1,60,0,0
58032,-100,4,2,1,80,0,0
64032,-100,4,2,1,65,0,0
64318,-100,4,2,1,80,0,0
74032,-100,4,1,1,60,0,0
76318,-100,4,1,1,80,0,1
77175,-100,4,1,1,60,0,1
77461,-100,4,1,1,80,0,1
77746,-100,4,1,1,60,0,1
78032,-100,4,1,1,80,0,1
78318,-100,4,1,1,60,0,1
78604,-100,4,1,1,80,0,1
78889,-100,4,1,1,60,0,1
79175,-100,4,1,1,80,0,1
79461,-100,4,1,1,60,0,1
79746,-100,4,1,1,80,0,1
80032,-100,4,1,1,60,0,1
80318,-100,4,1,1,80,0,1
80604,-100,4,1,1,60,0,1
80889,-100,4,1,1,80,0,1
81746,-100,4,1,1,60,0,1
82032,-100,4,1,1,80,0,1
82318,-100,4,1,1,60,0,1
82604,-100,4,1,1,80,0,1
82889,-100,4,1,1,60,0,1
83175,-100,4,1,1,80,0,1
83461,-100,4,1,1,60,0,1
83746,-100,4,1,1,80,0,1
84032,-100,4,1,1,60,0,1
84318,-100,4,1,1,80,0,1
84604,-100,4,1,1,60,0,1
84889,-100,4,1,1,80,0,1
85175,-100,4,1,1,60,0,1
85461,-100,4,1,1,80,0,1
86318,-100,4,1,1,60,0,1
86604,-100,4,1,1,80,0,1
86889,-100,4,1,1,60,0,1
87175,-100,4,1,1,80,0,1
87461,-100,4,1,1,60,0,1
87746,-100,4,1,1,80,0,1
88032,-100,4,1,1,60,0,1
88318,-100,4,1,1,80,0,1
88604,-100,4,1,1,60,0,1
88889,-100,4,1,1,80,0,1
89175,-100,4,1,1,60,0,1
89461,-100,4,1,1,80,0,1
89746,-100,4,1,1,60,0,1
90032,-100,4,1,1,80,0,1
90889,-100,4,1,1,60,0,1
91175,-100,4,1,1,80,0,1
91461,-100,4,1,1,60,0,1
91746,-100,4,1,1,80,0,1
92032,-100,4,1,1,60,0,1
92318,-100,4,1,1,80,0,1
93175,-100,4,1,1,70,0,1
93461,-100,4,1,1,80,0,1
94318,-100,4,1,1,70,0,1
94461,-100,4,1,1,75,0,0
94604,-100,4,1,1,80,0,1
95461,-100,4,1,1,60,0,1
95746,-100,4,1,1,80,0,1
96032,-100,4,1,1,60,0,1
96318,-100,4,1,1,80,0,1
96604,-100,4,1,1,60,0,1
96889,-100,4,1,1,80,0,1
97175,-100,4,1,1,60,0,1
97461,-100,4,1,1,80,0,1
97746,-100,4,1,1,60,0,1
98032,-100,4,1,1,80,0,1
98318,-100,4,1,1,60,0,1
98604,-100,4,1,1,80,0,1
98889,-100,4,1,1,60,0,1
99175,-100,4,1,1,80,0,1
100032,-100,4,1,1,60,0,1
100318,-100,4,1,1,80,0,1
100604,-100,4,1,1,60,0,1
100889,-100,4,1,1,80,0,1
101175,-100,4,1,1,60,0,1
101461,-100,4,1,1,80,0,1
101746,-100,4,1,1,60,0,1
102032,-100,4,1,1,80,0,1
102318,-100,4,1,1,60,0,1
102604,-100,4,1,1,80,0,1
102889,-100,4,1,1,60,0,1
103175,-100,4,1,1,80,0,1
103461,-100,4,1,1,60,0,1
103746,-100,4,1,1,80,0,1
104604,-100,4,1,1,60,0,1
104889,-100,4,1,1,80,0,1
105175,-100,4,1,1,60,0,1
105461,-100,4,1,1,80,0,1
105746,-100,4,1,1,60,0,1
106032,-100,4,1,1,80,0,1
106318,-100,4,1,1,60,0,1
106604,-100,4,1,1,80,0,1
106889,-100,4,1,1,60,0,1
107175,-100,4,1,1,80,0,1
107461,-100,4,1,1,60,0,1
107746,-100,4,1,1,80,0,1
108032,-100,4,1,1,60,0,1
108318,-100,4,1,1,80,0,1
109175,-100,4,1,1,60,0,1
109461,-100,4,1,1,80,0,1
109746,-100,4,1,1,60,0,1
110032,-100,4,1,1,80,0,1
110318,-100,4,1,1,60,0,1
110604,-100,4,1,1,80,0,1
111175,-100,4,1,1,40,0,1
111746,-100,4,1,1,50,0,1
112318,-100,4,2,1,80,0,1
112889,-100,4,1,1,70,0,0
130604,-100,4,2,1,70,0,0
139175,-100,4,2,1,60,0,0
139461,-100,4,2,1,70,0,0
140318,-100,4,1,1,45,0,0
140889,-100,4,2,1,70,0,0
142889,-100,4,2,1,35,0,0
143175,-100,4,2,1,70,0,0
148318,-100,4,2,1,80,0,0
148461,-100,4,2,1,75,0,0
148604,-100,4,1,1,55,0,0
148746,-100,4,1,1,50,0,0
148889,-100,4,1,1,45,0,0
149032,-100,4,1,1,40,0,0
149175,-100,4,1,1,35,0,0
149318,-100,4,1,1,30,0,0
149461,-100,4,2,1,80,0,0
150318,-100,4,2,1,65,0,0
150604,-100,4,2,1,80,0,0
151461,-100,4,2,1,65,0,0
151746,-100,4,2,1,80,0,0
157746,-100,4,2,1,65,0,0
158032,-100,4,2,1,80,0,0
167746,-100,4,1,1,60,0,0
170032,-100,4,1,1,80,0,1
170889,-100,4,1,1,60,0,1
171175,-100,4,1,1,80,0,1
171461,-100,4,1,1,60,0,1
171746,-100,4,1,1,80,0,1
172032,-100,4,1,1,60,0,1
172318,-100,4,1,1,80,0,1
172604,-100,4,1,1,60,0,1
172889,-100,4,1,1,80,0,1
173175,-100,4,1,1,60,0,1
173461,-100,4,1,1,80,0,1
173746,-100,4,1,1,60,0,1
174032,-100,4,1,1,80,0,1
174318,-100,4,1,1,60,0,1
174604,-100,4,1,1,80,0,1
175461,-100,4,1,1,60,0,1
175746,-100,4,1,1,80,0,1
176032,-100,4,1,1,60,0,1
176318,-100,4,1,1,80,0,1
176604,-100,4,1,1,60,0,1
176889,-100,4,1,1,80,0,1
177175,-100,4,1,1,60,0,1
177461,-100,4,1,1,80,0,1
177746,-100,4,1,1,60,0,1
178032,-100,4,1,1,80,0,1
178318,-100,4,1,1,60,0,1
178604,-100,4,1,1,80,0,1
178889,-100,4,1,1,60,0,1
179175,-100,4,1,1,80,0,1
180032,-100,4,1,1,60,0,1
180318,-100,4,1,1,80,0,1
180604,-100,4,1,1,60,0,1
180889,-100,4,1,1,80,0,1
181175,-100,4,1,1,60,0,1
181461,-100,4,1,1,80,0,1
181746,-100,4,1,1,60,0,1
182032,-100,4,1,1,80,0,1
182318,-100,4,1,1,60,0,1
182604,-100,4,1,1,80,0,1
182889,-100,4,1,1,60,0,1
183175,-100,4,1,1,80,0,1
183461,-100,4,1,1,60,0,1
183746,-100,4,1,1,80,0,1
184604,-100,4,1,1,60,0,1
184889,-100,4,1,1,80,0,1
185175,-100,4,1,1,60,0,1
185461,-100,4,1,1,80,0,1
185746,-100,4,1,1,60,0,1
186032,-100,4,1,1,80,0,1
186889,-100,4,1,1,65,0,1
187175,-100,4,1,1,70,0,1
187604,-100,4,1,1,75,0,1
188032,-100,4,1,1,70,0,1
188175,-100,4,1,1,70,0,0
188318,-100,4,1,1,80,0,1
189175,-100,4,1,1,60,0,1
189461,-100,4,1,1,80,0,1
189746,-100,4,1,1,60,0,1
190032,-100,4,1,1,80,0,1
190318,-100,4,1,1,60,0,1
190604,-100,4,1,1,80,0,1
190889,-100,4,1,1,60,0,1
191175,-100,4,1,1,80,0,1
191461,-100,4,1,1,60,0,1
191746,-100,4,1,1,80,0,1
191889,-100,4,1,1,60,0,1
192318,-100,4,1,1,80,0,1
192604,-100,4,1,1,60,0,1
192889,-100,4,1,1,80,0,1
193746,-100,4,1,1,60,0,1
194032,-100,4,1,1,80,0,1
194318,-100,4,1,1,60,0,1
194604,-100,4,1,1,80,0,1
194889,-100,4,1,1,60,0,1
195175,-100,4,1,1,80,0,1
195461,-100,4,1,1,60,0,1
195746,-100,4,1,1,80,0,1
196032,-100,4,1,1,60,0,1
196318,-100,4,1,1,80,0,1
196604,-100,4,1,1,60,0,1
196889,-100,4,1,1,80,0,1
197175,-100,4,1,1,60,0,1
197461,-100,4,1,1,80,0,1
198318,-100,4,1,1,60,0,1
198604,-100,4,1,1,80,0,1
198889,-100,4,1,1,60,0,1
199175,-100,4,1,1,80,0,1
199461,-100,4,1,1,60,0,1
199746,-100,4,1,1,80,0,1
200032,-100,4,1,1,60,0,1
200318,-100,4,1,1,80,0,1
200604,-100,4,1,1,60,0,1
200889,-100,4,1,1,80,0,1
201175,-100,4,1,1,60,0,1
201461,-100,4,1,1,80,0,1
201746,-100,4,1,1,60,0,1
202032,-100,4,1,1,80,0,1
202889,-100,4,1,1,60,0,1
203175,-100,4,1,1,80,0,1
203461,-100,4,1,1,60,0,1
203746,-100,4,1,1,80,0,1
204032,-100,4,1,1,60,0,1
204318,-100,4,1,1,80,0,1
204889,-100,4,1,1,40,0,1
205461,-100,4,1,1,50,0,1
206032,-100,4,2,1,80,0,1
206604,-133.333333333333,4,2,1,70,0,0
208318,-133.333333333333,4,2,1,30,0,0
208604,-133.333333333333,4,2,1,70,0,0
211175,-133.333333333333,4,2,1,50,0,0
211461,-133.333333333333,4,2,1,70,0,0
212604,-133.333333333333,4,2,1,50,0,0
213175,-133.333333333333,4,2,1,60,0,0
215175,-133.333333333333,4,2,1,80,0,0
215461,-133.333333333333,4,2,1,60,0,0
216032,-133.333333333333,4,2,1,70,0,0
217461,-133.333333333333,4,2,1,50,0,0
217746,-133.333333333333,4,2,1,70,0,0
219461,-133.333333333333,4,2,1,55,0,0
219746,-133.333333333333,4,2,1,80,0,0
220032,-133.333333333333,4,2,1,60,0,0
220318,-100,4,1,1,40,0,0
220604,-100,4,1,1,30,0,0
220889,-100,4,1,1,35,0,0
221175,-100,4,1,1,40,0,0
221461,-100,4,1,1,45,0,0
221746,-100,4,1,1,50,0,0
222032,-100,4,1,1,55,0,0
222318,-100,4,1,1,60,0,0
222604,-100,4,2,1,90,0,0
223746,-200,4,2,1,80,0,0
224318,-200,4,2,1,40,0,0
224889,-100,4,1,1,50,0,0
242604,-100,4,1,1,60,0,0
245461,-100,4,1,1,80,0,1
246318,-100,4,1,1,60,0,1
246604,-100,4,1,1,80,0,1
246889,-100,4,1,1,60,0,1
247175,-100,4,1,1,80,0,1
247461,-100,4,1,1,60,0,1
247746,-100,4,1,1,80,0,1
248032,-133.333333333333,4,1,1,60,0,1
248318,-133.333333333333,4,1,1,80,0,1
248604,-100,4,1,1,60,0,1
248889,-100,4,1,1,80,0,1
249175,-100,4,1,1,60,0,1
249461,-100,4,1,1,80,0,1
249746,-100,4,1,1,60,0,1
250032,-100,4,1,1,80,0,1
250889,-100,4,1,1,60,0,1
251175,-100,4,1,1,80,0,1
251461,-100,4,1,1,60,0,1
251746,-100,4,1,1,80,0,1
252032,-100,4,1,1,60,0,1
252318,-100,4,1,1,80,0,1
252604,-100,4,1,1,60,0,1
252889,-100,4,1,1,80,0,1
253175,-100,4,1,1,60,0,1
253461,-100,4,1,1,80,0,1
253746,-100,4,1,1,60,0,1
254032,-100,4,1,1,80,0,1
254318,-100,4,1,1,60,0,1
254604,-100,4,1,1,80,0,1
255461,-100,4,1,1,60,0,1
255746,-100,4,1,1,80,0,1
256032,-100,4,1,1,60,0,1
256318,-100,4,1,1,80,0,1
256604,-100,4,1,1,60,0,1
256889,-100,4,1,1,80,0,1
257175,-100,4,1,1,60,0,1
257461,-100,4,1,1,80,0,1
257746,-100,4,1,1,60,0,1
258032,-100,4,1,1,80,0,1
258318,-100,4,1,1,60,0,1
258604,-100,4,1,1,80,0,1
258889,-100,4,1,1,60,0,1
259175,-100,4,1,1,80,0,1
260032,-100,4,1,1,60,0,1
260318,-100,4,1,1,80,0,1
260604,-100,4,1,1,60,0,1
260889,-100,4,1,1,80,0,1
261175,-100,4,1,1,60,0,1
261461,-100,4,1,1,80,0,1
262318,-100,4,1,1,60,0,1
262604,-100,4,1,1,70,0,1
263461,-100,4,1,1,60,0,1
263604,-100,4,1,1,60,0,0
263746,-100,4,1,1,80,0,1
264604,-100,4,1,1,60,0,1
264889,-100,4,1,1,80,0,1
265175,-100,4,1,1,60,0,1
265461,-100,4,1,1,80,0,1
265746,-100,4,1,1,60,0,1
266032,-100,4,1,1,80,0,1
266318,-100,4,1,1,60,0,1
266604,-100,4,1,1,80,0,1
266889,-100,4,1,1,60,0,1
267175,-100,4,1,1,80,0,1
267318,-100,4,1,1,60,0,1
267746,-100,4,1,1,80,0,1
268032,-100,4,1,1,60,0,1
268318,-100,4,1,1,80,0,1
269175,-100,4,1,1,60,0,1
269461,-100,4,1,1,80,0,1
269746,-100,4,1,1,60,0,1
270032,-100,4,1,1,80,0,1
270318,-100,4,1,1,60,0,1
270604,-100,4,1,1,80,0,1
270889,-100,4,1,1,60,0,1
271175,-100,4,1,1,80,0,1
271461,-100,4,1,1,60,0,1
271746,-100,4,1,1,80,0,1
272032,-100,4,1,1,60,0,1
272318,-100,4,1,1,80,0,1
272604,-100,4,1,1,60,0,1
272889,-100,4,1,1,80,0,1
273746,-100,4,1,1,60,0,1
274032,-100,4,1,1,80,0,1
274318,-100,4,1,1,60,0,1
274604,-100,4,1,1,80,0,1
274889,-100,4,1,1,60,0,1
275175,-100,4,1,1,80,0,1
275461,-100,4,1,1,60,0,1
275746,-100,4,1,1,80,0,1
276032,-100,4,1,1,60,0,1
276318,-100,4,1,1,80,0,1
276604,-100,4,1,1,60,0,1
276889,-100,4,1,1,80,0,1
277175,-100,4,1,1,60,0,1
277461,-100,4,1,1,80,0,1
278318,-100,4,1,1,60,0,1
278604,-100,4,1,1,80,0,1
278889,-100,4,1,1,60,0,1
279175,-100,4,1,1,80,0,1
279461,-100,4,1,1,60,0,1
279746,-133.333333333333,4,1,1,70,0,1
280318,-133.333333333333,4,1,1,60,0,1
281461,-100,4,1,1,70,0,1
281746,-100,4,2,1,40,0,1
282032,-200,4,1,1,15,0,0
282604,-200,4,2,1,10,0,0
282889,-100,4,2,1,40,0,0
284318,-200,4,2,1,40,0,0
285746,-200,4,1,1,25,0,0
286318,-200,4,2,1,25,0,0
286604,-200,4,1,1,15,0,0
287175,-200,4,2,1,10,0,0
287461,-100,4,2,1,40,0,0
289175,-100,4,2,1,15,0,0

[Colours]
Combo1 : 255,255,162
Combo2 : 125,219,11
Combo3 : 255,172,255

[HitObjects]
106,84,889,2,0,B|154:74|154:74|216:100|274:82,1,160,2|0
340,64,1746,1,2
412,96,2032,1,2
453,164,2318,1,0
446,243,2604,1,10
338,330,2889,5,0
258,325,3175,1,0
180,307,3461,2,0,B|151:299|128:276,1,59.9999982118607,2|8
258,325,4032,1,2
236,248,4318,2,0,B|215:206|232:164,1,80,0|0
280,108,4889,1,10
185,33,5175,5,0
185,33,5461,2,0,B|147:30|147:30|127:64|83:92|24:76,1,160,2|8
65,3,6318,1,2
113,66,6604,2,0,B|135:108|116:148,1,80,0|2
59,198,7175,2,0,B|41:246|72:297,1,80,8|2
80,311,7604,1,0
106,340,7746,5,0
180,368,8032,2,0,B|226:369|272:352,1,80,2|8
211,280,8604,2,0,B|268:274|294:248,1,80,2|0
227,189,9175,1,2
285,254,9461,1,10
369,282,9746,1,0
479,316,10032,6,0,B|502:260|502:260|464:206|479:136,1,160,2|8
495,80,10889,1,2
423,28,11175,2,0,B|378:8|330:23,1,80,0|2
260,45,11746,2,0,B|211:58|191:104,1,80,10|0
187,179,12318,5,0
207,264,12604,2,0,B|234:297|284:301,1,80,2|8
350,239,13175,1,2
350,239,13318,1,2
350,239,13461,2,0,B|307:237|273:214,1,80,0|2
262,127,14032,1,8
342,159,14318,1,2
273,215,14604,6,0,B|228:247|162:245|162:245|196:246|205:273,1,160,0|8
278,303,15461,1,0
318,319,15604,1,2
360,330,15746,2,0,B|406:338|443:325,1,80,2|0
399,247,16318,2,0,B|440:230|497:245,1,80,8|2
399,247,16889,6,0,B|316:260|232:240,3,160,0|0|0|4
70,306,37461,6,0,B|154:292,1,80,2|0
227,278,38032,1,10
299,311,38318,2,0,B|347:332|420:305|438:248,1,160,2|0
445,177,39175,1,10
409,105,39461,1,0
331,123,39746,6,0,B|280:140|204:122|177:74,1,160,2|8
254,46,40604,1,2
254,46,40746,1,0
254,46,40889,2,0,B|269:87|241:142,1,80,2|0
209,194,41461,1,8
142,238,41746,1,0
142,238,41889,1,8
142,238,42032,6,0,B|52:224,1,80,2|0
23,155,42604,1,10
54,81,42889,2,0,B|93:56|172:49|234:74,1,160,2|0
281,101,43746,1,10
360,93,44032,1,0
420,40,44318,6,0,B|468:57|461:152|390:200,1,160,2|8
354,230,45175,1,2
354,230,45318,1,0
354,230,45461,2,0,B|376:280,1,40,2|8
292,288,45889,2,0,B|276:333,1,40,0|10
200,342,46318,1,8
120,330,46604,6,0,B|65:323|30:249|64:196,1,160,6|8
105,139,47461,2,0,B|204:109,1,80,2|0
242,168,48032,1,2
318,144,48318,1,8
393,117,48604,1,0
447,174,48889,6,0,B|410:219|420:294|472:326,1,160,2|8
506,252,49746,1,0
425,250,50032,2,0,B|376:248|336:288,1,80,2|2
303,339,50604,2,0,B|273:368|227:372,1,80,8|0
151,367,51175,5,2
79,331,51461,1,0
148,291,51746,1,10
219,254,52032,2,0,B|264:228|337:227|384:252,1,160,2|0
447,215,52889,1,10
477,141,53175,1,0
425,79,53461,6,0,B|379:80|344:48,1,80,2|0
287,4,54032,1,8
224,53,54318,1,2
224,53,54461,1,0
224,53,54604,2,0,B|188:84,2,40,10|8|0
182,181,55175,1,8
182,181,55318,1,8
282,272,55604,1,8
282,272,55746,5,4
361,264,56032,1,2
436,237,56318,2,0,B|477:213|487:164,1,80,8|0
315,199,56889,1,0
259,141,57175,1,2
187,104,57461,2,0,B|144:92|106:107,1,80,8|0
240,219,58032,5,0
256,297,58318,1,2
313,353,58604,1,8
391,365,58889,1,2
467,341,59175,2,0,B|499:315|512:260|497:204,1,120,0|0
494,191,59746,1,8
455,118,60032,5,0
392,67,60318,2,0,B|355:44|302:52,1,80,2|0
236,65,60889,2,0,B|190:69|162:99,1,80,10|0
113,159,61461,2,0,B|48:190|48:190|80:130|62:83,1,160,0|10
145,87,62318,1,0
211,42,62604,6,0,B|269:29|269:29|312:52|376:50,1,160,2|8
338,125,63461,1,2
330,144,63604,1,0
322,162,63746,1,0
194,204,64032,1,8
202,223,64175,1,0
210,241,64318,2,0,B|241:316,1,80,8|0
340,346,64889,6,0,B|387:371|468:353|495:300,1,160,2|8
447,222,65746,1,0
447,222,65889,1,2
447,222,66032,2,0,B|417:192|440:132,1,80
461,71,66604,1,10
383,88,66889,1,0
304,103,67175,5,0
200,30,67461,2,0,B|238:16|278:28,1,80,2|8
183,105,68032,2,0,B|179:161|131:206|67:210,1,160,2|0
54,285,68889,1,10
110,341,69175,1,0
186,316,69461,6,0,B|240:299|308:306,1,120
344,309,70032,1,8
287,216,70318,2,0,B|332:232|384:193,1,80,2|0
397,184,70746,1,10
452,87,71032,1,0
417,66,71175,2,0,B|383:41|332:52,1,80,8|2
265,77,71746,6,0,B|220:103|155:58|100:84,1,160,0|8
29,60,72604,1,0
86,4,72889,1,2
93,7,73032,1,8
180,81,73318,1,0
187,84,73461,1,8
277,164,73746,1,0
284,167,73889,1,8
291,170,74032,6,0,B|369:209,1,80
434,240,74604,1,8
434,240,74889,1,0
434,240,75032,2,0,B|402:324,1,80
390,352,75461,1,8
349,352,75604,1,0
309,351,75746,2,0,B|249:351,1,40,8|8
228,351,76032,2,0,B|181:350,1,40
111,318,76318,6,0,B|61:288|52:214|52:214|19:243,1,160,6|8
7,316,77175,1,2
83,293,77461,1,2
137,234,77746,1,0
156,156,78032,1,10
88,40,78318,5,0
159,76,78604,1,0
235,98,78889,2,0,B|277:109|336:87,1,80,2|8
270,26,79461,1,2
313,94,79746,2,0,B|348:109|399:105,1,80,0|0
472,96,80318,1,10
509,166,80604,1,0
506,205,80746,1,2
498,244,80889,6,0,B|483:288|436:294|436:294|485:298|504:362,1,160,0|8
422,373,81746,1,2
357,324,82032,2,0,B|337:280|374:232,1,80,0|2
437,216,82604,2,0,B|417:171|354:164,1,80,8|2
336,165,83032,1,0
297,176,83175,5,0
252,77,83461,2,0,B|216:59|172:70,1,80,2|8
42,160,84032,2,0,B|78:178|122:167,1,80,2|0
196,143,84604,1,2
262,186,84889,1,10
281,263,85175,1,0
160,317,85461,6,0,B|119:305|87:246|103:202|103:202|126:232,1,160,2|8
191,241,86318,1,2
171,163,86604,1,2
105,117,86889,1,0
59,50,87175,2,0,B|98:30|146:44,1,80,10|0
279,83,87746,6,0,B|240:103|192:89,1,80,0|2
137,42,88318,1,8
213,17,88604,1,2
252,24,88746,1,2
281,51,88889,2,0,B|308:88|291:135,1,80,0|2
228,173,89461,2,0,B|201:136|218:89,1,80,8|2
293,126,90032,6,0,B|328:189|295:244|295:244|332:285,1,160,0|8
390,232,90889,1,0
390,232,91032,1,2
390,232,91175,2,0,B|445:293,1,80,2|0
252,315,91746,2,0,B|323:270,1,80,8|2
165,358,92318,6,0,B|109:373|34:345|18:296,1,160,2|8
82,219,93175,1,0
66,191,93318,1,0
50,162,93461,1,8
38,132,93604,1,8
25,102,93746,2,0,B|46:24,1,80,0|8
122,48,94318,1,0
160,59,94461,1,0
199,64,94604,6,0,B|243:72|276:49|276:49|312:76|364:67,1,160,6|8
455,130,95461,2,0,B|453:178|403:201,1,80,2|0
249,216,96032,2,0,B|251:168|301:145,1,80,2|8
444,168,96604,6,0,B|417:205|369:206,1,80,2|0
260,178,97175,2,0,B|287:141|335:140,1,80,2|8
376,205,97746,1,0
345,279,98032,1,2
271,310,98318,2,0,B|220:333,2,40,2|0|10
138,319,98889,1,0
103,298,99032,1,0
76,267,99175,6,0,B|45:235|63:184|63:184|30:109,1,160,2|8
57,41,100032,1,2
136,32,100318,2,0,B|176:116,1,80,0|2
206,175,100889,1,8
285,184,101175,1,2
285,184,101318,1,0
285,184,101461,6,0,B|309:204|337:133|383:163,1,80,0|2
427,189,102032,1,8
472,255,102318,2,0,B|464:300|395:314,1,80,2|0
341,282,102889,1,2
277,330,103175,1,8
198,346,103461,1,0
51,264,103746,6,0,B|116:270|158:207|158:207|147:232|176:251,1,160,2|8
161,238,104604,1,2
230,278,104889,1,0
308,293,105175,1,2
388,291,105461,1,10
460,257,105746,1,0
409,127,106032,6,0,B|373:164|320:164,1,80,0|2
260,147,106604,1,8
318,88,106889,1,2
318,88,107032,1,2
318,88,107175,2,0,B|346:123|339:171,1,80,0|2
294,223,107746,2,0,B|332:210|339:162,1,80,8|2
260,147,108318,6,0,B|228:113|176:164|130:140|130:140|166:160,1,160,0|8
209,207,109175,1,0
209,207,109318,1,2
209,207,109461,2,0,B|188:246|136:255,1,80,2|0
93,307,110032,2,0,B|103:261|172:246,1,80,8|2
173,328,110604,6,0,B|213:354|308:297|340:342,3,160,0|8|8|4
329,331,112889,5,4
167,52,131175,6,0,B|189:90|166:134,1,80,2|0
97,91,131746,1,10
97,91,132032,2,0,B|71:147|86:223|155:245,1,160,2|0
205,261,132889,1,10
284,266,133175,1,0
354,227,133461,6,0,B|385:193|470:182|526:213,1,160,2|8
409,280,134318,1,2
409,280,134461,1,0
409,280,134604,2,0,B|374:312|317:304,1,80,2|0
256,289,135175,1,8
190,242,135461,1,0
166,209,135604,1,8
152,171,135746,6,0,B|129:131|154:91,1,80,2|0
222,133,136318,1,10
222,133,136604,2,0,B|253:186|224:254|154:274,1,160,2|0
95,278,137461,1,10
27,235,137746,1,0
25,87,138032,6,0,B|51:46|120:25|181:36,1,160,2|8
247,49,138889,1,2
259,59,139032,1,0
272,67,139175,2,0,B|301:93|351:97,1,80,10|0
385,98,139604,1,8
344,96,139746,2,0,B|304:92|266:120,1,80,2|8
230,229,140318,6,0,B|275:255|336:152|386:199,1,160,6|8
446,232,141175,1,2
432,310,141461,2,0,B|403:345|337:343,1,80,0|2
281,342,142032,1,8
210,304,142318,1,0
102,354,142604,6,0,B|73:324|21:320,2,80,2|0|8
101,254,143461,1,0
75,169,143746,2,0,B|23:182|10:238,1,80,2|2
175,209,144318,2,0,B|210:251|174:313,1,80,8|0
147,129,144889,5,2
78,87,145175,1,0
147,129,145461,1,10
151,49,145746,2,0,B|178:13|256:7|307:32,1,160,2|0
373,62,146604,1,10
447,32,146889,1,0
373,62,147175,6,0,B|404:88|413:140|396:184,1,120,2|0
388,211,147746,1,8
297,264,148032,1,2
283,301,148175,1,0
269,338,148318,2,0,B|293:377,3,40,10|8|0|0
269,338,148889,2,0,B|212:341,3,40,8|8|0|0
157,303,149461,5,0
97,356,149746,1,2
157,303,150032,2,0,B|183:265|169:215,1,80,8|0
69,73,150604,1,0
142,42,150889,1,2
221,37,151175,2,0,B|271:37|303:69,1,80,8|0
447,239,151746,5,0
380,193,152032,1,2
447,239,152318,1,8
439,318,152604,1,2
368,354,152889,2,0,B|322:372|243:367|215:330,1,160,0|8
144,366,153746,1,0
133,219,154032,6,0,B|123:174|84:160,1,80,2|0
63,346,154604,2,0,B|108:336|123:293,1,80,10|0
347,248,155175,2,0,B|313:281|238:291|196:268,1,160,0|10
133,219,156032,1,0
43,117,156318,6,0,B|77:84|152:74|194:97,1,160,2|8
311,72,157175,1,2
347,87,157318,1,0
383,102,157461,2,0,B|428:123|488:95,2,80,0|8|8
383,102,158318,1,0
486,232,158604,6,0,B|440:256|365:249|318:205,1,160,2|8
311,140,159461,1,0
311,140,159604,1,2
311,140,159746,2,0,B|280:110|235:103,1,80
159,110,160318,1,10
81,149,160604,1,0
50,239,160889,5,0
204,242,161175,2,0,B|253:234|268:182,1,80,2|8
127,217,161746,2,0,B|108:274|155:333|228:322,1,160,2|0
291,320,162604,1,10
364,288,162889,1,0
467,216,163175,6,0,B|424:207|383:166|379:113,1,120
383,97,163746,1,8
319,48,164032,1,2
245,80,164318,1,0
208,95,164461,2,0,B|173:118|113:113,1,80,8|0
91,108,164889,1,8
67,31,165175,1,2
144,49,165461,6,0,B|190:82|180:172|121:208,1,160,0|8
83,247,166318,1,0
135,307,166604,1,2
151,324,166746,1,8
314,340,167032,1,0
322,348,167174,1,8
490,366,167461,1,0
490,366,167604,1,8
490,366,167746,6,0,B|423:294,1,80
379,249,168318,1,8
379,249,168604,1,0
379,249,168746,2,0,B|413:152,1,80
419,135,169175,1,8
430,96,169318,1,0
442,58,169461,2,0,B|497:58,1,40,8|0
430,16,169746,2,0,B|380:16,1,40,8|0
304,60,170032,6,0,B|292:115|224:138|224:138|252:180,1,160,6|8
327,165,170889,1,2
293,237,171175,1,2
225,280,171461,1,0
150,308,171746,1,10
298,318,172032,5,0
225,280,172318,1,0
186,209,172604,2,0,B|168:164|188:128,1,80,2|8
255,170,173175,1,2
116,246,173461,2,0,B|138:286|113:338,1,80,0|2
119,323,173889,1,0
119,323,174032,1,10
69,181,174318,1,0
58,142,174461,1,0
69,103,174604,6,0,B|131:94|177:36|177:36|220:62,1,160,2|8
273,90,175461,1,2
349,112,175746,2,0,B|388:126|427:111,1,80,0|2
493,65,176318,1,8
418,36,176604,1,2
378,43,176746,1,0
338,37,176889,5,0
220,74,177175,2,0,B|178:98|117:85,1,80,2|8
291,107,177746,2,0,B|324:130|375:119,1,80,2|0
228,154,178318,1,2
218,233,178604,1,10
170,296,178889,1,0
296,202,179175,6,0,B|333:225|378:217|378:217|404:180|463:188,1,160,2|8
440,266,180032,1,2
503,314,180318,2,0,B|472:351|423:343,1,80,2|0
365,299,180889,2,0,B|325:280|275:290,1,80,10|0
150,330,181461,6,0,B|186:350|259:341,1,80,0|2
286,288,182032,1,8
261,212,182318,1,2
261,212,182461,1,2
261,212,182604,2,0,B|215:223|168:196,1,80,0|2
294,75,183175,2,0,B|324:113|310:172,1,80,8|2
206,69,183746,6,0,B|200:118|233:138|233:138|200:117|153:132,1,160,0|8
102,193,184604,1,0
107,232,184746,1,0
103,271,184889,2,0,B|96:314|56:331,1,80,2|0
241,204,185461,2,0,B|199:195|164:222,1,80,8|2
444,278,186032,6,0,B|399:300|324:292|292:258,1,160,0|8
320,183,186889,1,0
320,183,187032,1,0
320,183,187175,2,0,B|278:133,4,40,10|8|10|0|2
452,101,188032,1,0
428,68,188175,1,0
393,48,188318,6,0,B|354:30|315:48|315:48|275:29|228:49,1,160,2|8
128,124,189175,2,0,B|103:161|48:159,1,80,2|0
153,314,189746,2,0,B|178:277|233:279,1,80,2|8
97,151,190318,6,0,B|142:152|166:189,1,80,2|0
184,287,190889,2,0,B|139:286|115:249,1,80,2|8
164,187,191461,1,0
242,169,191746,2,0,B|286:184,1,40,2|0
279,181,192032,2,0,B|329:163,1,40,2|0
317,167,192318,1,10
424,131,192604,1,0
439,167,192746,1,0
424,204,192889,6,0,B|397:261|425:323|425:323|404:356,1,160,2|8
335,314,193746,2,0,B|316:352|263:361,1,80,2|0
205,314,194318,1,2
151,254,194604,2,0,B|118:217|72:217,1,80,0|2
42,223,195032,1,0
9,246,195175,5,0
129,327,195461,2,0,B|174:337|215:308,1,80,2|8
219,165,196032,2,0,B|177:148|135:183,1,80
105,247,196604,1,2
57,182,196889,1,10
77,104,197175,1,0
196,31,197461,6,0,B|209:105|209:105|192:153|234:191,1,160,2|8
294,224,198318,1,2
322,298,198604,2,0,B|369:285|376:229,1,80,2|0
349,166,199175,2,0,B|315:136|271:149,1,80,10|0
219,252,199746,6,0,B|306:220,1,80,0|2
369,197,200318,1,8
444,171,200604,1,2
444,171,200746,1,2
444,171,200889,2,0,B|462:210|511:216,1,80,0|2
507,50,201461,2,0,B|459:57|446:100,1,80,8|2
228,153,202032,6,0,B|256:120|336:106|389:135,1,160,0|8
290,199,202889,2,0,B|282:264,2,40,0|2|2
298,122,203461,1,0
235,68,203746,1,8
298,123,204032,1,2
228,153,204318,6,0,B|146:181|64:148,3,160,0|8|8|4
227,153,206604,5,0
291,200,206889,2,0,B|322:218|372:202,2,59.9999982118607,2|0|2
331,137,207746,2,0,B|376:131|427:142|446:179,1,119.999996423721,8|0
461,248,208604,1,0
475,324,208889,6,0,B|436:332|405:301,1,59.9999982118607,2|0
407,189,209461,2,0,B|378:212|382:253,1,59.9999982118607,2|0
227,323,210032,2,0,B|266:337|325:327|357:290,2,119.999996423721,10|8|0
131,215,211461,5,2
68,264,211746,1,0
131,215,212032,2,0,B|164:193|211:200,1,59.9999982118607,2|10
256,243,212604,2,0,B|291:263|355:254|387:221,1,119.999996423721,0|2
385,223,213318,1,0
395,208,213461,6,0,B|412:176|404:132,1,59.9999982118607,2|0
323,30,214032,2,0,B|306:62|314:106,1,59.9999982118607,2|0
243,281,214604,2,0,B|260:249|252:205,1,59.9999982118607,10|0
171,103,215175,2,0,B|154:135|162:179,2,59.9999982118607,10|0|0
336,62,216032,5,2
399,112,216318,1,0
336,62,216604,1,2
336,62,216889,2,0,B|279:31|198:43,1,119.999996423721,10|0
143,75,217746,1,0
143,75,217889,1,2
143,75,218032,6,0,B|170:131|117:200|45:203,1,179.999994635582,2|0
136,153,219175,2,0,B|177:162|193:204,1,59.9999982118607,10|0
309,133,219746,2,0,B|342:111|392:116,1,59.9999982118607,2|0
408,258,220318,6,0,B|300:292,1,80,4|0
180,282,220889,2,0,B|104:258,2,80
256,184,221746,1,0
256,168,222032,1,0
256,152,222318,1,0
256,136,222604,6,0,B|256:168|200:168|200:64|320:64|320:168|224:168|256:264,1,240,6|2
254,257,223746,2,0,B|254:340,1,80,0|0
254,337,224889,1,4
490,164,243175,6,0,B|453:201,1,40,8|8
320,238,243604,2,0,B|283:275,1,40,8|8
311,87,244032,2,0,B|274:124,1,40,8|8
102,192,244461,2,0,B|65:229,2,40,8|8|0
116,178,244889,1,8
130,163,245032,1,8
144,149,245175,1,8
158,135,245318,1,8
173,122,245461,6,0,B|207:92|256:115|256:115|296:94|351:121,1,160,6|8
393,154,246318,1,2
471,169,246604,2,0,B|463:220|408:233,1,80,2|0
343,237,247175,1,10
471,169,247461,5,0
435,257,247746,1,0
344,238,248032,2,0,B|326:209|340:167,1,59.9999982118607,2|8
388,119,248604,1,2
344,239,248889,2,0,B|356:285|332:330,1,80,0|2
285,378,249461,1,10
223,327,249746,1,0
210,313,249889,1,0
197,302,250032,6,0,B|168:277|168:277|126:292|62:272|48:228,1,160,2|8
26,172,250889,1,2
105,159,251175,2,0,B|149:158|179:108,1,80,0|2
198,44,251746,1,8
264,80,252032,1,2
306,92,252175,1,2
346,90,252318,5,0
327,12,252604,2,0,B|375:2|412:35,1,80,2|8
390,160,253175,2,0,B|348:179|296:164,1,80,2|0
448,101,253746,1,2
471,177,254032,1,10
418,237,254318,1,0
347,89,254604,6,0,B|281:72|281:72|248:108|193:102,1,160,2|8
213,23,255461,1,2
138,52,255746,1,2
120,130,256032,1,0
134,208,256318,2,0,B|144:251|191:264,1,80,10|0
318,302,256889,6,0,B|308:259|261:246,1,80,0|2
186,262,257461,1,8
280,202,257746,1,2
280,202,257889,1,2
280,202,258032,2,0,B|332:212|348:272,1,80,0|2
370,180,258604,2,0,B|331:209|342:257,1,80,8|2
297,317,259175,6,0,B|318:352|363:356|363:356|408:330|407:282,1,160,0|8
468,241,260032,1,0
475,201,260175,1,0
469,161,260318,2,0,B|457:118|472:81,1,80,2|0
368,36,260889,2,0,B|384:79|365:124,1,80,8|2
296,220,261461,6,0,B|251:196|242:120|268:60,1,160,0|8
140,187,262318,1,0
140,187,262461,1,0
140,187,262604,2,0,B|84:215,4,40,2|0|10|0|10
81,329,263461,1,0
118,314,263604,1,0
154,298,263746,6,0,B|189:276|231:284|231:284|251:324|310:325,1,160,2|8
344,179,264604,2,0,B|341:226|304:244,1,80,2|0
383,114,265175,6,0,B|386:67|423:49,1,80,2|8
345,180,265746,22,0,B|384:153|383:106,1,80,2|0
382,113,266318,6,0,B|346:137|345:184,1,80,2|8
345,180,266889,21,0
366,257,267175,22,0,B|380:298,4,40,2|0|10|0|10
345,180,268032,21,0
333,142,268175,1,0
323,103,268318,2,0,B|300:62|318:24|318:24|316:65|278:96,1,160,2|8
209,121,269175,1,2
134,90,269461,2,0,B|116:140|157:180,2,80,0|2|8
209,121,270318,5,2
209,121,270461,1,0
209,121,270604,1,0
209,121,270889,2,0,B|312:104,1,80,2|8
190,231,271461,6,0,B|261:285,1,80,2|0
331,258,272032,1,2
309,335,272318,1,10
231,356,272604,1,0
388,314,272889,6,0,B|418:280|417:231|386:202|386:202|416:170,1,160,2|8
478,217,273746,1,2
482,137,274032,2,0,B|476:90|430:73,1,80,2|0
359,55,274604,2,0,B|313:39|270:72,1,80,10|0
291,194,275175,5,0
326,124,275461,1,2
248,132,275746,1,8
291,194,276032,1,2
291,194,276175,1,0
291,194,276318,2,0,B|248:216|200:195,1,80
291,194,276889,2,0,B|342:212|390:172,1,80,8|2
377,297,277461,6,0,B|336:311|294:300|294:300|257:319|197:307,1,160,0|8
168,248,278318,1,0
141,217,278461,1,0
114,186,278604,2,0,B|72:168|36:187,1,80,2|0
75,256,279175,1,8
152,111,279461,1,2
191,35,279746,6,0,B|248:12|314:38,3,119.999996423721,2|8|8|0
308,35,281746,1,0
308,35,282032,6,0,B|350:52|397:42,1,80,4|0
464,26,282889,5,0
464,26,283032,1,0
464,26,283175,2,0,B|472:72|439:104,1,80,2|2
415,175,283746,2,0,B|374:157|367:108,1,80,0|2
442,100,284318,2,0,B|490:119|512:180|499:261|428:295,1,240,6|0
353,317,286318,5,0
282,291,286604,6,0,B|243:273|196:283,1,80,4|0
233,359,287461,5,0
154,344,287746,1,2
127,268,288032,1,2
176,204,288318,1,0
255,216,288604,1,2
208,280,288889,1,4
256,192,289175,12,2,293461
