osu file format v11

[General]
AudioFilename: 02. Megiddo & ILLusionist - Over My Shoulder.mp3
AudioLeadIn: 0
PreviewTime: 75149
Countdown: 0
SampleSet: Soft
StackLeniency: 0.7
Mode: 0
LetterboxInBreaks: 1

[Editor]
Bookmarks: 61686,75903
DistanceSpacing: 1
BeatDivisor: 6
GridSize: 4

[Metadata]
Title:Over My Shoulder
TitleUnicode:Over My Shoulder
Artist:Megiddo & ILLusionist
ArtistUnicode:Megiddo & ILLusionist
Creator:Tony
Version:Hard
Source:
Tags:kazumikos -kevincela-
BeatmapID:181334
BeatmapSetID:60678

[Difficulty]
HPDrainRate:7
CircleSize:5
OverallDifficulty:7
ApproachRate:7
SliderMultiplier:3.10000000596047
SliderTickRate:2

[Events]
//Background and Video events
0,0,"over my shoulder.png"
//Break Periods
2,69617,74300
//Storyboard Layer 0 (Background)
//Storyboard Layer 1 (Fail)
//Storyboard Layer 2 (Pass)
//Storyboard Layer 3 (Foreground)
//Storyboard Sound Samples
//Background Colour Transformations
3,100,163,162,255

[TimingPoints]
20,722.89156626506,4,2,0,80,1,0
11586,-100,4,2,1,80,0,0
75200,-125,4,2,1,80,0,0
79538,-100,4,2,1,80,0,0
80983,-100,4,2,0,80,0,1
92550,-100,4,2,1,80,0,0
104839,-100,4,2,1,60,0,0
107007,-100,4,2,1,40,0,0
108092,-100,4,2,1,20,0,0

[Colours]
Combo1 : 250,97,97
Combo2 : 134,191,130
Combo3 : 191,190,216
Combo4 : 185,176,115

[HitObjects]
140,336,8694,1,2,0:0:0
256,296,9056,1,0,0:0:0
316,56,9779,5,2,0:0:0
356,172,10140,1,2,0:0:0
476,140,10501,1,0,0:0:0
236,204,10863,5,2,0:0:0
200,84,11224,1,0,0:0:0
288,316,11586,6,0,B|236:384|148:352,1,155,4|0,0:0|0:0,0:0:0
48,280,12309,1,8,0:0:0
52,156,12670,2,0,B|72:97|124:40|203:54|260:94,1,258.333333333333,2|0,0:0|0:0,0:0:0
272,108,13393,1,2,0:0:0
328,220,13754,1,8,0:0:0
428,144,14116,1,0,0:0:0
444,224,14357,1,2,0:0:0
440,240,14477,6,0,B|413:324|327:329,1,155
208,296,15200,1,8,0:0:0
92,340,15562,2,0,B|61:267|80:176|180:144|250:187,1,258.333333333333,2|2,0:0|0:0,0:0:0
228,180,16285,6,0,B|292:184|312:132,1,103.333333333333
312,116,16646,1,8,0:0:0
384,76,16887,1,0,0:0:0
392,92,17007,2,0,B|416:140|380:188,1,103.333333333333,0|0,0:0|0:0,0:0:0
368,200,17369,1,4,0:0:0
172,352,18092,5,8,0:0:0
272,280,18453,1,2,0:0:0
156,232,18815,1,0,0:0:0
124,156,19056,1,2,0:0:0
124,136,19176,2,0,B|141:46|238:47,2,155,0|8|0,0:0|0:0|0:0,0:0:0
208,132,20140,5,2,0:0:0
212,148,20260,2,0,B|194:237|116:240,1,103.333333333333,0|0,0:0|0:0,0:0:0
148,244,20622,2,0,B|66:285|86:361,1,103.333333333333,2|0,0:0|0:0,0:0:0
84,336,20983,1,8,0:0:0
252,324,21345,6,0,B|320:296|313:206,1,103.333333333333,2|0,0:0|0:0,0:0:0
308,232,21706,1,6,0:0:0
368,124,22068,2,0,B|436:152|429:241,1,103.333333333333,0|0,0:0|0:0,0:0:0
424,216,22429,1,4,0:0:0
380,332,22791,1,0,0:0:0
308,232,23152,1,4,0:0:0
104,16,23875,5,8,0:0:0
224,52,24236,2,0,B|230:118|193:189|93:176|49:125,1,258.333333333333
40,112,24959,1,0,0:0:0
12,232,25321,1,8,0:0:0
128,272,25682,1,2,0:0:0
208,292,25923,5,2,0:0:0
224,296,26044,2,0,B|288:308|308:244,1,103.333333333333
308,232,26405,2,0,B|332:171|397:189,1,103.333333333333,2|0,0:0|0:0,0:0:0
404,192,26766,1,8,0:0:0
320,40,27128,6,0,B|296:101|238:84,1,103.333333333333,2|0,0:0|0:0,0:0:0
224,80,27489,1,2,0:0:0
48,100,27851,2,0,B|72:39|129:55,1,103.333333333333,2|0,0:0|0:0,0:0:0
144,60,28212,1,8,0:0:0
156,152,28453,1,0,0:0:0
152,168,28574,1,0,0:0:0
224,224,28815,1,2,0:0:0
228,208,28935,1,4,0:0:0
464,356,29658,6,0,B|516:288|472:208,2,155,8|2|0,0:0|0:0|0:0,0:0:0
412,280,30622,1,2,0:0:0
400,292,30742,2,0,B|308:308|268:232,2,155,0|8|0,0:0|0:0|0:0,0:0:0
372,196,31706,5,2,0:0:0
380,184,31827,2,0,B|412:140|392:72,1,103.333333333333
388,72,32188,1,2,0:0:0
308,116,32429,1,0,0:0:0
304,132,32550,1,2,0:0:0
184,204,32911,1,0,0:0:0
96,236,33152,1,0,0:0:0
100,220,33273,5,6,0:0:0
144,40,33634,1,2,0:0:0
304,132,33995,1,6,0:0:0
260,316,34357,1,2,0:0:0
100,220,34718,1,4,0:0:0
448,52,35441,6,0,B|500:120|456:196,2,155,8|2|0,0:0|0:0|0:0,0:0:0
400,132,36405,1,2,0:0:0
392,148,36526,2,0,B|344:204|380:296,2,155,0|8|2,0:0|0:0|0:0,0:0:0
260,260,37489,1,2,0:0:0
268,244,37610,2,0,B|316:188|280:96,2,155,0|0|8,0:0|0:0|0:0,0:0:0
124,300,38694,1,2,0:0:0
36,32,39056,6,0,B|48:84|108:96,1,103.333333333333,2|0,0:0|0:0,0:0:0
59,176,39417,2,0,B|111:164|123:103,1,103.333333333333,2|0,0:0|0:0,0:0:0
204,168,39779,2,0,B|191:107|139:95,1,103.333333333333,8|0,0:0|0:0,0:0:0
188,15,40140,2,0,B|136:27|123:87,1,103.333333333333,0|0,0:0|0:0,0:0:0
124,104,40501,1,4,0:0:0
436,332,41224,5,8,0:0:0
400,180,41586,1,2,0:0:0
296,296,41947,1,0,0:0:0
296,192,42188,1,2,0:0:0
288,180,42309,2,0,B|252:140|252:140|212:96|160:124,2,155,0|8|2,0:0|0:0|0:0,0:0:0
192,220,43273,5,0,0:0:0
184,232,43393,2,0,B|152:280|96:272,1,103.333333333333,2|0,0:0|0:0,0:0:0
80,268,43754,2,0,B|32:236|40:180,1,103.333333333333,2|0,0:0|0:0,0:0:0
44,164,44116,1,8,0:0:0
168,72,44477,5,2,0:0:0
368,164,44839,1,4,0:0:0
276,356,45200,5,2,0:0:0
80,268,45441,1,8,0:0:0
80,268,45562,1,4,0:0:0
168,72,45923,5,2,0:0:0
368,164,46285,1,4,0:0:0
80,268,47007,6,0,B|12:220|32:128,2,155,8|2|0,0:0|0:0|0:0,0:0:0
116,172,47971,1,0,0:0:0
132,180,48092,2,0,B|200:228|180:320,2,155,2|8|0,0:0|0:0|0:0,0:0:0
292,256,49056,1,2,0:0:0
276,248,49176,2,0,B|208:200|228:108,2,155,0|0|8,0:0|0:0|0:0,0:0:0
340,108,50260,1,2,0:0:0
432,272,50622,6,0,B|492:260|500:204,1,103.333333333333,2|0,0:0|0:0,0:0:0
432,272,50983,2,0,B|420:212|364:204,1,103.333333333333,2|0,0:0|0:0,0:0:0
432,272,51345,2,0,B|372:284|364:340,1,103.333333333333,8|0,0:0|0:0,0:0:0
432,272,51706,2,0,B|444:332|500:340,1,103.333333333333,0|0,0:0|0:0,0:0:0
512,332,52068,1,4,0:0:0
116,108,52791,5,8,0:0:0
256,44,53152,1,2,0:0:0
396,108,53513,2,0,B|395:168|351:196,1,103.333333333333,0|2,0:0|0:0,0:0:0
336,200,53875,1,0,0:0:0
176,200,54236,1,8,0:0:0
256,332,54598,1,2,0:0:0
256,228,54839,1,2,0:0:0
256,212,54959,6,0,B|256:96,1,103.333333333333
256,92,55321,1,2,0:0:0
348,48,55562,1,0,0:0:0
348,64,55682,1,8,0:0:0
480,96,56044,1,2,0:0:0
384,192,56405,5,4,0:0:0
256,324,56646,1,0,0:0:0
256,324,56766,1,2,0:0:0
128,192,57128,5,4,0:0:0
256,60,57369,1,0,0:0:0
256,60,57489,1,0,0:0:0
384,192,57730,1,2,0:0:0
384,192,57851,1,4,0:0:0
68,344,58574,5,8,0:0:0
16,196,58935,2,0,B|-4:104|100:28|184:84,1,258.333333333333,2|2,0:0|0:0,0:0:0
196,96,59658,2,0,B|256:152|340:124,2,155,0|8|2,0:0|0:0|0:0,0:0:0
192,200,60622,1,0,0:0:0
196,216,60742,2,0,B|213:296|145:353,2,155,2|0|8,0:0|0:0|0:0,0:0:0
320,200,61706,1,0,0:0:0
316,216,61827,2,0,B|298:296|366:353,1,155,2|0,0:0|0:0,0:0:0
256,296,62429,5,0,0:0:0
256,312,62550,1,2,0:0:0
156,192,62791,1,0,0:0:0
140,192,62911,1,8,0:0:0
256,88,63152,1,0,0:0:0
256,72,63273,1,0,0:0:0
356,192,63513,1,0,0:0:0
372,192,63634,1,4,0:0:0
68,344,64357,6,0,B|12:284|52:172,2,155,8|2|0,0:0|0:0|0:0,0:0:0
124,256,65321,1,0,0:0:0
136,244,65441,2,0,B|192:184|152:72,2,155,2|8|0,0:0|0:0|0:0,0:0:0
280,116,66405,1,2,0:0:0
268,128,66526,2,0,B|212:188|252:300,2,155,0|0|2,0:0|0:0|0:0,0:0:0
408,192,67610,1,0,0:0:0
256,356,67971,5,4,0:0:0
104,192,68333,1,2,0:0:0
256,28,68694,1,4,0:0:0
408,192,69056,1,2,0:0:0
256,356,69417,1,4,0:0:0
256,328,75200,5,2,0:0:0
372,288,75562,1,0,0:0:0
404,168,75923,2,0,B|440:100|384:28,2,124,8|2|0,0:0|0:0|0:0,0:0:0
336,112,76887,1,0,0:0:0
320,116,77007,2,0,B|196:140,1,124,2|8,0:0|0:0,0:0:0
284,228,77730,5,0,0:0:0
204,244,77971,1,2,0:0:0
188,248,78092,2,0,B|64:272,2,124,0|0|2,0:0|0:0|0:0,0:0:0
256,352,79176,1,0,0:0:0
436,192,79538,5,4,0:0:0
256,32,79899,1,2,0:0:0
76,192,80260,1,4,0:0:0
256,352,80501,5,2,0:0:0
256,336,80622,2,0,B|256:232,1,103.333333333333,0|8,0:0|0:0,0:0:0
256,216,80983,1,4,0:0:0
368,108,81345,6,0,B|370:152|410:170,1,77.5,2|0,0:0|0:0,0:0:0
484,180,81706,2,0,B|481:224|441:242,1,77.5,8|0,0:0|0:0,0:0:0
364,252,82068,1,0,0:0:0
412,312,82248,2,0,B|391:348|342:359|300:330|295:289,2,155,2|0|0,0:0|0:0|0:0,0:0:0
364,252,83152,1,8,0:0:0
324,104,83513,2,0,P|260:72|188:104,1,155.000000298024,2|4,0:0|0:0,0:0:0
188,280,84236,5,2,0:0:0
256,320,84417,1,0,0:0:0
324,280,84598,2,0,B|337:240|383:220|429:240|442:280,1,155,8|0,0:0|0:0,0:0:0
384,328,85140,1,0,0:0:0
276,212,85321,2,0,B|320:168|384:148|448:168|484:212,1,232.5,2|0,0:0|0:0,0:0:0
443,279,86044,1,8,0:0:0
308,356,86405,2,0,P|256:308|204:356,1,155.000000298024,2|4,0:0|0:0,0:0:0
200,88,87128,5,2,0:0:0
216,164,87309,1,0,0:0:0
296,164,87489,1,8,0:0:0
312,88,87670,1,0,0:0:0
256,36,87851,1,0,0:0:0
200,88,88032,2,0,B|119:77|119:77|77:17,2,155,2|0|0,0:0|0:0|0:0,0:0:0
216,164,88935,5,8,0:0:0
256,316,89297,1,0,0:0:0
296,164,89658,1,2,0:0:0
328,316,90019,1,0,0:0:0
352,240,90200,1,0,0:0:0
376,164,90381,1,2,0:0:0
400,316,90742,1,0,0:0:0
336,104,91104,5,2,0:0:0
256,352,91465,1,2,0:0:0
196,304,91646,1,0,0:0:0
136,256,91827,1,2,0:0:0
212,16,92188,1,2,0:0:0
274,60,92369,1,0,0:0:0
336,104,92550,1,4,0:0:0
44,168,93273,5,8,0:0:0
48,292,93634,2,0,B|68:351|120:408|199:394|256:354,1,258.333333333333,2|0,0:0|0:0,0:0:0
268,340,94357,1,2,0:0:0
324,228,94718,1,8,0:0:0
424,304,95080,1,0,0:0:0
424,200,95321,1,2,0:0:0
420,184,95441,6,0,B|393:100|307:95,1,155
164,156,96164,1,8,0:0:0
188,308,96526,2,0,B|115:339|24:320|-8:220|35:150,1,258.333333333333,2|2,0:0|0:0,0:0:0
23,171,97248,6,0,B|39:111|91:91,1,103.333333532016
101,91,97610,1,8,0:0:0
229,62,97851,1,0,0:0:0
227,79,97971,2,0,B|211:139|164:156,1,103.333333532016
149,161,98333,1,4,0:0:0
496,36,99056,5,8,0:0:0
424,136,99417,1,2,0:0:0
272,352,100020,1,2,0:0:0
256,356,100140,2,0,B|166:339|167:242,2,155,0|8|0,0:0|0:0|0:0,0:0:0
276,256,101104,5,2,0:0:0
276,240,101224,2,0,B|258:151|180:148,1,103.333333333333,0|0,0:0|0:0,0:0:0
212,144,101586,2,0,B|130:103|150:27,1,103.333333333333,2|0,0:0|0:0,0:0:0
148,52,101947,1,8,0:0:0
304,52,102309,6,0,B|332:120|422:113,1,103.333333333333,2|0,0:0|0:0,0:0:0
396,108,102670,1,2,0:0:0
504,168,103032,2,0,B|476:236|387:229,1,103.333333333333,2|0,0:0|0:0,0:0:0
412,224,103393,1,8,0:0:0
296,180,103754,1,0,0:0:0
396,108,104116,1,4,0:0:0
64,52,104839,6,0,B|12:120|56:196,2,155,8|2|0,0:0|0:0|0:0,0:0:0
108,136,105803,1,2,0:0:0
120,148,105923,2,0,B|168:204|132:296,2,155,0|8|2,0:0|0:0|0:0,0:0:0
256,256,106887,1,2,0:0:0
244,244,107007,2,0,B|196:188|232:96,2,155,0|0|8,0:0|0:0|0:0,0:0:0
364,340,108092,1,2,0:0:0
416,196,108453,5,0,0:0:0
296,96,108815,1,0,0:0:0
244,244,109176,2,0,P|200:272|152:256,1,103.333333333333,8|0,0:0|0:0,0:0:0
52,260,109538,2,0,P|96:232|141:246,1,103.333333333333,2|0,0:0|0:0,0:0:0
154,258,109899,1,4,0:0:0
