osu file format v14

[General]
AudioFilename: hardy.mp3
AudioLeadIn: 0
PreviewTime: -1
Countdown: 1
SampleSet: None
StackLeniency: 0.7
Mode: 0
LetterboxInBreaks: 1
WidescreenStoryboard: 0

[Editor]
DistanceSpacing: 0.8
BeatDivisor: 6
GridSize: 32
TimelineZoom: 1

[Metadata]
Title:Robot Language
TitleUnicode:Robot Language
Artist:Meganeko
ArtistUnicode:Meganeko
Creator:Ranipla
Version:Cyborg
Source:
Tags:
BeatmapID:1172556
BeatmapSetID:553768

[Difficulty]
HPDrainRate:5
CircleSize:5
OverallDifficulty:5
ApproachRate:5
SliderMultiplier:1.4
SliderTickRate:1

[Events]
//Background and Video events
0,0,"viud.png",0,0
//Break Periods
2,54938,67961
2,127811,140910
//Storyboard Layer 0 (Background)
//Storyboard Layer 1 (Fail)
//Storyboard Layer 2 (Pass)
//Storyboard Layer 3 (Foreground)
//Storyboard Sound Samples

[TimingPoints]
5063.35067280906,457.840518885921,4,1,0,100,1,0

[HitObjects]
160,96,25666,5,0,0:0:0:0:
128,224,25971,2,0,L|256:224,1,116.666666666667
416,160,26810,1,0,0:0:0:0:
256,288,27039,2,0,L|320:288,1,46.6666666666667
128,96,27421,1,0,0:0:0:0:
224,160,27497,2,0,P|256:224|288:192,3,140
256,192,29099,1,0,0:0:0:0:
96,320,29328,2,0,L|128:256,1,70
416,64,29786,2,0,L|384:128,1,70
416,320,30244,2,0,L|384:256,1,70
96,64,30702,2,0,L|128:128,1,70
32,160,31160,2,0,B|64:192|64:192|96:160|96:160|128:192|128:192|160:160|160:160|192:192|192:192|224:160|224:160|256:192|256:192|288:160|288:160|320:192|320:192|352:160,1,443.333333333333
384,160,32762,1,0,0:0:0:0:
384,192,32839,1,0,0:0:0:0:
384,224,32915,1,0,0:0:0:0:
96,64,33296,2,0,P|96:128|128:160,1,93.3333333333333
448,96,34059,1,0,0:0:0:0:
160,160,34441,2,0,L|192:192,1,23.3333333333333
256,352,34746,1,0,0:0:0:0:
256,288,34822,2,0,P|288:224|256:224,3,140
256,160,36425,2,0,L|288:224,1,70
320,160,37112,1,0,0:0:0:0:
192,160,37570,2,0,L|224:224,3,70
32,160,38485,2,0,B|64:192|64:192|96:160|96:160|128:192|128:192|160:160|160:160|192:192|192:192|224:160|224:160|256:192|256:192|288:160|288:160|320:192|320:192|352:160|352:160|384:192,1,490
192,192,40545,2,0,L|224:128,1,70
288,128,41003,2,0,L|256:192,1,70
320,192,41461,2,0,L|352:128,1,70
96,192,41919,1,0,0:0:0:0:
256,288,42148,2,0,P|288:224|256:224,3,140
256,192,43674,1,0,0:0:0:0:
96,320,43903,2,0,L|128:256,1,70
416,64,44361,2,0,L|384:128,1,70
416,320,44819,2,0,L|384:256,3,70
96,64,45734,2,0,B|160:64|160:64|160:96|160:96|192:96|192:96|192:128|192:128|224:128|224:128|224:160|224:160|256:160|256:160|256:192|256:192|288:192|288:192|288:224|288:224|320:224,1,373.333333333333
384,224,47108,2,0,L|384:160,3,46.6666666666667
288,160,47718,2,0,L|384:160,1,93.3333333333333
384,64,48176,2,0,L|384:160,1,93.3333333333333
480,160,48634,2,0,L|384:160,1,93.3333333333333
384,160,49092,1,0,0:0:0:0:
320,160,49321,2,0,P|416:128|448:160,3,140
384,192,50923,2,0,L|416:256,1,70
352,256,51381,1,0,0:0:0:0:
320,224,51610,1,0,0:0:0:0:
288,192,51839,1,0,0:0:0:0:
288,160,52068,1,0,0:0:0:0:
320,128,52297,1,0,0:0:0:0:
352,96,52526,1,0,0:0:0:0:
384,128,52755,1,0,0:0:0:0:
320,256,52983,2,0,B|352:96|480:-64|608:96|192:128,1,536.666666666667
64,64,69161,6,0,P|160:192|288:128,1,280
320,192,70458,1,0,0:0:0:0:
416,192,70992,2,0,P|384:288|192:288,1,303.333333333333
192,192,72289,1,0,0:0:0:0:
256,192,72518,1,0,0:0:0:0:
320,224,72747,2,0,P|256:64|192:224,1,420
256,224,74349,1,0,0:0:0:0:
192,192,74578,2,0,P|256:320|320:192,1,350
256,192,75952,1,0,0:0:0:0:
256,128,76181,1,0,0:0:0:0:
32,192,76410,2,0,L|448:256,1,420
384,128,78012,1,0,0:0:0:0:
320,128,78241,1,0,0:0:0:0:
96,192,78699,1,0,0:0:0:0:
128,128,78928,1,0,0:0:0:0:
192,128,79157,1,0,0:0:0:0:
256,352,79615,1,0,0:0:0:0:
256,288,79843,1,0,0:0:0:0:
32,352,80072,2,0,P|256:32|480:352,1,910
160,96,83888,5,0,0:0:0:0:
128,224,84193,2,0,L|256:224,1,116.666666666667
416,160,85032,1,0,0:0:0:0:
256,288,85261,2,0,L|320:288,1,46.6666666666667
128,96,85643,1,0,0:0:0:0:
224,160,85719,2,0,P|256:224|288:192,3,140
256,192,87321,1,0,0:0:0:0:
96,320,87550,2,0,L|128:256,1,70
416,64,88008,2,0,L|384:128,1,70
416,320,88466,2,0,L|384:256,1,70
96,64,88924,2,0,L|128:128,1,70
32,160,89382,2,0,B|64:192|64:192|96:160|96:160|128:192|128:192|160:160|160:160|192:192|192:192|224:160|224:160|256:192|256:192|288:160|288:160|320:192|320:192|352:160,1,443.333333333333
384,160,90984,1,0,0:0:0:0:
384,192,91061,1,0,0:0:0:0:
384,224,91137,1,0,0:0:0:0:
96,64,91518,2,0,P|96:128|128:160,1,93.3333333333333
448,96,92281,1,0,0:0:0:0:
160,160,92587,2,0,L|192:192,1,23.3333333333333
256,352,92968,1,0,0:0:0:0:
256,288,93044,2,0,P|288:224|256:224,3,140
256,160,94571,2,0,L|288:224,1,70
320,160,95257,1,0,0:0:0:0:
192,160,95715,2,0,L|224:224,3,70
32,160,96631,2,0,B|64:192|64:192|96:160|96:160|128:192|128:192|160:160|160:160|192:192|192:192|224:160|224:160|256:192|256:192|288:160|288:160|320:192|320:192|352:160|352:160|384:192,1,490
192,192,98615,2,0,L|224:128,1,70
288,128,99073,2,0,L|256:192,1,70
320,192,99531,2,0,L|352:128,1,70
96,192,99988,1,0,0:0:0:0:
256,288,100294,2,0,P|288:224|256:224,3,140
256,192,101896,1,0,0:0:0:0:
96,320,102125,2,0,L|128:256,1,70
416,64,102583,2,0,L|384:128,1,70
416,320,103041,2,0,L|384:256,3,70
96,64,103956,2,0,B|160:64|160:64|160:96|160:96|192:96|192:96|192:128|192:128|224:128|224:128|224:160|224:160|256:160|256:160|256:192|256:192|288:192|288:192|288:224|288:224|320:224,1,373.333333333333
384,224,105330,2,0,L|384:160,3,46.6666666666667
288,160,105940,2,0,L|384:160,1,93.3333333333333
384,64,106398,2,0,L|384:160,1,93.3333333333333
480,160,106856,2,0,L|384:160,1,93.3333333333333
384,160,107314,1,0,0:0:0:0:
320,160,107543,2,0,P|416:128|448:160,3,140
384,192,109145,2,0,L|416:256,1,70
352,256,109603,1,0,0:0:0:0:
320,224,109832,1,0,0:0:0:0:
288,192,110061,1,0,0:0:0:0:
288,160,110290,1,0,0:0:0:0:
320,128,110519,1,0,0:0:0:0:
352,96,110748,1,0,0:0:0:0:
384,128,110977,1,0,0:0:0:0:
256,192,111206,12,0,112961,0:0:0:0:
192,192,113495,6,0,P|256:160|320:192,1,140
256,192,114182,1,0,0:0:0:0:
320,192,114410,2,0,P|256:224|192:192,1,140
224,192,115326,2,0,L|288:192,5,46.6666666666667
224,224,116242,1,0,0:0:0:0:
224,192,116394,1,0,0:0:0:0:
224,160,116547,1,0,0:0:0:0:
288,160,116700,1,0,0:0:0:0:
288,192,116852,1,0,0:0:0:0:
288,224,117005,1,0,0:0:0:0:
224,160,117157,2,0,L|288:160,1,46.6666666666667
288,192,117463,2,0,L|224:192,1,46.6666666666667
224,224,117768,2,0,L|288:224,1,46.6666666666667
256,160,118073,1,0,0:0:0:0:
256,160,118226,1,0,0:0:0:0:
256,160,118378,1,0,0:0:0:0:
256,192,118531,1,0,0:0:0:0:
256,192,118684,1,0,0:0:0:0:
256,192,118836,1,0,0:0:0:0:
256,224,118989,1,0,0:0:0:0:
256,224,119141,1,0,0:0:0:0:
256,224,119294,1,0,0:0:0:0:
224,192,119447,1,0,0:0:0:0:
224,192,119599,1,0,0:0:0:0:
224,192,119752,1,0,0:0:0:0:
288,192,119905,1,0,0:0:0:0:
288,192,120057,1,0,0:0:0:0:
288,192,120210,1,0,0:0:0:0:
256,192,120362,2,0,L|256:64,1,116.666666666667
192,96,121202,2,0,L|352:96,2,140
256,160,122575,2,0,L|256:224,11,46.6666666666667
256,192,127611,1,0,0:0:0:0:
256,192,142110,5,0,0:0:0:0:
224,160,143254,1,0,0:0:0:0:
288,64,143712,2,0,P|352:160|224:320,1,350
192,256,145086,1,0,0:0:0:0:
256,192,145315,1,0,0:0:0:0:
320,224,145544,2,0,P|448:192|320:96,1,350
352,160,146917,1,0,0:0:0:0:
288,128,147146,1,0,0:0:0:0:
224,64,147375,2,0,P|64:192|128:256,1,350
160,256,148748,1,0,0:0:0:0:
224,320,148977,1,0,0:0:0:0:
288,256,149206,2,0,B|384:160|384:160|320:96|320:96|224:192,1,350
256,224,150580,1,0,0:0:0:0:
224,256,150809,1,0,0:0:0:0:
320,256,151038,2,0,P|320:128|192:224,1,350
256,256,152411,1,0,0:0:0:0:
256,192,152640,1,0,0:0:0:0:
256,128,152869,1,0,0:0:0:0:
320,128,153022,2,0,L|320:288,6,140
224,160,155998,1,0,0:0:0:0:
224,96,156227,1,0,0:0:0:0:
288,64,156456,2,0,P|352:160|224:320,1,350
192,256,157830,1,0,0:0:0:0:
320,224,158211,2,0,P|448:192|320:96,1,350
352,160,159584,1,0,0:0:0:0:
288,128,159813,1,0,0:0:0:0:
256,32,160042,2,0,P|64:192|128:256,1,420
160,256,161644,1,0,0:0:0:0:
288,256,161873,2,0,B|384:160|384:160|320:96|320:96|224:192,1,350
256,224,163247,1,0,0:0:0:0:
224,256,163476,1,0,0:0:0:0:
320,256,163705,2,0,P|320:128|192:224,1,350
256,256,165078,1,0,0:0:0:0:
256,192,165307,1,0,0:0:0:0:
256,128,165536,1,0,0:0:0:0:
192,224,165994,1,0,0:0:0:0:
192,160,166223,1,0,0:0:0:0:
192,96,166452,1,0,0:0:0:0:
128,192,166909,1,0,0:0:0:0:
128,128,167138,1,0,0:0:0:0:
128,64,167367,2,0,B|192:32|288:64|352:32|448:32|480:64|480:128|480:160|416:224|352:256|352:288|352:288|352:288|320:256|320:256,1,606.666666666667
224,224,169809,5,0,0:0:0:0:
224,160,170267,5,0,0:0:0:0:
288,128,170725,5,0,0:0:0:0:
160,160,171183,5,0,0:0:0:0:
160,256,171412,2,0,L|256:256,1,93.3333333333333
320,256,171946,2,0,P|320:192|288:192,1,93.3333333333333
224,160,172480,1,0,0:0:0:0:
160,192,172632,2,0,L|160:288,1,93.3333333333333
224,160,173014,2,0,P|256:224|288:192,3,140
256,192,174616,1,0,0:0:0:0:
96,320,174845,2,0,L|128:256,1,70
416,64,175303,2,0,L|384:128,1,70
416,320,175761,2,0,L|384:256,1,70
96,64,176219,2,0,L|128:128,1,70
32,160,176677,2,0,B|64:192|64:192|96:160|96:160|128:192|128:192|160:160|160:160|192:192|192:192|224:160|224:160|256:192|256:192|288:160|288:160|320:192|320:192|352:160,1,443.333333333333
384,160,178279,1,0,0:0:0:0:
384,192,178356,1,0,0:0:0:0:
384,224,178432,1,0,0:0:0:0:
96,64,178737,2,0,P|96:128|128:160,1,93.3333333333333
448,96,179500,1,0,0:0:0:0:
160,160,179882,2,0,L|192:192,1,23.3333333333333
256,352,180187,1,0,0:0:0:0:
256,288,180263,2,0,P|288:224|256:224,3,140
256,160,181866,2,0,L|288:224,1,70
320,160,182552,1,0,0:0:0:0:
192,160,183010,2,0,L|224:224,3,70
32,160,183926,2,0,B|64:192|64:192|96:160|96:160|128:192|128:192|160:160|160:160|192:192|192:192|224:160|224:160|256:192|256:192|288:160|288:160|320:192|320:192|352:160|352:160|384:192,1,490
192,192,185986,2,0,L|224:128,1,70
288,128,186444,2,0,L|256:192,1,70
320,192,186902,2,0,L|352:128,1,70
96,192,187360,1,0,0:0:0:0:
256,288,187589,2,0,P|288:224|256:224,3,140
256,192,189115,1,0,0:0:0:0:
96,320,189344,2,0,L|128:256,1,70
416,64,189802,2,0,L|384:128,1,70
416,320,190259,2,0,L|384:256,3,70
96,64,191175,2,0,B|160:64|160:64|160:96|160:96|192:96|192:96|192:128|192:128|224:128|224:128|224:160|224:160|256:160|256:160|256:192|256:192|288:192|288:192|288:224|288:224|320:224,1,373.333333333333
384,224,192625,6,0,L|384:160,3,46.6666666666667
288,160,193235,2,0,L|256:192|256:192,1,23.3333333333333
224,128,193541,1,0,0:0:0:0:
224,192,193846,2,0,L|224:256,2,46.6666666666667
288,256,194304,1,0,0:0:0:0:
160,224,194533,1,0,0:0:0:0:
96,128,194761,2,0,L|96:160,1,23.3333333333333
160,128,194914,2,0,L|160:160,1,23.3333333333333
224,128,195067,2,0,L|224:160,1,23.3333333333333
288,128,195219,2,0,L|288:160,1,23.3333333333333
352,224,195448,2,0,L|416:192,1,70
384,128,195830,1,0,0:0:0:0:
384,128,195906,1,0,0:0:0:0:
384,128,195982,1,0,0:0:0:0:
384,128,196059,1,0,0:0:0:0:
320,192,196288,2,0,B|288:224|288:224|288:192|288:192|256:224,1,116.666666666667
128,224,196669,1,0,0:0:0:0:
96,128,196822,2,0,L|96:96,3,23.3333333333333
160,128,197280,2,0,L|160:96,3,23.3333333333333
256,192,197661,12,0,198348,0:0:0:0:
224,96,198500,5,0,0:0:0:0:
256,64,198652,5,0,0:0:0:0:
288,96,198805,5,0,0:0:0:0:
256,128,198958,5,0,0:0:0:0:
256,160,199111,5,0,0:0:0:0:
256,192,199264,5,0,0:0:0:0:
256,224,199416,5,0,0:0:0:0:
