osu file format v6

[General]
AudioFilename: Megaman 2-The Power Fighter-Protomans Ending.mp3
AudioLeadIn: 0
PreviewTime: -1
Countdown: 1
SampleSet: Soft
StackLeniency: 0.7
Mode: 0
LetterboxInBreaks: 1

[Editor]
DistanceSpacing: 0.800000011920929
BeatDivisor: 8
GridSize: 32

[Metadata]
Title:Protomans Ending
Artist:
Creator:Lady Crystal
Version:Normal
Source:Megaman 2-The Power Fighter
Tags:megaman protoman 2 game nintendo

[Difficulty]
HPDrainRate:5
CircleSize:5
OverallDifficulty:5
SliderMultiplier:1.4
SliderTickRate:1

[Events]
//Background and Video events
0,0,"947167-mega_man_power_fighter_illustration_super.png"
//Break Periods
2,64661,67409
//Storyboard Layer 0 (Background)
//Storyboard Layer 1 (Fail)
//Storyboard Layer 2 (Pass)
//Storyboard Layer 3 (Foreground)
//Storyboard Sound Samples
//Background Colour Transformations
3,100,163,162,255

[TimingPoints]
30050.206189793,705.882352941176,4,2,0,100,1,0

[Colours]
Combo1 : 128,0,0
Combo2 : 0,128,255
Combo3 : 240,5,5
Combo4 : 3,3,154

[HitObjects]
96,32,579,1,0
96,32,844,1,0
96,32,1197,1,0
224,128,2344,1,0
224,128,2609,1,0
320,128,3579,1,0
352,96,3844,1,0
288,64,4020,1,0
224,64,4461,1,0
224,160,4903,1,0
320,128,5167,1,0
384,128,5520,1,0
384,256,6491,5,0
384,256,6756,1,0
384,288,6932,1,0
320,192,8167,1,0
320,192,8432,1,0
224,160,9403,1,0
192,128,9667,1,0
160,96,9932,1,0
128,96,10373,1,0
64,128,10814,1,0
160,160,11079,1,0
256,128,11344,1,0
352,96,11697,1,0
384,128,12226,1,0
352,192,12756,5,0
288,224,14079,1,0
256,192,14520,1,0
224,160,14785,1,0
192,160,14961,1,0
192,224,15667,1,0
256,160,16020,1,0
192,192,16197,1,0
192,192,16550,1,0
192,192,16726,1,0
320,128,17432,1,0
320,128,17785,1,0
320,128,17961,1,0
352,224,18403,5,0
288,224,19285,1,0
224,192,19461,1,0
192,128,19726,1,0
160,224,20256,1,0
224,288,20609,1,0
288,288,20785,1,0
288,224,21314,1,0
288,160,21756,1,0
288,96,21932,1,0
288,224,22285,1,0
320,160,22461,1,0
192,224,24314,5,0
160,160,25020,1,0
128,96,25197,1,0
192,64,25285,1,0
256,96,25550,1,0
320,160,26079,5,0
320,352,26432,1,0
192,288,26609,1,0
128,192,27138,1,0
160,128,27491,1,0
192,224,27667,1,0
288,224,28020,1,0
352,160,28197,1,0
256,128,30050,5,0
160,96,30667,1,0
96,128,30844,1,0
96,192,31020,1,0
160,256,31285,1,0
192,160,31814,1,0
160,96,32167,1,0
160,96,32344,1,0
288,192,32873,1,0
224,160,33138,1,0
320,96,33314,1,0
160,96,33756,1,0
160,96,33932,1,0
192,96,35609,1,0
288,128,37109,1,0
192,128,38785,5,0
192,128,39050,1,0
192,128,39403,1,0
192,128,39756,1,0
288,224,40814,1,0
384,192,41079,1,0
448,256,41256,1,0
480,192,41609,1,0
416,128,42050,1,0
352,96,42403,1,0
288,160,42756,1,0
224,224,43638,1,0
160,192,43903,1,0
224,128,44256,1,0
320,224,44520,1,0
256,288,44697,1,0
224,224,45226,1,0
288,128,45403,1,0
416,192,45667,5,0
320,224,46550,1,0
224,224,46726,1,0
128,224,47079,1,0
192,160,47432,1,0
96,96,47609,1,0
192,64,48138,1,0
256,192,48314,1,0
256,64,48491,1,0
224,224,49461,1,0
128,224,49638,1,0
32,224,49903,1,0
96,128,50167,1,0
192,128,50432,1,0
320,160,52285,5,0
320,96,52461,1,0
384,32,52638,1,0
448,96,52814,1,0
448,160,53167,1,0
384,224,53785,1,0
288,224,54050,1,0
224,192,54314,1,0
192,96,55197,1,0
160,96,55461,1,0
96,96,55726,1,0
64,160,56079,1,0
64,224,56256,1,0
128,288,56785,1,0
192,288,56961,1,0
256,256,57138,1,0
224,192,57932,1,0
224,192,58109,1,0
256,160,58461,1,0
224,192,58814,1,0
160,160,59256,1,0
96,160,59697,1,0
32,224,59961,1,0
128,160,62432,5,0
192,128,62609,1,0
256,160,62785,1,0
192,128,63226,1,0
320,128,63403,1,0
416,160,63756,1,0
384,256,64020,1,0
288,224,64461,1,0
128,192,68609,6,0,B|192:224,7,70
256,192,71609,5,0
288,128,71873,1,0
320,64,72050,1,0
352,128,72403,1,0
384,192,72667,1,0
352,256,73903,1,0
256,224,74167,1,0
256,128,74432,1,0
320,192,74785,1,0
352,128,74961,1,0
384,64,75314,1,0
448,96,75667,1,0
448,160,76197,1,0
416,224,76550,1,0
352,224,76903,1,0
320,192,77256,1,0
288,160,77697,1,0
224,96,77873,1,0
160,96,78226,1,0
96,128,78579,1,0
64,192,79109,1,0
96,256,79461,1,0
160,288,79726,1,0
224,256,80167,1,0
288,192,82020,5,0
352,192,82373,1,0
320,192,82726,1,0
320,192,83079,1,0
320,128,83873,1,0
320,64,84138,1,0
256,128,84491,1,0
384,128,85903,1,4
352,192,86873,1,0
288,192,87138,1,0
224,192,87403,1,0
160,192,87756,1,0
96,192,88373,1,0
224,192,88550,1,0
224,192,88814,1,0
160,160,89697,1,0
224,128,89961,1,0
256,96,90314,1,0
224,192,91373,1,0
224,256,91550,1,0
256,320,91726,1,0
320,288,92697,5,0
384,256,92873,1,0
384,192,93138,1,0
416,160,93491,1,0
416,96,93844,1,0
384,32,94197,1,0
320,96,94550,1,0
224,192,95961,1,0
192,128,96226,1,0
256,96,96314,1,0
288,160,96491,1,0
288,256,97020,1,0
224,256,97285,1,0
160,256,97461,1,0
224,192,98344,1,0
160,160,98697,1,0
128,128,98873,1,0
160,96,99756,1,0
224,192,99932,1,0
192,32,100109,1,0
256,64,100285,5,0
224,128,100726,1,0
256,192,100903,1,0
320,192,101256,1,0
320,128,101609,1,0
352,96,101961,1,0
416,64,102138,1,0
448,128,102314,1,0
448,192,102932,1,0
448,256,103109,1,0
384,288,103285,1,0
320,256,104167,1,0
256,224,104432,1,0
224,160,104609,1,0
160,192,105667,1,0
96,128,105844,1,0
64,64,106020,1,0
128,32,106461,1,0
160,96,106638,1,0
96,160,106991,1,0
64,224,107432,1,0
64,320,107697,1,0
160,320,107873,1,0
192,256,108138,1,0
224,192,108667,5,0
224,128,108844,1,0
288,96,109109,1,0
352,128,109903,1,0
416,96,110167,1,0
352,32,110432,1,0
352,160,111403,1,0
384,192,111579,1,0
416,224,111932,1,0
448,288,112638,1,0
384,320,112991,1,0
320,288,113167,1,0
256,256,114403,1,0
256,256,114579,1,0
256,256,114844,1,0
320,224,115726,1,0
384,192,115903,1,0
352,128,116079,1,0
320,64,116609,1,0
256,32,116961,1,0
192,64,117314,1,0
128,128,117756,1,0
96,192,118373,1,0
96,288,119167,1,0
192,288,119785,1,0
224,192,120491,1,4
