osu file format v6

[General]
AudioFilename: Megadeath - Duke Nukem Theme.mp3
AudioLeadIn: 0
PreviewTime: 23149
Countdown: 1
SampleSet: Normal
StackLeniency: 0.7
Mode: 0
LetterboxInBreaks: 1

[Editor]
DistanceSpacing: 1
BeatDivisor: 4
GridSize: 8

[Metadata]
Title:Grabbag
Artist:Megadeth
Creator:Doomsday93
Version:Come Get Some
Source:Duke Nukem 3D
Tags:Duke Nukem 3D

[Difficulty]
HPDrainRate:5
CircleSize:5
OverallDifficulty:6
SliderMultiplier:1.3
SliderTickRate:1

[Events]
//Background and Video events
0,0,"duke_nukem_004.jpg"
//Break Periods
2,47599,52466
2,87847,92698
2,118163,122862
2,160047,168858
2,190232,203356
//Storyboard Layer 0 (Background)
//Storyboard Layer 1 (Fail)
//Storyboard Layer 2 (Pass)
//Storyboard Layer 3 (Foreground)
//Storyboard Sound Samples
//Background Colour Transformations
3,100,163,162,255

[TimingPoints]
335,359.281437125748,4,1,0,60,1,0
34806,359.820089955023,4,1,0,60,1,0
53516,359.281437125748,4,1,0,61,1,0
93748,358.744394618834,4,1,0,60,1,0
118163,359.345990297658,4,1,0,60,1,0

[Colours]
Combo1 : 254,227,37
Combo2 : 255,13,13

[HitObjects]
160,104,11832,1,4
160,168,12011,1,0
160,296,12370,1,0
352,296,12909,1,0
352,232,13089,1,0
352,104,13448,1,0
160,288,14706,5,0
224,288,14885,1,0
352,288,15245,1,0
352,96,15784,1,0
288,96,15963,1,0
160,96,16323,1,0
384,176,17580,5,4
344,224,17760,1,0
264,320,18119,1,0
136,200,18658,1,0
176,152,18837,1,0
256,56,19197,1,0
256,192,19736,5,0
256,192,20095,1,0
256,208,20454,12,0,22969
384,72,23329,5,0
320,72,23508,2,0,B|232:72,2,65,2|0|2
320,200,24227,5,0
320,264,24406,1,0
320,328,24586,2,0,B|408:328,2,65,2|0|2
192,328,25305,5,0
144,280,25484,1,0
96,232,25664,2,0,B|32:168,2,65,2|0|2
224,232,26382,5,0
176,184,26562,1,0
176,120,26742,1,2
224,72,26921,1,0
272,120,27101,1,0
272,184,27281,1,0
224,232,27460,1,0
224,296,27640,6,0,B|288:328|368:288,1,130,4|0
392,248,28179,2,0,B|424:184|384:104,1,130,4|0
368,64,28718,2,0,B|280:64,1,65,4|0
240,64,29077,5,4
176,64,29257,2,0,B|104:64,2,65,2|0|2
176,192,29975,5,0
176,256,30155,1,0
176,320,30334,2,0,B|104:320,2,65,2|0|2
304,320,31053,5,0
368,320,31233,1,0
432,320,31412,2,0,B|432:240,2,65,2|0|2
432,192,32131,5,0
432,128,32311,1,0
432,64,32490,1,2
368,64,32670,1,0
304,64,32849,1,0
304,128,33029,1,0
304,192,33209,1,0
304,256,33388,6,0,B|304:320|232:320|232:272|232:232,1,130,4|0
232,192,33927,2,0,B|232:128|160:128|160:176|160:216,1,130,4|0
160,256,34466,2,0,B|160:336,1,65,4|0
224,320,34806,5,4
288,320,34985,2,0,B|344:264,2,65,2|0|2
200,224,35705,5,0
160,176,35885,1,0
120,128,36065,2,0,B|56:184,2,65,2|0|2
216,32,36785,5,0
256,80,36964,1,0
296,128,37144,2,0,B|344:184,2,65,2|0|2
296,256,37864,5,0
256,304,38044,1,0
192,304,38224,1,2
152,256,38404,1,0
152,192,38584,1,0
192,144,38764,1,0
256,144,38943,1,0
296,192,39123,6,0,B|400:224|296:264,1,130,4|0
232,264,39663,2,0,B|128:232|232:192,1,130,4|0
296,192,40203,2,0,B|384:192|384:192,1,65,4|0
424,192,40563,5,4
472,240,40743,2,0,B|416:296,2,65,2|0|2
344,240,41462,5,0
280,240,41642,1,0
216,240,41822,2,0,B|152:312,2,65,2|0|2
296,136,42542,5,0
360,136,42722,1,0
424,136,42901,2,0,B|488:200,2,65,2|0|2
352,24,43621,5,0
288,24,43801,1,0
224,24,43981,1,2
168,56,44161,1,0
224,88,44341,1,0
168,120,44521,1,0
224,152,44701,1,0
168,184,44880,6,0,B|160:232|168:272|264:248,1,130,4|0
307,253,45420,2,0,B|355:261|395:253|371:157,1,130,4|0
376,112,45960,2,0,B|384:64|376:24|280:48,1,130,4|0
236,43,46500,2,0,B|188:35|148:43|172:139,1,130,4|0
168,184,47039,1,0
168,184,47399,1,0
200,72,53516,6,0,B|280:72,1,65
328,72,53875,2,0,B|436:104|320:144,1,130,0|8
263,143,54414,2,0,B|155:175|271:215,1,130,0|0
327,213,54953,6,0,B|439:245|319:285,1,130,0|0
264,280,55492,1,0
200,280,55671,1,8
136,280,55851,1,0
72,280,56030,1,0
72,152,56390,6,0,B|72:72,1,65
72,24,56749,2,0,B|136:24|152:80|144:120,1,130,0|8
210,111,57288,2,0,B|202:79|216:24|313:22,1,130
352,24,57827,6,0,B|408:24|424:56,1,65
456,88,58186,1,0
456,88,58276,1,0
456,88,58366,1,0
456,152,58545,1,8
456,152,58635,1,0
456,152,58725,1,0
456,216,58905,1,8
456,216,58995,1,0
456,216,59084,1,0
456,280,59264,6,0,B|400:336,1,65
344,326,59623,2,0,B|262:326|262:239,1,130,0|8
263,181,60162,2,0,B|264:88|160:88,1,130
124,90,60701,6,0,B|48:90|48:208,1,130
50,244,61240,1,0
114,244,61420,1,8
179,244,61599,2,0,B|179:326,2,65
178,178,62138,6,0,B|178:90,1,65
177,47,62498,2,0,B|265:47|305:119,1,130,0|8
320,160,63036,2,0,B|320:248|248:288,1,130
216,312,63575,5,0
216,312,63665,1,0
216,312,63755,1,0
168,264,63935,1,0
168,264,64024,1,0
168,264,64114,1,0
216,216,64294,1,8
216,216,64384,1,0
216,216,64474,1,0
264,264,64653,1,8
264,264,64743,1,0
264,264,64833,1,0
312,312,65013,5,0
376,312,65192,1,0
440,312,65372,2,0,B|472:240|424:160,1,130,0|4
392,136,65911,2,0,B|344:80|248:112,1,130
216,128,66450,2,0,B|136:168,2,65
448,192,67168,1,4
216,256,67527,1,0
104,192,67887,5,0
168,192,68066,1,0
232,192,68246,2,0,B|272:128,1,65
328,136,68605,1,4
360,192,68785,1,0
328,248,68965,1,0
296,192,69144,6,0,B|144:192,1,130
96,192,69683,1,0
256,40,70042,1,4
432,192,70402,1,0
256,344,70761,5,0
200,304,70941,1,0
256,272,71120,1,0
312,240,71300,1,0
368,208,71480,2,0,B|464:160|352:120,1,130,4|0
312,88,72018,6,0,B|256:48|168:96,1,130
128,112,72557,2,0,B|64:160,1,65
24,184,72917,2,0,B|88:232,1,65,4|0
128,256,73276,2,0,B|72:304,2,65
176,208,73815,1,0
456,192,74174,1,0
176,176,74533,1,0
256,208,74893,12,4,76150
200,72,76510,5,0
136,72,76689,1,0
72,72,76869,2,0,B|40:144|88:224,1,130,0|4
120,248,77408,2,0,B|168:304|264:272,1,130
296,256,77947,2,0,B|376:216,2,65
64,192,78665,1,4
296,128,79024,1,0
408,192,79384,5,0
344,192,79563,1,0
280,192,79743,2,0,B|240:256,1,65
184,248,80102,1,4
152,192,80282,1,0
184,136,80462,1,0
216,192,80641,6,0,B|368:192,1,130
416,192,81180,1,0
256,344,81539,1,4
80,192,81899,1,0
256,40,82258,5,0
312,80,82438,1,0
256,112,82617,1,0
200,144,82797,1,0
144,176,82977,2,0,B|48:224|160:264,1,130,4|0
200,296,83516,6,0,B|256:336|344:288,1,130
384,272,84054,2,0,B|448:224,1,65
488,200,84414,2,0,B|424:152,1,65,4|0
384,128,84773,2,0,B|440:80,2,65
336,176,85312,1,0
56,192,85671,1,0
336,208,86030,1,0
256,208,86390,12,4,87647
128,312,93748,5,0
192,312,93927,2,0,B|280:312,2,65,2|0|2
192,184,94644,5,0
192,120,94824,1,0
192,56,95003,2,0,B|104:56,2,65,2|0|2
320,56,95721,5,0
368,104,95900,1,0
416,152,96079,2,0,B|480:216,2,65,2|0|2
288,152,96797,5,0
336,200,96976,1,0
336,264,97156,1,2
288,312,97335,1,0
240,264,97514,1,0
240,200,97694,1,0
288,152,97873,1,0
288,88,98052,6,0,B|224:56|144:96,1,130,4|0
120,136,98591,2,0,B|88:200|128:280,1,130,4|0
144,320,99129,2,0,B|232:320,1,65,4|0
272,320,99487,5,4
336,320,99667,2,0,B|408:320,2,65,2|0|2
336,192,100384,5,0
336,128,100564,1,0
336,64,100743,2,0,B|408:64,2,65,2|0|2
208,64,101461,5,0
144,64,101640,1,0
80,64,101819,2,0,B|80:144,2,65,2|0|2
80,192,102537,5,0
80,256,102716,1,0
80,320,102895,1,2
144,320,103075,1,0
208,320,103254,1,0
208,256,103434,1,0
208,192,103613,1,0
208,128,103792,6,0,B|208:64|280:64|280:112|280:152,1,130,4|0
280,192,104330,2,0,B|280:256|352:256|352:208|352:168,1,130,4|0
352,128,104869,2,0,B|352:48,1,65,4|0
288,64,105227,5,4
224,64,105407,2,0,B|168:120,2,65,2|0|2
312,160,106124,5,0
352,208,106304,1,0
392,256,106483,2,0,B|456:200,2,65,2|0|2
296,352,107200,5,0
256,304,107380,1,0
216,256,107559,2,0,B|168:200,2,65,2|0|2
216,128,108277,5,0
256,80,108456,1,0
320,80,108635,1,2
360,128,108815,1,0
360,192,108994,1,0
320,240,109174,1,0
256,240,109353,1,0
216,192,109532,6,0,B|112:160|216:120,1,130,4|0
280,120,110070,2,0,B|384:152|280:192,1,130,4|0
216,192,110608,2,0,B|128:192|128:192,1,65,4|0
88,192,110967,5,4
40,144,111147,2,0,B|96:88,2,65,2|0|2
168,144,111864,5,0
232,144,112043,1,0
296,144,112223,2,0,B|360:72,2,65,2|0|2
216,248,112940,5,0
152,248,113120,1,0
88,248,113299,2,0,B|24:184,2,65,2|0|2
160,360,114017,5,0
224,360,114196,1,0
288,360,114375,1,2
344,328,114555,1,0
288,296,114734,1,0
344,264,114913,1,0
288,232,115093,1,0
344,200,115272,6,0,B|352:152|344:112|248:136,1,130,4|0
205,131,115810,2,0,B|157:123|117:131|141:227,1,130,4|0
136,272,116348,2,0,B|128:320|136:360|232:336,1,130,4|0
276,341,116887,2,0,B|324:349|364:341|340:245,1,130,4|0
344,200,117425,1,0
344,200,117604,1,0
344,200,117783,1,0
344,200,117873,1,0
344,200,117963,1,0
392,80,123912,5,0
328,80,124092,1,0
264,80,124271,2,0,B|192:120,1,65,8|0
152,144,124631,2,0,B|216:184,1,65
264,208,124990,2,0,B|192:256,1,65,8|0
152,272,125349,5,0
88,272,125529,1,0
40,224,125709,2,0,B|40:128|120:112,2,130,8|0|8
168,224,126787,5,0
216,272,126966,1,0
264,224,127146,1,8
312,272,127326,1,0
360,224,127505,1,0
408,176,127685,1,0
408,112,127865,1,8
368,64,128045,6,0,B|288:24|216:32,1,130
176,32,128584,1,8
256,320,128943,1,0
328,32,129302,1,8
224,104,129662,5,0
176,152,129841,1,0
224,192,130021,2,0,B|296:208|304:168,1,65,8|0
344,152,130380,2,0,B|360:112|336:80,1,65
288,48,130740,2,0,B|240:32|208:56,1,65,8|0
88,192,131458,5,8
176,288,131818,1,0
264,192,132177,2,0,B|312:120|360:104,1,130,8|0
416,72,132716,1,0
256,344,133075,1,0
88,72,133435,1,0
256,208,133794,12,8,135052
120,304,135411,5,4
184,304,135591,1,0
248,304,135770,2,0,B|320:264,1,65,8|0
360,240,136130,2,0,B|296:200,1,65
248,176,136489,2,0,B|320:128,1,65,8|0
360,112,136848,5,0
424,112,137028,1,0
472,160,137208,2,0,B|472:256|392:272,2,130,8|0|8
344,160,138286,5,0
296,112,138466,1,0
248,160,138645,1,8
200,112,138825,1,0
152,160,139005,1,0
104,208,139184,1,0
104,272,139364,1,8
144,320,139544,6,0,B|224:360|296:352,1,130
336,352,140083,1,8
256,64,140442,1,0
184,352,140801,1,8
288,280,141161,5,0
336,232,141340,1,0
288,192,141520,2,0,B|216:176|208:216,1,65,8|0
168,232,141879,2,0,B|152:272|176:304,1,65
224,336,142239,2,0,B|272:352|304:328,1,65,8|0
424,192,142957,5,8
336,96,143317,1,0
248,192,143676,2,0,B|200:264|152:280,1,130,8|0
96,312,144215,1,0
256,40,144574,5,0
424,312,144934,1,0
96,312,145293,1,0
192,144,145832,6,0,B|328:104,1,130,4|0
320,240,146551,2,0,B|184:280,1,130,4|0
136,160,147270,1,4
176,208,147449,1,0
216,256,147629,1,4
256,208,147809,1,0
296,160,147988,1,4
336,208,148168,1,0
384,256,148348,6,0,B|424:264|472:248,2,65,4|0|0
416,200,148887,1,0
376,144,149066,2,0,B|424:128|464:152,2,65,4|0|0
312,144,149605,5,0
72,192,149965,1,0
312,240,150324,2,0,B|400:224|424:144,1,130
408,104,150863,1,0
360,56,151043,1,0
296,56,151222,6,0,B|224:56|224:96,1,65,4|0
176,104,151582,1,0
232,136,151761,1,0
176,168,151941,2,0,B|112:184|112:208,1,65,4|0
72,240,152300,1,0
72,304,152480,5,0
256,32,152839,1,0
440,304,153199,2,0,B|376:224|328:208,1,130
296,176,153738,2,0,B|256:144,3,32.5
248,136,154097,6,0,B|168:128|168:152,2,65,4|0|0
312,136,154636,1,0
344,136,154726,1,0
376,136,154816,2,0,B|440:136|464:160,2,65,4|0|0
312,136,155355,5,0
184,136,155714,1,0
184,264,156074,1,0
312,264,156433,1,0
392,48,156792,5,0
120,48,157152,1,0
120,336,157511,1,0
400,336,157870,1,0
256,192,158230,5,0
256,192,158409,1,0
256,192,158589,1,0
256,192,158769,1,4
256,192,158948,1,0
256,192,159128,1,4
256,192,159308,1,0
256,192,159487,1,4
256,192,159667,1,0
256,192,159847,1,4
456,232,169908,5,4
400,264,170088,2,0,B|328:304,1,65
288,328,170447,1,0
56,152,170986,5,4
112,120,171166,2,0,B|184:80,1,65
224,56,171525,1,0
352,64,171885,6,0,B|400:32,2,32.5
300,104,172244,1,8
247,142,172424,1,8
194,180,172603,1,8
136,208,172783,5,4
96,256,172963,2,0,B|128:312|152:312,1,65
192,280,173322,1,0
376,176,173861,5,4
416,128,174041,2,0,B|384:72|360:72,1,65
320,104,174400,1,0
160,216,174939,6,0,B|160:264,3,32.5
160,280,175299,2,0,B|208:280,3,32.5
224,280,175658,6,0,B|288:280|368:232,1,130,4|0
376,184,176197,2,0,B|352:112|264:80,1,130
160,96,176736,6,0,B|96:144|104:216,1,130,4|0
136,264,177275,2,0,B|224:296|280:256,1,130
320,240,177814,5,0
376,208,177994,1,0
320,176,178173,1,0
376,144,178353,1,0
320,112,178533,6,0,B|248:80|176:120,1,130,4|0
144,152,179072,2,0,B|120:216|168:280,1,130
288,296,179611,6,0,B|368:264|384:208,1,130,4|0
368,152,180150,2,0,B|320:96|240:96,1,130
192,96,180689,1,0
160,96,180779,1,0
128,96,180868,1,0
128,160,181048,1,0
160,160,181138,1,0
192,160,181228,1,0
256,160,181407,6,0,B|336:168|376:224,1,130,4|0
360,280,181946,2,0,B|296:328|216:312,1,130
120,256,182485,6,0,B|96:184|160:120,1,130,4|0
200,96,183024,2,0,B|264:64|336:128,1,130
376,144,183563,1,0
432,176,183743,1,0
376,208,183923,1,0
432,240,184102,1,0
376,272,184282,6,0,B|320:304|296:296,1,65,4|0
256,312,184642,1,0
136,264,184821,6,0,B|104:224|112:200,1,65,4|0
120,144,185181,1,0
216,56,185360,6,0,B|288:40|288:64,1,65,4|0
344,64,185720,1,0
424,168,185899,6,0,B|440:224|408:256,1,65,4|0
400,288,186259,1,0
336,288,186438,5,4
176,232,186618,1,0
336,184,186798,1,0
176,128,186977,1,0
256,208,187157,12,4,190032
384,312,204406,5,0
320,312,204585,2,0,B|232:312,2,65,2|0|2
320,184,205304,5,0
320,120,205484,1,0
320,56,205663,2,0,B|408:56,2,65,2|0|2
192,56,206382,5,0
144,104,206562,1,0
96,152,206741,2,0,B|32:216,2,65,2|0|2
224,152,207460,5,0
176,200,207640,1,0
176,264,207819,1,2
224,312,207999,1,0
272,264,208179,1,0
272,200,208358,1,0
224,152,208538,1,0
176,104,208718,5,0
112,104,208897,2,0,B|40:104,2,65,2|0|2
112,232,209616,5,0
160,280,209796,1,0
208,328,209975,2,0,B|264:280,2,65,2|0|2
336,328,210694,5,0
400,328,210874,1,0
464,328,211053,2,0,B|464:256,2,65,2|0|2
464,200,211772,5,0
464,136,211952,1,0
424,88,212131,1,2
384,136,212311,1,0
344,88,212491,1,0
304,136,212670,1,0
264,88,212850,1,0
224,136,213030,5,0
184,184,213210,2,0,B|176:232|208:264,1,65,2|0
232,296,213569,1,2
360,296,213928,5,0
408,248,214108,1,0
360,200,214288,2,2,B|240:112,1,130,2|2
120,160,215006,5,0
120,224,215186,1,0
168,272,215366,2,0,B|248:272,1,65,2|0
296,272,215725,1,2
392,184,216084,5,0
392,120,216264,1,0
344,72,216444,1,2
280,72,216623,1,0
216,72,216803,1,0
152,72,216983,1,0
112,120,217162,1,0
256,208,217342,12,4,220037
