osu file format v5

[General]
AudioFilename: agents.mp3
AudioLeadIn: 0
PreviewTime: -1
Countdown: 1
SampleSet: Normal
StackLeniency: 0.7
Mode: 0
LetterboxInBreaks: 1
EditorDistanceSpacing: 0.800000011920929

[Metadata]
Title:Elite Beat Agents
Artist:Mega64
Creator:smash12
Version:Normal
Source:
Tags:

[Difficulty]
HPDrainRate:6
CircleSize:5
OverallDifficulty:4
SliderMultiplier:1.4
SliderTickRate:3

[Events]
//Background and Video events
1,0,"EBA.wmv"
0,0,"20kc3dl.jpg"
//Break Periods
2,41619,53328
2,80473,86349
//Storyboard Layer 0 (Background)
//Storyboard Layer 1 (Failing)
//Storyboard Layer 2 (Passing)
//Storyboard Layer 3 (Foreground)
//Storyboard Sound Samples
//Background Colour Transformations
3,100,0,0,255

[TimingPoints]
14960.6666666667,416.666666666667,4,1,0,100,1,0

[Colours]
Combo1 : 255,255,0
Combo2 : 0,248,37
Combo3 : 51,93,255
Combo4 : 248,40,0

[HitObjects]
64,192,14752,1,0
320,192,15689,1,0
320,256,16523,1,0
96,256,17356,1,0
96,32,18189,1,0
96,288,19127,1,0
96,96,19856,1,0
320,96,20689,1,0
512,224,21523,5,0
256,224,22460,1,0
64,192,23189,1,0
96,384,23919,1,0
352,352,24856,5,0
352,128,25689,1,0
128,128,26523,1,0
128,128,26939,1,0
128,128,27252,1,0
128,256,27773,1,0
64,64,28606,5,0
128,192,29439,1,0
192,352,30481,1,0
288,352,31002,1,0
416,352,31419,2,0,L|416:192,3,140
416,96,33189,1,0
416,96,33814,1,0
288,96,34335,1,0
160,96,34752,1,0
32,288,35585,5,0
256,288,36419,1,0
448,288,37148,1,0
448,160,37669,1,0
448,32,38085,1,0
256,32,38814,5,0
32,32,39648,1,0
128,96,40064,1,0
224,160,40481,1,0
320,224,40898,1,0
416,320,41419,1,0
0,32,54648,5,0
224,32,55481,1,0
416,32,56210,1,0
416,256,57044,1,0
192,256,57877,1,0
0,256,58710,1,0
192,352,59544,1,0
416,288,60377,1,0
224,160,61210,5,0
32,32,62044,1,0
256,32,62877,1,0
480,32,63710,1,0
192,288,64544,1,0
64,128,65377,1,0
256,160,66210,1,0
160,160,66627,1,0
256,224,67044,1,0
160,224,67460,1,0
64,320,67877,6,0,L|384:320,1,315
448,256,69127,1,0
384,192,69544,2,0,L|96:192,1,280
32,128,70794,1,0
96,64,71210,2,0,L|384:64,1,280
416,128,72356,1,0
384,192,72773,2,0,L|96:192,1,280
32,256,74023,1,0
96,320,74439,2,0,L|384:320,1,280
448,256,75689,1,0
384,192,76106,2,0,L|96:192,1,280
256,192,77564,12,0,80273
256,192,87669,12,0,94439
256,192,95273,12,0,103189
96,96,104335,5,0
192,96,104752,1,0
288,96,105169,1,0
384,96,105585,1,0
384,224,106002,1,0
288,224,106419,1,0
192,224,106835,1,0
96,224,107252,1,0
96,128,107669,5,0
224,128,108398,1,0
352,128,109231,1,0
480,128,109960,1,0
480,224,110481,1,0
480,288,110898,1,0
256,288,111731,5,0
64,288,112460,1,0
64,64,113294,1,0
192,64,113814,1,0
288,64,114127,1,0
512,64,114960,5,0
320,192,115794,1,0
192,320,116523,1,0
64,256,117044,1,0
64,128,117460,1,0
256,192,118085,12,0,121419
